  0
SECTION
  2
HEADER
  9
$ACADVER
  1
AC1018
  9
$ACADMAINTVER
 70
   104
  9
$DWGCODEPAGE
  3
ANSI_932
  9
$LASTSAVEDBY
  1
yano27
  9
$INSBASE
 10
0.0
 20
0.0
 30
0.0
  9
$EXTMIN
 10
-7865.381490481038
 20
189.7530463832918
 30
0.0
  9
$EXTMAX
 10
114.6185095189636
 20
5832.753046383293
 30
0.0
  9
$LIMMIN
 10
0.0
 20
0.0
  9
$LIMMAX
 10
7425.0
 20
5250.0
  9
$ORTHOMODE
 70
     0
  9
$REGENMODE
 70
     1
  9
$FILLMODE
 70
     1
  9
$QTEXTMODE
 70
     0
  9
$MIRRTEXT
 70
     1
  9
$LTSCALE
 40
150.0
  9
$ATTMODE
 70
     1
  9
$TEXTSIZE
 40
75.0
  9
$TRACEWID
 40
0.05
  9
$TEXTSTYLE
  7
縦字ｽﾀｲﾙ
  9
$CLAYER
  8
01-寸法線
  9
$CELTYPE
  6
BYLAYER
  9
$CECOLOR
 62
   256
  9
$CELTSCALE
 40
0.5
  9
$DISPSILH
 70
     0
  9
$DIMSCALE
 40
15.0
  9
$DIMASZ
 40
2.0
  9
$DIMEXO
 40
1.0
  9
$DIMDLI
 40
6.0
  9
$DIMRND
 40
0.0
  9
$DIMDLE
 40
0.0
  9
$DIMEXE
 40
1.0
  9
$DIMTP
 40
0.0
  9
$DIMTM
 40
0.0
  9
$DIMTXT
 40
3.5
  9
$DIMCEN
 40
1.0
  9
$DIMTSZ
 40
0.0
  9
$DIMTOL
 70
     0
  9
$DIMLIM
 70
     0
  9
$DIMTIH
 70
     0
  9
$DIMTOH
 70
     0
  9
$DIMSE1
 70
     0
  9
$DIMSE2
 70
     0
  9
$DIMTAD
 70
     1
  9
$DIMZIN
 70
     9
  9
$DIMBLK
  1
OPEN
  9
$DIMASO
 70
     1
  9
$DIMSHO
 70
     0
  9
$DIMPOST
  1

  9
$DIMAPOST
  1

  9
$DIMALT
 70
     0
  9
$DIMALTD
 70
     2
  9
$DIMALTF
 40
25.4
  9
$DIMLFAC
 40
1.0
  9
$DIMTOFL
 70
     1
  9
$DIMTVP
 40
0.0
  9
$DIMTIX
 70
     0
  9
$DIMSOXD
 70
     0
  9
$DIMSAH
 70
     0
  9
$DIMBLK1
  1

  9
$DIMBLK2
  1

  9
$DIMSTYLE
  2
スタイル15
  9
$DIMCLRD
 70
     4
  9
$DIMCLRE
 70
     4
  9
$DIMCLRT
 70
     4
  9
$DIMTFAC
 40
1.0
  9
$DIMGAP
 40
0.5
  9
$DIMJUST
 70
     0
  9
$DIMSD1
 70
     0
  9
$DIMSD2
 70
     0
  9
$DIMTOLJ
 70
     1
  9
$DIMTZIN
 70
     0
  9
$DIMALTZ
 70
     0
  9
$DIMALTTZ
 70
     0
  9
$DIMUPT
 70
     0
  9
$DIMDEC
 70
     2
  9
$DIMTDEC
 70
     2
  9
$DIMALTU
 70
     2
  9
$DIMALTTD
 70
     2
  9
$DIMTXSTY
  7
ｵﾘｼﾞﾅﾙｽﾀｲﾙ
  9
$DIMAUNIT
 70
     0
  9
$DIMADEC
 70
     0
  9
$DIMALTRND
 40
0.0
  9
$DIMAZIN
 70
     0
  9
$DIMDSEP
 70
    46
  9
$DIMATFIT
 70
     0
  9
$DIMFRAC
 70
     0
  9
$DIMLDRBLK
  1
OPEN
  9
$DIMLUNIT
 70
     2
  9
$DIMLWD
 70
     9
  9
$DIMLWE
 70
     9
  9
$DIMTMOVE
 70
     0
  9
$LUNITS
 70
     2
  9
$LUPREC
 70
     4
  9
$SKETCHINC
 40
0.1
  9
$FILLETRAD
 40
25.0
  9
$AUNITS
 70
     0
  9
$AUPREC
 70
     0
  9
$MENU
  1
acad
  9
$ELEVATION
 40
0.0
  9
$PELEVATION
 40
0.0
  9
$THICKNESS
 40
0.0
  9
$LIMCHECK
 70
     0
  9
$CHAMFERA
 40
0.0
  9
$CHAMFERB
 40
0.0
  9
$CHAMFERC
 40
0.0
  9
$CHAMFERD
 40
0.0
  9
$SKPOLY
 70
     0
  9
$TDCREATE
 40
2452224.843078241
  9
$TDUCREATE
 40
2452224.468078241
  9
$TDUPDATE
 40
2457484.417932997
  9
$TDUUPDATE
 40
2457484.042932998
  9
$TDINDWG
 40
2.5824274769
  9
$TDUSRTIMER
 40
2.5824274769
  9
$USRTIMER
 70
     1
  9
$ANGBASE
 50
0.0
  9
$ANGDIR
 70
     0
  9
$PDMODE
 70
    34
  9
$PDSIZE
 40
-5.0
  9
$PLINEWID
 40
0.0
  9
$SPLFRAME
 70
     0
  9
$SPLINETYPE
 70
     6
  9
$SPLINESEGS
 70
     8
  9
$HANDSEED
  5
C8A2
  9
$SURFTAB1
 70
     6
  9
$SURFTAB2
 70
     6
  9
$SURFTYPE
 70
     6
  9
$SURFU
 70
     6
  9
$SURFV
 70
     6
  9
$UCSBASE
  2

  9
$UCSNAME
  2

  9
$UCSORG
 10
0.0
 20
0.0
 30
0.0
  9
$UCSXDIR
 10
1.0
 20
0.0
 30
0.0
  9
$UCSYDIR
 10
0.0
 20
1.0
 30
0.0
  9
$UCSORTHOREF
  2

  9
$UCSORTHOVIEW
 70
     0
  9
$UCSORGTOP
 10
0.0
 20
0.0
 30
0.0
  9
$UCSORGBOTTOM
 10
0.0
 20
0.0
 30
0.0
  9
$UCSORGLEFT
 10
0.0
 20
0.0
 30
0.0
  9
$UCSORGRIGHT
 10
0.0
 20
0.0
 30
0.0
  9
$UCSORGFRONT
 10
0.0
 20
0.0
 30
0.0
  9
$UCSORGBACK
 10
0.0
 20
0.0
 30
0.0
  9
$PUCSBASE
  2

  9
$PUCSNAME
  2

  9
$PUCSORG
 10
0.0
 20
0.0
 30
0.0
  9
$PUCSXDIR
 10
1.0
 20
0.0
 30
0.0
  9
$PUCSYDIR
 10
0.0
 20
1.0
 30
0.0
  9
$PUCSORTHOREF
  2

  9
$PUCSORTHOVIEW
 70
     0
  9
$PUCSORGTOP
 10
0.0
 20
0.0
 30
0.0
  9
$PUCSORGBOTTOM
 10
0.0
 20
0.0
 30
0.0
  9
$PUCSORGLEFT
 10
0.0
 20
0.0
 30
0.0
  9
$PUCSORGRIGHT
 10
0.0
 20
0.0
 30
0.0
  9
$PUCSORGFRONT
 10
0.0
 20
0.0
 30
0.0
  9
$PUCSORGBACK
 10
0.0
 20
0.0
 30
0.0
  9
$USERI1
 70
     0
  9
$USERI2
 70
     0
  9
$USERI3
 70
     0
  9
$USERI4
 70
     0
  9
$USERI5
 70
     0
  9
$USERR1
 40
0.0
  9
$USERR2
 40
0.0
  9
$USERR3
 40
0.0
  9
$USERR4
 40
0.0
  9
$USERR5
 40
0.0
  9
$WORLDVIEW
 70
     1
  9
$SHADEDGE
 70
     3
  9
$SHADEDIF
 70
    70
  9
$TILEMODE
 70
     1
  9
$MAXACTVP
 70
    16
  9
$PINSBASE
 10
0.0
 20
0.0
 30
0.0
  9
$PLIMCHECK
 70
     0
  9
$PEXTMIN
 10
1.049999952316284
 20
0.7999999523162842
 30
0.0
  9
$PEXTMAX
 10
9.449999570846555
 20
7.199999570846556
 30
0.0
  9
$PLIMMIN
 10
-0.2500002402958907
 20
-0.2499999962453767
  9
$PLIMMAX
 10
10.74999951940821
 20
8.249999763458731
  9
$UNITMODE
 70
     0
  9
$VISRETAIN
 70
     0
  9
$PLINEGEN
 70
     0
  9
$PSLTSCALE
 70
     0
  9
$TREEDEPTH
 70
  3020
  9
$CMLSTYLE
  2
STANDARD
  9
$CMLJUST
 70
     0
  9
$CMLSCALE
 40
1.0
  9
$PROXYGRAPHICS
 70
     1
  9
$MEASUREMENT
 70
     0
  9
$CELWEIGHT
370
    -1
  9
$ENDCAPS
280
     0
  9
$JOINSTYLE
280
     0
  9
$LWDISPLAY
290
     0
  9
$INSUNITS
 70
     4
  9
$HYPERLINKBASE
  1

  9
$STYLESHEET
  1
monochrome.ctb
  9
$XEDIT
290
     1
  9
$CEPSNTYPE
380
     0
  9
$PSTYLEMODE
290
     1
  9
$FINGERPRINTGUID
  2
{0454649D-4742-4B48-B1F5-A03FF9242E90}
  9
$VERSIONGUID
  2
{87403C6A-66D4-4119-906C-549DAD8D5A50}
  9
$EXTNAMES
290
     1
  9
$PSVPSCALE
 40
0.0
  9
$OLESTARTUP
290
     0
  9
$SORTENTS
280
   127
  9
$INDEXCTL
280
     0
  9
$HIDETEXT
280
     0
  9
$XCLIPFRAME
290
     0
  9
$HALOGAP
280
     0
  9
$OBSCOLOR
 70
   257
  9
$OBSLTYPE
280
     0
  9
$INTERSECTIONDISPLAY
280
     0
  9
$INTERSECTIONCOLOR
 70
   257
  9
$DIMASSOC
280
     1
  9
$PROJECTNAME
  1

  0
ENDSEC
  0
SECTION
  2
CLASSES
  0
CLASS
  1
ACDBDICTIONARYWDFLT
  2
AcDbDictionaryWithDefault
  3
ObjectDBX Classes
 90
        0
 91
        1
280
     0
281
     0
  0
CLASS
  1
TABLESTYLE
  2
AcDbTableStyle
  3
ObjectDBX Classes
 90
     4095
 91
        1
280
     0
281
     0
  0
CLASS
  1
DICTIONARYVAR
  2
AcDbDictionaryVar
  3
ObjectDBX Classes
 90
        0
 91
        8
280
     0
281
     0
  0
CLASS
  1
MATERIAL
  2
AcDbMaterial
  3
ObjectDBX Classes
 90
     1153
 91
        3
280
     0
281
     0
  0
CLASS
  1
VISUALSTYLE
  2
AcDbVisualStyle
  3
ObjectDBX Classes
 90
     4095
 91
       24
280
     0
281
     0
  0
CLASS
  1
SCALE
  2
AcDbScale
  3
ObjectDBX Classes
 90
     1153
 91
       17
280
     0
281
     0
  0
CLASS
  1
MLEADERSTYLE
  2
AcDbMLeaderStyle
  3
ACDB_MLEADERSTYLE_CLASS
 90
     4095
 91
        1
280
     0
281
     0
  0
CLASS
  1
ACDBSECTIONVIEWSTYLE
  2
AcDbSectionViewStyle
  3
ObjectDBX Classes
 90
     1025
 91
        1
280
     0
281
     0
  0
CLASS
  1
ACDBDETAILVIEWSTYLE
  2
AcDbDetailViewStyle
  3
ObjectDBX Classes
 90
     1025
 91
        1
280
     0
281
     0
  0
CLASS
  1
CELLSTYLEMAP
  2
AcDbCellStyleMap
  3
ObjectDBX Classes
 90
     1152
 91
        1
280
     0
281
     0
  0
ENDSEC
  0
SECTION
  2
TABLES
  0
TABLE
  2
VPORT
  5
12
330
0
100
AcDbSymbolTable
 70
     1
  0
VPORT
  5
C7EE
330
12
100
AcDbSymbolTableRecord
100
AcDbViewportTableRecord
  2
*Active
 70
     0
 10
0.0
 20
0.0
 11
1.0
 21
1.0
 12
-3875.551404497119
 22
3164.311244883687
 13
0.0
 23
0.0
 14
100.0
 24
100.0
 15
0.0
 25
0.0
 16
0.0
 26
0.0
 36
1.0
 17
0.0
 27
0.0
 37
0.0
 40
6013.825694254325
 41
1.606896551724138
 42
50.0
 43
0.0
 44
0.0
 50
0.0
 51
0.0
 71
     0
 72
   100
 73
     1
 74
     0
 75
     0
 76
     0
 77
     0
 78
     0
281
     0
 65
     1
110
0.0
120
0.0
130
0.0
111
1.0
121
0.0
131
0.0
112
0.0
122
1.0
132
0.0
 79
     0
146
0.0
1001
ACAD_NAV_VCDISPLAY
1070
     3
  0
ENDTAB
  0
TABLE
  2
LTYPE
  5
D
330
0
100
AcDbSymbolTable
 70
    12
  0
LTYPE
  5
E
330
D
100
AcDbSymbolTableRecord
100
AcDbLinetypeTableRecord
  2
BYBLOCK
 70
     0
  3

 72
    65
 73
     0
 40
0.0
  0
LTYPE
  5
F
330
D
100
AcDbSymbolTableRecord
100
AcDbLinetypeTableRecord
  2
BYLAYER
 70
     0
  3

 72
    65
 73
     0
 40
0.0
  0
LTYPE
  5
5
330
D
100
AcDbSymbolTableRecord
100
AcDbLinetypeTableRecord
  2
CONTINUOUS
 70
     0
  3
実線
 72
    65
 73
     0
 40
0.0
  0
LTYPE
  5
1044
330
D
100
AcDbSymbolTableRecord
100
AcDbLinetypeTableRecord
  2
DASHED
 70
     0
  3
__ __ __ __ __ __ __ __ __ __ __ __ __ __ __
 72
    65
 73
     2
 40
0.75
 49
0.5
 74
     0
 49
-0.25
 74
     0
  0
LTYPE
  5
1045
330
D
100
AcDbSymbolTableRecord
100
AcDbLinetypeTableRecord
  2
HIDDEN
 70
     0
  3
_ _ _ _ _ _ _ _ _ _ _ _ _ _ _ _ _ _ _ _ _ _ _
 72
    65
 73
     2
 40
0.375
 49
0.25
 74
     0
 49
-0.125
 74
     0
  0
LTYPE
  5
1046
330
D
100
AcDbSymbolTableRecord
100
AcDbLinetypeTableRecord
  2
CENTER
 70
     0
  3
____ _ ____ _ ____ _ ____ _ ____ _ ____ _ ____
 72
    65
 73
     4
 40
2.0
 49
1.25
 74
     0
 49
-0.25
 74
     0
 49
0.25
 74
     0
 49
-0.25
 74
     0
  0
LTYPE
  5
1047
330
D
100
AcDbSymbolTableRecord
100
AcDbLinetypeTableRecord
  2
DASHDOT
 70
     0
  3
__ . __ . __ . __ . __ . __ . __ . __ . __ . __
 72
    65
 73
     4
 40
1.0
 49
0.5
 74
     0
 49
-0.25
 74
     0
 49
0.0
 74
     0
 49
-0.25
 74
     0
  0
LTYPE
  5
1048
330
D
100
AcDbSymbolTableRecord
100
AcDbLinetypeTableRecord
  2
DIVIDE
 70
     0
  3
____ . . ____ . . ____ . . ____ . . ____ . . __
 72
    65
 73
     6
 40
1.25
 49
0.5
 74
     0
 49
-0.25
 74
     0
 49
0.0
 74
     0
 49
-0.25
 74
     0
 49
0.0
 74
     0
 49
-0.25
 74
     0
  0
LTYPE
  5
1049
330
D
100
AcDbSymbolTableRecord
100
AcDbLinetypeTableRecord
  2
DOT
 70
     0
  3
. . . . . . . . . . . . . . . . . . . . . . . .
 72
    65
 73
     2
 40
0.25
 49
0.0
 74
     0
 49
-0.25
 74
     0
  0
LTYPE
  5
104A
330
D
100
AcDbSymbolTableRecord
100
AcDbLinetypeTableRecord
  2
PHANTOM
 70
     0
  3
______  __  __  ______  __  __  ______  __  __ 
 72
    65
 73
     6
 40
2.5
 49
1.25
 74
     0
 49
-0.25
 74
     0
 49
0.25
 74
     0
 49
-0.25
 74
     0
 49
0.25
 74
     0
 49
-0.25
 74
     0
  0
LTYPE
  5
104B
330
D
100
AcDbSymbolTableRecord
100
AcDbLinetypeTableRecord
  2
DASHED2
 70
     0
  3
_ _ _ _ _ _ _ _ _ _ _ _ _ _ _ _ _ _ _ _ _ _ _ _
 72
    65
 73
     2
 40
0.375
 49
0.25
 74
     0
 49
-0.125
 74
     0
  0
LTYPE
  5
104C
330
D
100
AcDbSymbolTableRecord
100
AcDbLinetypeTableRecord
  2
CENTER2
 70
     0
  3
___ _ ___ _ ___ _ ___ _ ___ _ ___ _ ___ _ ___ _
 72
    65
 73
     4
 40
1.125
 49
0.75
 74
     0
 49
-0.125
 74
     0
 49
0.125
 74
     0
 49
-0.125
 74
     0
  0
LTYPE
  5
104D
330
D
100
AcDbSymbolTableRecord
100
AcDbLinetypeTableRecord
  2
PHANTOM2
 70
     0
  3
___ _ _ ___ _ _ ___ _ _ ___ _ _ ___ _ _ ___ _ _
 72
    65
 73
     6
 40
1.25
 49
0.625
 74
     0
 49
-0.125
 74
     0
 49
0.125
 74
     0
 49
-0.125
 74
     0
 49
0.125
 74
     0
 49
-0.125
 74
     0
  0
LTYPE
  5
224A
330
D
100
AcDbSymbolTableRecord
100
AcDbLinetypeTableRecord
  2
ACAD_ISO02W100
 70
     0
  3
ISO dash __ __ __ __ __ __ __ __ __ __ __ __ __
 72
    65
 73
     2
 40
15.0
 49
12.0
 74
     0
 49
-3.0
 74
     0
  0
ENDTAB
  0
TABLE
  2
LAYER
  5
A
330
0
100
AcDbSymbolTable
 70
    15
  0
LAYER
  5
4
102
{ACAD_XDICTIONARY
360
C845
102
}
330
A
100
AcDbSymbolTableRecord
100
AcDbLayerTableRecord
  2
0
 70
     0
 62
     5
  6
CONTINUOUS
370
    -3
390
1FC7
  0
LAYER
  5
55A
102
{ACAD_XDICTIONARY
360
C847
102
}
330
A
100
AcDbSymbolTableRecord
100
AcDbLayerTableRecord
  2
01-寸法線
 70
     0
 62
     4
  6
CONTINUOUS
370
     9
390
1FC7
  0
LAYER
  5
86C
102
{ACAD_XDICTIONARY
360
C849
102
}
330
A
100
AcDbSymbolTableRecord
100
AcDbLayerTableRecord
  2
05-鉄筋線
 70
     0
 62
     1
  6
HIDDEN
370
    25
390
1FC7
  0
LAYER
  5
104E
102
{ACAD_XDICTIONARY
360
C84B
102
}
330
A
100
AcDbSymbolTableRecord
100
AcDbLayerTableRecord
  2
02-外形線
 70
     0
 62
     7
  6
CONTINUOUS
370
    15
390
1FC7
  0
LAYER
  5
104F
102
{ACAD_XDICTIONARY
360
C84D
102
}
330
A
100
AcDbSymbolTableRecord
100
AcDbLayerTableRecord
  2
03-隠れ線
 70
     0
 62
     7
  6
HIDDEN
370
    15
390
1FC7
  0
LAYER
  5
1050
102
{ACAD_XDICTIONARY
360
C84F
102
}
330
A
100
AcDbSymbolTableRecord
100
AcDbLayerTableRecord
  2
04-鉄筋線
 70
     0
 62
     1
  6
CONTINUOUS
370
    25
390
1FC7
  0
LAYER
  5
1051
102
{ACAD_XDICTIONARY
360
C851
102
}
330
A
100
AcDbSymbolTableRecord
100
AcDbLayerTableRecord
  2
06-中心線
 70
     0
 62
     4
  6
CENTER2
370
     9
390
1FC7
  0
LAYER
  5
1052
102
{ACAD_XDICTIONARY
360
C853
102
}
330
A
100
AcDbSymbolTableRecord
100
AcDbLayerTableRecord
  2
07-中心線
 70
     0
 62
     4
  6
PHANTOM2
370
     9
390
1FC7
  0
LAYER
  5
1053
102
{ACAD_XDICTIONARY
360
C855
102
}
330
A
100
AcDbSymbolTableRecord
100
AcDbLayerTableRecord
  2
08-下線
 70
     0
 62
     3
  6
CONTINUOUS
370
    20
390
1FC7
  0
LAYER
  5
1054
102
{ACAD_XDICTIONARY
360
C857
102
}
330
A
100
AcDbSymbolTableRecord
100
AcDbLayerTableRecord
  2
10-罫線
 70
     0
 62
    30
  6
CONTINUOUS
370
    20
390
1FC7
  0
LAYER
  5
1057
330
A
100
AcDbSymbolTableRecord
100
AcDbLayerTableRecord
  2
DEFPOINTS
 70
     0
 62
     8
  6
CONTINUOUS
290
     0
370
    -3
390
1FC7
  0
LAYER
  5
218B
102
{ACAD_XDICTIONARY
360
C859
102
}
330
A
100
AcDbSymbolTableRecord
100
AcDbLayerTableRecord
  2
11-外枠線
 70
     0
 62
     6
  6
CONTINUOUS
370
    30
390
1FC7
  0
LAYER
  5
218C
102
{ACAD_XDICTIONARY
360
C85B
102
}
330
A
100
AcDbSymbolTableRecord
100
AcDbLayerTableRecord
  2
12-構築線
 70
     0
 62
     5
  6
CONTINUOUS
370
     0
390
1FC7
  0
LAYER
  5
2B0E
102
{ACAD_XDICTIONARY
360
C85D
102
}
330
A
100
AcDbSymbolTableRecord
100
AcDbLayerTableRecord
  2
09-下線
 70
     0
 62
     2
  6
CONTINUOUS
370
    30
390
1FC7
  0
LAYER
  5
8DFB
102
{ACAD_XDICTIONARY
360
C85F
102
}
330
A
100
AcDbSymbolTableRecord
100
AcDbLayerTableRecord
  2
13-ﾊｯﾁ線
 70
     0
 62
     6
  6
CONTINUOUS
370
     9
390
1FC7
  0
ENDTAB
  0
TABLE
  2
STYLE
  5
B
330
0
100
AcDbSymbolTable
 70
    12
  0
STYLE
  5
C
330
B
100
AcDbSymbolTableRecord
100
AcDbTextStyleTableRecord
  2
STANDARD
 70
     0
 40
0.0
 41
0.8
 50
0.0
 71
     0
 42
0.2
  3
SIMPLEX
  4
BIGFONT
  0
STYLE
  5
1B
330
B
100
AcDbSymbolTableRecord
100
AcDbTextStyleTableRecord
  2
ZEN
 70
     0
 40
0.0
 41
0.8
 50
0.0
 71
     0
 42
0.2
  3
SIMPLEX
  4
BIGFONT
  0
STYLE
  5
533
330
B
100
AcDbSymbolTableRecord
100
AcDbTextStyleTableRecord
  2
1-08
 70
     0
 40
0.0
 41
0.8
 50
0.0
 71
     0
 42
900.0
  3
romans.shx
  4
extfont.shx
  0
STYLE
  5
2A
330
B
100
AcDbSymbolTableRecord
100
AcDbTextStyleTableRecord
  2
KANJI
 70
     0
 40
0.0
 41
1.0
 50
0.0
 71
     0
 42
0.2
  3
romans.shx
  4
extfont.shx
  0
STYLE
  5
1067
330
B
100
AcDbSymbolTableRecord
100
AcDbTextStyleTableRecord
  2
SIMPLEX
 70
     0
 40
0.0
 41
1.0
 50
0.0
 71
     0
 42
10.0
  3
txt.shx
  4
BIGFONT
  0
STYLE
  5
1068
330
B
100
AcDbSymbolTableRecord
100
AcDbTextStyleTableRecord
  2
STANDERD
 70
     0
 40
0.0
 41
1.0
 50
0.0
 71
     0
 42
0.2
  3
MONOTXT
  4
BIGFONT
  0
STYLE
  5
1069
330
B
100
AcDbSymbolTableRecord
100
AcDbTextStyleTableRecord
  2
HAN
 70
     0
 40
0.0
 41
0.6400000000000001
 50
0.0
 71
     0
 42
0.2
  3
SIMPLEX
  4
BIGFONT
  0
STYLE
  5
106A
330
B
100
AcDbSymbolTableRecord
100
AcDbTextStyleTableRecord
  2
BIGFONT
 70
     0
 40
0.0
 41
1.0
 50
0.0
 71
     0
 42
200.0
  3
txt.shx
  4
BIGFONT
  0
STYLE
  5
106B
330
B
100
AcDbSymbolTableRecord
100
AcDbTextStyleTableRecord
  2
1-08T
 70
     0
 40
0.0
 41
0.8
 50
0.0
 71
     0
 42
0.2
  3
romans.shx
  4

  0
STYLE
  5
2249
330
B
100
AcDbSymbolTableRecord
100
AcDbTextStyleTableRecord
  2

 70
     1
 40
0.0
 41
1.0
 50
0.0
 71
     0
 42
0.2
  3
ltypeshp.shx
  4

  0
STYLE
  5
2605
330
B
100
AcDbSymbolTableRecord
100
AcDbTextStyleTableRecord
  2
ｵﾘｼﾞﾅﾙｽﾀｲﾙ
 70
     0
 40
0.0
 41
0.8
 50
0.0
 71
     0
 42
75.0
  3
MSMINCHO.TTF
  4

1001
ACAD
1000
MS Mincho
1071
    32785
  0
STYLE
  5
943A
330
B
100
AcDbSymbolTableRecord
100
AcDbTextStyleTableRecord
  2
縦字ｽﾀｲﾙ
 70
     0
 40
0.0
 41
1.0
 50
0.0
 71
     0
 42
75.0
  3
MSMINCHO.TTF
  4

1001
ACAD
1000
@MS Mincho
1071
    32785
  0
ENDTAB
  0
TABLE
  2
VIEW
  5
10
330
0
100
AcDbSymbolTable
 70
     0
  0
ENDTAB
  0
TABLE
  2
UCS
  5
11
330
0
100
AcDbSymbolTable
 70
     0
  0
ENDTAB
  0
TABLE
  2
APPID
  5
14
330
0
100
AcDbSymbolTable
 70
     3
  0
APPID
  5
15
330
14
100
AcDbSymbolTableRecord
100
AcDbRegAppTableRecord
  2
ACAD
 70
     0
  0
APPID
  5
C866
330
14
100
AcDbSymbolTableRecord
100
AcDbRegAppTableRecord
  2
ACAD_NAV_VCDISPLAY
 70
     0
  0
APPID
  5
C89F
330
14
100
AcDbSymbolTableRecord
100
AcDbRegAppTableRecord
  2
ACAD_MLEADERVER
 70
     0
  0
ENDTAB
  0
TABLE
  2
DIMSTYLE
  5
16
330
0
100
AcDbSymbolTable
 70
     2
100
AcDbDimStyleTable
 71
     2
340
2B26
340
1D
  0
DIMSTYLE
105
1D
330
16
100
AcDbSymbolTableRecord
100
AcDbDimStyleTableRecord
  2
標準スタイル
 70
     0
 41
20.0
 42
20.0
 43
0.0
 44
20.0
 73
     0
 74
     0
 77
     1
 78
     1
140
100.0
141
10.0
147
0.05
176
     4
177
     4
178
     4
271
     0
272
     0
279
     2
340
1069
371
    15
372
    15
  0
DIMSTYLE
105
2B26
102
{ACAD_REACTORS
330
8C7E
330
8C8B
330
8C98
330
8CA5
330
906D
330
907A
330
9087
330
90A7
330
92F9
330
A07F
330
A0E3
330
9106
330
A124
330
A131
330
AAB0
330
AB37
330
AD40
330
ADE9
330
AE5E
330
AF65
330
B1C1
330
B1D0
330
B1E8
330
B1FA
330
B255
330
B291
330
B2D5
330
B336
330
C7CB
102
}
330
16
100
AcDbSymbolTableRecord
100
AcDbDimStyleTableRecord
  2
スタイル15
 70
     0
 40
15.0
 41
2.0
 42
1.0
 43
6.0
 44
1.0
 73
     0
 74
     0
 77
     1
 78
     9
140
3.5
141
1.0
147
0.5
172
     1
176
     4
177
     4
178
     4
271
     2
272
     2
289
     0
340
2605
341
89F
342
89F
371
     9
372
     9
  0
ENDTAB
  0
TABLE
  2
BLOCK_RECORD
  5
1
330
0
100
AcDbSymbolTable
 70
    33
  0
BLOCK_RECORD
  5
2
330
1
100
AcDbSymbolTableRecord
100
AcDbBlockTableRecord
  2
*MODEL_SPACE
340
1FCE
  0
BLOCK_RECORD
  5
7
330
1
100
AcDbSymbolTableRecord
100
AcDbBlockTableRecord
  2
*PAPER_SPACE
340
1FCF
  0
BLOCK_RECORD
  5
89F
330
1
100
AcDbSymbolTableRecord
100
AcDbBlockTableRecord
  2
_OPEN
340
0
102
{BLKREFS
331
8CF9
331
8F41
331
9130
331
9131
331
9199
331
919A
331
919B
331
AD2B
331
AD50
331
ADFF
331
AFE7
331
AFE8
331
AFF0
331
AFF1
331
AFF9
331
AFFA
331
B002
331
B003
331
B00D
331
B00E
331
B016
331
B017
331
B01F
331
B020
331
B028
331
B029
331
B033
331
B034
331
B03C
331
B03D
331
B045
331
B046
331
B057
331
B058
331
B060
331
B061
331
B06B
331
B06C
331
B07D
331
B07E
331
B091
331
B092
331
B214
331
B215
331
B21F
331
B220
331
B228
331
B229
331
B231
331
B232
331
B24E
331
B24F
331
B25A
331
B25B
331
B2CF
331
B2D0
331
B313
331
B314
331
B33D
331
B33E
331
B369
331
B3A5
331
B3A6
331
B3B0
331
B3B1
331
B3CF
331
B3D0
331
C6C9
331
C6D0
331
C6D4
331
C6D8
331
C6DA
331
C6E0
331
C6E3
331
C6E7
331
C6F0
331
C6F1
331
C6F3
331
C6FD
331
C6FE
331
C6FF
331
C700
331
C702
331
C705
331
C706
331
C71A
331
C785
331
C786
331
C7D2
331
C7D3
102
}
  0
BLOCK_RECORD
  5
266F
330
1
100
AcDbSymbolTableRecord
100
AcDbBlockTableRecord
  2
_Open90
340
0
  0
BLOCK_RECORD
  5
3910
330
1
100
AcDbSymbolTableRecord
100
AcDbBlockTableRecord
  2
_Origin
340
0
  0
BLOCK_RECORD
  5
8C7F
330
1
100
AcDbSymbolTableRecord
100
AcDbBlockTableRecord
  2
*D3
340
0
  0
BLOCK_RECORD
  5
8C8C
330
1
100
AcDbSymbolTableRecord
100
AcDbBlockTableRecord
  2
*D4
340
0
  0
BLOCK_RECORD
  5
8C99
330
1
100
AcDbSymbolTableRecord
100
AcDbBlockTableRecord
  2
*D5
340
0
  0
BLOCK_RECORD
  5
8CA6
330
1
100
AcDbSymbolTableRecord
100
AcDbBlockTableRecord
  2
*D6
340
0
  0
BLOCK_RECORD
  5
906E
330
1
100
AcDbSymbolTableRecord
100
AcDbBlockTableRecord
  2
*D7
340
0
  0
BLOCK_RECORD
  5
907B
330
1
100
AcDbSymbolTableRecord
100
AcDbBlockTableRecord
  2
*D8
340
0
  0
BLOCK_RECORD
  5
9088
330
1
100
AcDbSymbolTableRecord
100
AcDbBlockTableRecord
  2
*D9
340
0
  0
BLOCK_RECORD
  5
90A8
330
1
100
AcDbSymbolTableRecord
100
AcDbBlockTableRecord
  2
*D10
340
0
  0
BLOCK_RECORD
  5
9107
330
1
100
AcDbSymbolTableRecord
100
AcDbBlockTableRecord
  2
*D11
340
0
  0
BLOCK_RECORD
  5
92FA
330
1
100
AcDbSymbolTableRecord
100
AcDbBlockTableRecord
  2
*D12
340
0
  0
BLOCK_RECORD
  5
A080
330
1
100
AcDbSymbolTableRecord
100
AcDbBlockTableRecord
  2
*D13
340
0
  0
BLOCK_RECORD
  5
A0E4
330
1
100
AcDbSymbolTableRecord
100
AcDbBlockTableRecord
  2
*D14
340
0
  0
BLOCK_RECORD
  5
A125
330
1
100
AcDbSymbolTableRecord
100
AcDbBlockTableRecord
  2
*D15
340
0
  0
BLOCK_RECORD
  5
A132
330
1
100
AcDbSymbolTableRecord
100
AcDbBlockTableRecord
  2
*D16
340
0
  0
BLOCK_RECORD
  5
AAB1
330
1
100
AcDbSymbolTableRecord
100
AcDbBlockTableRecord
  2
*D17
340
0
  0
BLOCK_RECORD
  5
AB38
330
1
100
AcDbSymbolTableRecord
100
AcDbBlockTableRecord
  2
*D18
340
0
  0
BLOCK_RECORD
  5
AD41
330
1
100
AcDbSymbolTableRecord
100
AcDbBlockTableRecord
  2
*D19
340
0
  0
BLOCK_RECORD
  5
ADEA
330
1
100
AcDbSymbolTableRecord
100
AcDbBlockTableRecord
  2
*D20
340
0
  0
BLOCK_RECORD
  5
AE5F
330
1
100
AcDbSymbolTableRecord
100
AcDbBlockTableRecord
  2
*D21
340
0
  0
BLOCK_RECORD
  5
AF66
330
1
100
AcDbSymbolTableRecord
100
AcDbBlockTableRecord
  2
*D22
340
0
  0
BLOCK_RECORD
  5
B1C2
330
1
100
AcDbSymbolTableRecord
100
AcDbBlockTableRecord
  2
*D23
340
0
  0
BLOCK_RECORD
  5
B1D1
330
1
100
AcDbSymbolTableRecord
100
AcDbBlockTableRecord
  2
*D24
340
0
  0
BLOCK_RECORD
  5
B1E9
330
1
100
AcDbSymbolTableRecord
100
AcDbBlockTableRecord
  2
*D25
340
0
  0
BLOCK_RECORD
  5
B1FB
330
1
100
AcDbSymbolTableRecord
100
AcDbBlockTableRecord
  2
*D26
340
0
  0
BLOCK_RECORD
  5
B256
330
1
100
AcDbSymbolTableRecord
100
AcDbBlockTableRecord
  2
*D27
340
0
  0
BLOCK_RECORD
  5
B292
330
1
100
AcDbSymbolTableRecord
100
AcDbBlockTableRecord
  2
*D28
340
0
  0
BLOCK_RECORD
  5
B2D6
330
1
100
AcDbSymbolTableRecord
100
AcDbBlockTableRecord
  2
*D29
340
0
  0
BLOCK_RECORD
  5
B337
330
1
100
AcDbSymbolTableRecord
100
AcDbBlockTableRecord
  2
*D30
340
0
  0
BLOCK_RECORD
  5
C7CC
330
1
100
AcDbSymbolTableRecord
100
AcDbBlockTableRecord
  2
*D32
340
0
  0
ENDTAB
  0
ENDSEC
  0
SECTION
  2
BLOCKS
  0
BLOCK
  5
3
330
2
100
AcDbEntity
  8
0
100
AcDbBlockBegin
  2
*MODEL_SPACE
 70
     0
 10
0.0
 20
0.0
 30
0.0
  3
*MODEL_SPACE
  1

  0
ENDBLK
  5
6
330
2
100
AcDbEntity
  8
0
100
AcDbBlockEnd
  0
BLOCK
  5
8
330
7
100
AcDbEntity
 67
     1
  8
0
100
AcDbBlockBegin
  2
*PAPER_SPACE
 70
     0
 10
0.0
 20
0.0
 30
0.0
  3
*PAPER_SPACE
  1

  0
ENDBLK
  5
9
330
7
100
AcDbEntity
 67
     1
  8
0
100
AcDbBlockEnd
  0
BLOCK
  5
8A3
330
89F
100
AcDbEntity
  8
0
100
AcDbBlockBegin
  2
_OPEN
 70
     0
 10
0.0
 20
0.0
 30
0.0
  3
_OPEN
  1

  0
LINE
  5
8A0
330
89F
100
AcDbEntity
  8
0
  6
ByBlock
 62
     0
100
AcDbLine
 10
-1.0
 20
0.1666666666666666
 30
0.0
 11
0.0
 21
0.0
 31
0.0
  0
LINE
  5
8A1
330
89F
100
AcDbEntity
  8
0
  6
ByBlock
 62
     0
100
AcDbLine
 10
0.0
 20
0.0
 30
0.0
 11
-1.0
 21
-0.1666666666666666
 31
0.0
  0
LINE
  5
8A2
330
89F
100
AcDbEntity
  8
0
  6
ByBlock
 62
     0
100
AcDbLine
 10
0.0
 20
0.0
 30
0.0
 11
-1.0
 21
0.0
 31
0.0
  0
ENDBLK
  5
8A4
330
89F
100
AcDbEntity
  8
0
100
AcDbBlockEnd
  0
BLOCK
  5
2673
330
266F
100
AcDbEntity
  8
0
100
AcDbBlockBegin
  2
_Open90
 70
     0
 10
0.0
 20
0.0
 30
0.0
  3
_Open90
  1

  0
LINE
  5
2670
330
266F
100
AcDbEntity
  8
0
  6
ByBlock
 62
     0
370
    -2
100
AcDbLine
 10
-0.5
 20
0.5
 30
0.0
 11
0.0
 21
0.0
 31
0.0
  0
LINE
  5
2671
330
266F
100
AcDbEntity
  8
0
  6
ByBlock
 62
     0
370
    -2
100
AcDbLine
 10
0.0
 20
0.0
 30
0.0
 11
-0.5
 21
-0.5
 31
0.0
  0
LINE
  5
2672
330
266F
100
AcDbEntity
  8
0
  6
ByBlock
 62
     0
370
    -2
100
AcDbLine
 10
0.0
 20
0.0
 30
0.0
 11
-1.0
 21
0.0
 31
0.0
  0
ENDBLK
  5
2674
330
266F
100
AcDbEntity
  8
0
100
AcDbBlockEnd
  0
BLOCK
  5
3913
330
3910
100
AcDbEntity
  8
0
100
AcDbBlockBegin
  2
_Origin
 70
     0
 10
0.0
 20
0.0
 30
0.0
  3
_Origin
  1

  0
CIRCLE
  5
3911
330
3910
100
AcDbEntity
  8
0
  6
ByBlock
 62
     0
370
    -2
100
AcDbCircle
 10
0.0
 20
0.0
 30
0.0
 40
0.5
  0
LINE
  5
3912
330
3910
100
AcDbEntity
  8
0
  6
ByBlock
 62
     0
370
    -2
100
AcDbLine
 10
0.0
 20
0.0
 30
0.0
 11
-1.0
 21
0.0
 31
0.0
  0
ENDBLK
  5
3914
330
3910
100
AcDbEntity
  8
0
100
AcDbBlockEnd
  0
BLOCK
  5
8C89
330
8C7F
100
AcDbEntity
  8
0
 48
0.5
100
AcDbBlockBegin
  2
*D3
 70
     1
 10
0.0
 20
0.0
 30
0.0
  3
*D3
  1

  0
LINE
  5
B05D
330
8C7F
100
AcDbEntity
  8
01-寸法線
 62
     4
440
 16777216
 48
0.5
370
     9
100
AcDbLine
 10
-5165.381490481036
 20
4132.753046383291
 30
0.0
 11
-5165.381490481036
 21
3932.753046383292
 31
0.0
  0
LINE
  5
B05E
330
8C7F
100
AcDbEntity
  8
01-寸法線
 62
     4
440
 16777216
 48
0.5
370
     9
100
AcDbLine
 10
-4665.381490481036
 20
4132.753046383291
 30
0.0
 11
-4665.381490481036
 21
3932.753046383292
 31
0.0
  0
LINE
  5
B05F
330
8C7F
100
AcDbEntity
  8
01-寸法線
 62
     4
440
 16777216
 48
0.5
370
     9
100
AcDbLine
 10
-5135.381490481036
 20
3947.753046383292
 30
0.0
 11
-4695.381490481036
 21
3947.753046383292
 31
0.0
  0
INSERT
  5
B060
330
8C7F
100
AcDbEntity
  8
01-寸法線
 62
     4
440
 16777216
 48
0.5
370
     9
100
AcDbBlockReference
  2
_OPEN
 10
-5165.381490481036
 20
3947.753046383292
 30
0.0
 41
30.0
 42
30.0
 43
30.0
 50
180.0
  0
INSERT
  5
B061
330
8C7F
100
AcDbEntity
  8
01-寸法線
 62
     4
440
 16777216
 48
0.5
370
     9
100
AcDbBlockReference
  2
_OPEN
 10
-4665.381490481036
 20
3947.753046383292
 30
0.0
 41
30.0
 42
30.0
 43
30.0
  0
MTEXT
  5
B062
330
8C7F
100
AcDbEntity
  8
01-寸法線
 62
     4
440
 16777216
 48
0.5
100
AcDbMText
 10
-4915.381490481036
 20
3981.503046383292
 30
0.0
 40
52.5
 41
0.0
 71
     5
 72
     1
  1
\A1;500
  7
ｵﾘｼﾞﾅﾙｽﾀｲﾙ
 73
     1
 44
1.0
  0
POINT
  5
B063
330
8C7F
100
AcDbEntity
  8
DEFPOINTS
 62
     0
440
 16777216
 48
0.5
100
AcDbPoint
 10
-5165.381490481036
 20
4147.753046383292
 30
0.0
  0
POINT
  5
B064
330
8C7F
100
AcDbEntity
  8
DEFPOINTS
 62
     0
440
 16777216
 48
0.5
100
AcDbPoint
 10
-4665.381490481036
 20
4147.753046383292
 30
0.0
  0
POINT
  5
B065
330
8C7F
100
AcDbEntity
  8
DEFPOINTS
 62
     0
440
 16777216
 48
0.5
100
AcDbPoint
 10
-4665.381490481036
 20
3947.753046383292
 30
0.0
  0
ENDBLK
  5
8C8A
330
8C7F
100
AcDbEntity
  8
0
 48
0.5
100
AcDbBlockEnd
  0
BLOCK
  5
8C96
330
8C8C
100
AcDbEntity
  8
0
 48
0.5
100
AcDbBlockBegin
  2
*D4
 70
     1
 10
0.0
 20
0.0
 30
0.0
  3
*D4
  1

  0
LINE
  5
B07A
330
8C8C
100
AcDbEntity
  8
01-寸法線
 62
     4
440
 16777216
 48
0.5
370
     9
100
AcDbLine
 10
-4665.381490481036
 20
4132.753046383291
 30
0.0
 11
-4665.381490481036
 21
3932.753046383292
 31
0.0
  0
LINE
  5
B07B
330
8C8C
100
AcDbEntity
  8
01-寸法線
 62
     4
440
 16777216
 48
0.5
370
     9
100
AcDbLine
 10
-3665.381490481036
 20
4132.753046383291
 30
0.0
 11
-3665.381490481036
 21
3932.753046383292
 31
0.0
  0
LINE
  5
B07C
330
8C8C
100
AcDbEntity
  8
01-寸法線
 62
     4
440
 16777216
 48
0.5
370
     9
100
AcDbLine
 10
-4635.381490481036
 20
3947.753046383292
 30
0.0
 11
-3695.381490481036
 21
3947.753046383292
 31
0.0
  0
INSERT
  5
B07D
330
8C8C
100
AcDbEntity
  8
01-寸法線
 62
     4
440
 16777216
 48
0.5
370
     9
100
AcDbBlockReference
  2
_OPEN
 10
-4665.381490481036
 20
3947.753046383292
 30
0.0
 41
30.0
 42
30.0
 43
30.0
 50
180.0
  0
INSERT
  5
B07E
330
8C8C
100
AcDbEntity
  8
01-寸法線
 62
     4
440
 16777216
 48
0.5
370
     9
100
AcDbBlockReference
  2
_OPEN
 10
-3665.381490481036
 20
3947.753046383292
 30
0.0
 41
30.0
 42
30.0
 43
30.0
  0
MTEXT
  5
B07F
330
8C8C
100
AcDbEntity
  8
01-寸法線
 62
     4
440
 16777216
 48
0.5
100
AcDbMText
 10
-4165.381490481036
 20
3981.503046383292
 30
0.0
 40
52.5
 41
0.0
 71
     5
 72
     1
  1
\A1;1000
  7
ｵﾘｼﾞﾅﾙｽﾀｲﾙ
 73
     1
 44
1.0
  0
POINT
  5
B080
330
8C8C
100
AcDbEntity
  8
DEFPOINTS
 62
     0
440
 16777216
 48
0.5
100
AcDbPoint
 10
-4665.381490481036
 20
4147.753046383292
 30
0.0
  0
POINT
  5
B081
330
8C8C
100
AcDbEntity
  8
DEFPOINTS
 62
     0
440
 16777216
 48
0.5
100
AcDbPoint
 10
-3665.381490481036
 20
4147.753046383292
 30
0.0
  0
POINT
  5
B082
330
8C8C
100
AcDbEntity
  8
DEFPOINTS
 62
     0
440
 16777216
 48
0.5
100
AcDbPoint
 10
-3665.381490481036
 20
3947.753046383292
 30
0.0
  0
ENDBLK
  5
8C97
330
8C8C
100
AcDbEntity
  8
0
 48
0.5
100
AcDbBlockEnd
  0
BLOCK
  5
8CA3
330
8C99
100
AcDbEntity
  8
0
 48
0.5
100
AcDbBlockBegin
  2
*D5
 70
     1
 10
0.0
 20
0.0
 30
0.0
  3
*D5
  1

  0
LINE
  5
B08E
330
8C99
100
AcDbEntity
  8
01-寸法線
 62
     4
440
 16777216
 48
0.5
370
     9
100
AcDbLine
 10
-3665.381490481036
 20
4132.753046383291
 30
0.0
 11
-3665.381490481036
 21
3932.753046383292
 31
0.0
  0
LINE
  5
B08F
330
8C99
100
AcDbEntity
  8
01-寸法線
 62
     4
440
 16777216
 48
0.5
370
     9
100
AcDbLine
 10
-3165.381490481036
 20
4132.753046383291
 30
0.0
 11
-3165.381490481036
 21
3932.753046383292
 31
0.0
  0
LINE
  5
B090
330
8C99
100
AcDbEntity
  8
01-寸法線
 62
     4
440
 16777216
 48
0.5
370
     9
100
AcDbLine
 10
-3635.381490481036
 20
3947.753046383292
 30
0.0
 11
-3195.381490481036
 21
3947.753046383292
 31
0.0
  0
INSERT
  5
B091
330
8C99
100
AcDbEntity
  8
01-寸法線
 62
     4
440
 16777216
 48
0.5
370
     9
100
AcDbBlockReference
  2
_OPEN
 10
-3665.381490481036
 20
3947.753046383292
 30
0.0
 41
30.0
 42
30.0
 43
30.0
 50
180.0
  0
INSERT
  5
B092
330
8C99
100
AcDbEntity
  8
01-寸法線
 62
     4
440
 16777216
 48
0.5
370
     9
100
AcDbBlockReference
  2
_OPEN
 10
-3165.381490481036
 20
3947.753046383292
 30
0.0
 41
30.0
 42
30.0
 43
30.0
  0
MTEXT
  5
B093
330
8C99
100
AcDbEntity
  8
01-寸法線
 62
     4
440
 16777216
 48
0.5
100
AcDbMText
 10
-3415.381490481036
 20
3981.503046383292
 30
0.0
 40
52.5
 41
0.0
 71
     5
 72
     1
  1
\A1;500
  7
ｵﾘｼﾞﾅﾙｽﾀｲﾙ
 73
     1
 44
1.0
  0
POINT
  5
B094
330
8C99
100
AcDbEntity
  8
DEFPOINTS
 62
     0
440
 16777216
 48
0.5
100
AcDbPoint
 10
-3665.381490481036
 20
4147.753046383292
 30
0.0
  0
POINT
  5
B095
330
8C99
100
AcDbEntity
  8
DEFPOINTS
 62
     0
440
 16777216
 48
0.5
100
AcDbPoint
 10
-3165.381490481036
 20
4147.753046383292
 30
0.0
  0
POINT
  5
B096
330
8C99
100
AcDbEntity
  8
DEFPOINTS
 62
     0
440
 16777216
 48
0.5
100
AcDbPoint
 10
-3165.381490481036
 20
3947.753046383292
 30
0.0
  0
ENDBLK
  5
8CA4
330
8C99
100
AcDbEntity
  8
0
 48
0.5
100
AcDbBlockEnd
  0
BLOCK
  5
8CB0
330
8CA6
100
AcDbEntity
  8
0
 48
0.5
100
AcDbBlockBegin
  2
*D6
 70
     1
 10
0.0
 20
0.0
 30
0.0
  3
*D6
  1

  0
LINE
  5
B054
330
8CA6
100
AcDbEntity
  8
01-寸法線
 62
     4
440
 16777216
 48
0.5
370
     9
100
AcDbLine
 10
-5165.381490481036
 20
3932.753046383292
 30
0.0
 11
-5165.381490481036
 21
3832.753046383292
 31
0.0
  0
LINE
  5
B055
330
8CA6
100
AcDbEntity
  8
01-寸法線
 62
     4
440
 16777216
 48
0.5
370
     9
100
AcDbLine
 10
-3165.381490481036
 20
3932.753046383292
 30
0.0
 11
-3165.381490481036
 21
3832.753046383292
 31
0.0
  0
LINE
  5
B056
330
8CA6
100
AcDbEntity
  8
01-寸法線
 62
     4
440
 16777216
 48
0.5
370
     9
100
AcDbLine
 10
-5135.381490481036
 20
3847.753046383292
 30
0.0
 11
-3195.381490481036
 21
3847.753046383292
 31
0.0
  0
INSERT
  5
B057
330
8CA6
100
AcDbEntity
  8
01-寸法線
 62
     4
440
 16777216
 48
0.5
370
     9
100
AcDbBlockReference
  2
_OPEN
 10
-5165.381490481036
 20
3847.753046383292
 30
0.0
 41
30.0
 42
30.0
 43
30.0
 50
180.0
  0
INSERT
  5
B058
330
8CA6
100
AcDbEntity
  8
01-寸法線
 62
     4
440
 16777216
 48
0.5
370
     9
100
AcDbBlockReference
  2
_OPEN
 10
-3165.381490481036
 20
3847.753046383292
 30
0.0
 41
30.0
 42
30.0
 43
30.0
  0
MTEXT
  5
B059
330
8CA6
100
AcDbEntity
  8
01-寸法線
 62
     4
440
 16777216
 48
0.5
100
AcDbMText
 10
-4165.381490481036
 20
3881.503046383292
 30
0.0
 40
52.5
 41
0.0
 71
     5
 72
     1
  1
\A1;2000
  7
ｵﾘｼﾞﾅﾙｽﾀｲﾙ
 73
     1
 44
1.0
  0
POINT
  5
B05A
330
8CA6
100
AcDbEntity
  8
DEFPOINTS
 62
     0
440
 16777216
 48
0.5
100
AcDbPoint
 10
-5165.381490481036
 20
3947.753046383292
 30
0.0
  0
POINT
  5
B05B
330
8CA6
100
AcDbEntity
  8
DEFPOINTS
 62
     0
440
 16777216
 48
0.5
100
AcDbPoint
 10
-3165.381490481036
 20
3947.753046383292
 30
0.0
  0
POINT
  5
B05C
330
8CA6
100
AcDbEntity
  8
DEFPOINTS
 62
     0
440
 16777216
 48
0.5
100
AcDbPoint
 10
-3165.381490481036
 20
3847.753046383292
 30
0.0
  0
ENDBLK
  5
8CB1
330
8CA6
100
AcDbEntity
  8
0
 48
0.5
100
AcDbBlockEnd
  0
BLOCK
  5
9078
330
906E
100
AcDbEntity
  8
0
 48
0.5
100
AcDbBlockBegin
  2
*D7
 70
     1
 10
0.0
 20
0.0
 30
0.0
  3
*D7
  1

  0
LINE
  5
B01C
330
906E
100
AcDbEntity
  8
01-寸法線
 62
     4
440
 16777216
 48
0.5
370
     9
100
AcDbLine
 10
-3965.381490481036
 20
2462.753046383292
 30
0.0
 11
-3965.381490481036
 21
2162.753046383292
 31
0.0
  0
LINE
  5
B01D
330
906E
100
AcDbEntity
  8
01-寸法線
 62
     4
440
 16777216
 48
0.5
370
     9
100
AcDbLine
 10
-3740.381490481036
 20
2312.753046383292
 30
0.0
 11
-3740.381490481036
 21
2162.753046383292
 31
0.0
  0
LINE
  5
B01E
330
906E
100
AcDbEntity
  8
01-寸法線
 62
     4
440
 16777216
 48
0.5
370
     9
100
AcDbLine
 10
-3935.381490481037
 20
2177.753046383292
 30
0.0
 11
-3770.381490481037
 21
2177.753046383292
 31
0.0
  0
INSERT
  5
B01F
330
906E
100
AcDbEntity
  8
01-寸法線
 62
     4
440
 16777216
 48
0.5
370
     9
100
AcDbBlockReference
  2
_OPEN
 10
-3965.381490481036
 20
2177.753046383292
 30
0.0
 41
30.0
 42
30.0
 43
30.0
 50
180.0
  0
INSERT
  5
B020
330
906E
100
AcDbEntity
  8
01-寸法線
 62
     4
440
 16777216
 48
0.5
370
     9
100
AcDbBlockReference
  2
_OPEN
 10
-3740.381490481036
 20
2177.753046383292
 30
0.0
 41
30.0
 42
30.0
 43
30.0
  0
MTEXT
  5
B021
330
906E
100
AcDbEntity
  8
01-寸法線
 62
     4
440
 16777216
 48
0.5
100
AcDbMText
 10
-3852.881490481036
 20
2211.503046383292
 30
0.0
 40
52.5
 41
0.0
 71
     5
 72
     1
  1
\A1;75
  7
ｵﾘｼﾞﾅﾙｽﾀｲﾙ
 73
     1
 44
1.0
  0
POINT
  5
B022
330
906E
100
AcDbEntity
  8
DEFPOINTS
 62
     0
440
 16777216
 48
0.5
100
AcDbPoint
 10
-3965.381490481036
 20
2477.753046383292
 30
0.0
  0
POINT
  5
B023
330
906E
100
AcDbEntity
  8
DEFPOINTS
 62
     0
440
 16777216
 48
0.5
100
AcDbPoint
 10
-3740.381490481036
 20
2327.753046383292
 30
0.0
  0
POINT
  5
B024
330
906E
100
AcDbEntity
  8
DEFPOINTS
 62
     0
440
 16777216
 48
0.5
100
AcDbPoint
 10
-3740.381490481036
 20
2177.753046383292
 30
0.0
  0
ENDBLK
  5
9079
330
906E
100
AcDbEntity
  8
0
 48
0.5
100
AcDbBlockEnd
  0
BLOCK
  5
9085
330
907B
100
AcDbEntity
  8
0
 48
0.5
100
AcDbBlockBegin
  2
*D8
 70
     1
 10
0.0
 20
0.0
 30
0.0
  3
*D8
  1

  0
LINE
  5
B039
330
907B
100
AcDbEntity
  8
01-寸法線
 62
     4
440
 16777216
 48
0.5
370
     9
100
AcDbLine
 10
-3740.381490481036
 20
2312.753046383292
 30
0.0
 11
-3740.381490481036
 21
2162.753046383292
 31
0.0
  0
LINE
  5
B03A
330
907B
100
AcDbEntity
  8
01-寸法線
 62
     4
440
 16777216
 48
0.5
370
     9
100
AcDbLine
 10
-3515.381490481036
 20
2462.753046383292
 30
0.0
 11
-3515.381490481036
 21
2162.753046383292
 31
0.0
  0
LINE
  5
B03B
330
907B
100
AcDbEntity
  8
01-寸法線
 62
     4
440
 16777216
 48
0.5
370
     9
100
AcDbLine
 10
-3710.381490481037
 20
2177.753046383292
 30
0.0
 11
-3545.381490481037
 21
2177.753046383292
 31
0.0
  0
INSERT
  5
B03C
330
907B
100
AcDbEntity
  8
01-寸法線
 62
     4
440
 16777216
 48
0.5
370
     9
100
AcDbBlockReference
  2
_OPEN
 10
-3740.381490481036
 20
2177.753046383292
 30
0.0
 41
30.0
 42
30.0
 43
30.0
 50
180.0
  0
INSERT
  5
B03D
330
907B
100
AcDbEntity
  8
01-寸法線
 62
     4
440
 16777216
 48
0.5
370
     9
100
AcDbBlockReference
  2
_OPEN
 10
-3515.381490481036
 20
2177.753046383292
 30
0.0
 41
30.0
 42
30.0
 43
30.0
  0
MTEXT
  5
B03E
330
907B
100
AcDbEntity
  8
01-寸法線
 62
     4
440
 16777216
 48
0.5
100
AcDbMText
 10
-3627.881490481036
 20
2211.503046383292
 30
0.0
 40
52.5
 41
0.0
 71
     5
 72
     1
  1
\A1;75
  7
ｵﾘｼﾞﾅﾙｽﾀｲﾙ
 73
     1
 44
1.0
  0
POINT
  5
B03F
330
907B
100
AcDbEntity
  8
DEFPOINTS
 62
     0
440
 16777216
 48
0.5
100
AcDbPoint
 10
-3740.381490481036
 20
2327.753046383292
 30
0.0
  0
POINT
  5
B040
330
907B
100
AcDbEntity
  8
DEFPOINTS
 62
     0
440
 16777216
 48
0.5
100
AcDbPoint
 10
-3515.381490481036
 20
2477.753046383292
 30
0.0
  0
POINT
  5
B041
330
907B
100
AcDbEntity
  8
DEFPOINTS
 62
     0
440
 16777216
 48
0.5
100
AcDbPoint
 10
-3515.381490481036
 20
2177.753046383292
 30
0.0
  0
ENDBLK
  5
9086
330
907B
100
AcDbEntity
  8
0
 48
0.5
100
AcDbBlockEnd
  0
BLOCK
  5
9092
330
9088
100
AcDbEntity
  8
0
 48
0.5
100
AcDbBlockBegin
  2
*D9
 70
     1
 10
0.0
 20
0.0
 30
0.0
  3
*D9
  1

  0
LINE
  5
B013
330
9088
100
AcDbEntity
  8
01-寸法線
 62
     4
440
 16777216
 48
0.5
370
     9
100
AcDbLine
 10
-4115.381490481036
 20
2462.753046383292
 30
0.0
 11
-4115.381490481036
 21
2062.753046383292
 31
0.0
  0
LINE
  5
B014
330
9088
100
AcDbEntity
  8
01-寸法線
 62
     4
440
 16777216
 48
0.5
370
     9
100
AcDbLine
 10
-3365.381490481036
 20
2462.753046383292
 30
0.0
 11
-3365.381490481036
 21
2062.753046383292
 31
0.0
  0
LINE
  5
B015
330
9088
100
AcDbEntity
  8
01-寸法線
 62
     4
440
 16777216
 48
0.5
370
     9
100
AcDbLine
 10
-4085.381490481036
 20
2077.753046383292
 30
0.0
 11
-3395.381490481036
 21
2077.753046383292
 31
0.0
  0
INSERT
  5
B016
330
9088
100
AcDbEntity
  8
01-寸法線
 62
     4
440
 16777216
 48
0.5
370
     9
100
AcDbBlockReference
  2
_OPEN
 10
-4115.381490481036
 20
2077.753046383292
 30
0.0
 41
30.0
 42
30.0
 43
30.0
 50
180.0
  0
INSERT
  5
B017
330
9088
100
AcDbEntity
  8
01-寸法線
 62
     4
440
 16777216
 48
0.5
370
     9
100
AcDbBlockReference
  2
_OPEN
 10
-3365.381490481036
 20
2077.753046383292
 30
0.0
 41
30.0
 42
30.0
 43
30.0
  0
MTEXT
  5
B018
330
9088
100
AcDbEntity
  8
01-寸法線
 62
     4
440
 16777216
 48
0.5
100
AcDbMText
 10
-3740.381490481036
 20
2111.503046383292
 30
0.0
 40
52.5
 41
0.0
 71
     5
 72
     1
  1
\A1;250
  7
ｵﾘｼﾞﾅﾙｽﾀｲﾙ
 73
     1
 44
1.0
  0
POINT
  5
B019
330
9088
100
AcDbEntity
  8
DEFPOINTS
 62
     0
440
 16777216
 48
0.5
100
AcDbPoint
 10
-4115.381490481036
 20
2477.753046383292
 30
0.0
  0
POINT
  5
B01A
330
9088
100
AcDbEntity
  8
DEFPOINTS
 62
     0
440
 16777216
 48
0.5
100
AcDbPoint
 10
-3365.381490481036
 20
2477.753046383292
 30
0.0
  0
POINT
  5
B01B
330
9088
100
AcDbEntity
  8
DEFPOINTS
 62
     0
440
 16777216
 48
0.5
100
AcDbPoint
 10
-3365.381490481036
 20
2077.753046383292
 30
0.0
  0
ENDBLK
  5
9093
330
9088
100
AcDbEntity
  8
0
 48
0.5
100
AcDbBlockEnd
  0
BLOCK
  5
90B2
330
90A8
100
AcDbEntity
  8
0
 48
0.5
100
AcDbBlockBegin
  2
*D10
 70
     1
 10
0.0
 20
0.0
 30
0.0
  3
*D10
  1

  0
LINE
  5
B042
330
90A8
100
AcDbEntity
  8
01-寸法線
 62
     4
440
 16777216
 48
0.5
370
     9
100
AcDbLine
 10
-3350.381490481036
 20
2477.753046383292
 30
0.0
 11
-2950.381490481037
 21
2477.753046383292
 31
0.0
  0
LINE
  5
B043
330
90A8
100
AcDbEntity
  8
01-寸法線
 62
     4
440
 16777216
 48
0.5
370
     9
100
AcDbLine
 10
-3350.381490481036
 20
2597.753046383292
 30
0.0
 11
-2950.381490481037
 21
2597.753046383291
 31
0.0
  0
LINE
  5
B044
330
90A8
100
AcDbEntity
  8
01-寸法線
 62
     4
440
 16777216
 48
0.5
370
     9
100
AcDbLine
 10
-2965.381490481036
 20
2507.753046383291
 30
0.0
 11
-2965.381490481036
 21
2567.753046383292
 31
0.0
  0
INSERT
  5
B045
330
90A8
100
AcDbEntity
  8
01-寸法線
 62
     4
440
 16777216
 48
0.5
370
     9
100
AcDbBlockReference
  2
_OPEN
 10
-2965.381490481036
 20
2477.753046383292
 30
0.0
 41
30.0
 42
30.0
 43
30.0
 50
270.0
  0
INSERT
  5
B046
330
90A8
100
AcDbEntity
  8
01-寸法線
 62
     4
440
 16777216
 48
0.5
370
     9
100
AcDbBlockReference
  2
_OPEN
 10
-2965.381490481036
 20
2597.753046383291
 30
0.0
 41
30.0
 42
30.0
 43
30.0
 50
90.0
  0
MTEXT
  5
B047
330
90A8
100
AcDbEntity
  8
01-寸法線
 62
     4
440
 16777216
 48
0.5
100
AcDbMText
 10
-2999.131490481037
 20
2537.753046383291
 30
0.0
 40
52.5
 41
0.0
 71
     5
 72
     1
  1
\A1;40
  7
ｵﾘｼﾞﾅﾙｽﾀｲﾙ
 11
0.0000000000000001
 21
1.0
 31
0.0
 73
     1
 44
1.0
  0
POINT
  5
B048
330
90A8
100
AcDbEntity
  8
DEFPOINTS
 62
     0
440
 16777216
 48
0.5
100
AcDbPoint
 10
-3365.381490481036
 20
2477.753046383292
 30
0.0
  0
POINT
  5
B049
330
90A8
100
AcDbEntity
  8
DEFPOINTS
 62
     0
440
 16777216
 48
0.5
100
AcDbPoint
 10
-3365.381490481036
 20
2597.753046383292
 30
0.0
  0
POINT
  5
B04A
330
90A8
100
AcDbEntity
  8
DEFPOINTS
 62
     0
440
 16777216
 48
0.5
100
AcDbPoint
 10
-2965.381490481036
 20
2597.753046383291
 30
0.0
  0
ENDBLK
  5
90B3
330
90A8
100
AcDbEntity
  8
0
 48
0.5
100
AcDbBlockEnd
  0
BLOCK
  5
9111
330
9107
100
AcDbEntity
  8
0
 48
0.5
100
AcDbBlockBegin
  2
*D11
 70
     1
 10
0.0
 20
0.0
 30
0.0
  3
*D11
  1

  0
LINE
  5
AFF6
330
9107
100
AcDbEntity
  8
01-寸法線
 62
     4
440
 16777216
 48
0.5
370
     9
100
AcDbLine
 10
-3560.381490481037
 20
2552.753046383292
 30
0.0
 11
-3560.381490481037
 21
2862.753046383292
 31
0.0
  0
LINE
  5
AFF7
330
9107
100
AcDbEntity
  8
01-寸法線
 62
     4
440
 16777216
 48
0.5
370
     9
100
AcDbLine
 10
-3470.381490481037
 20
2552.753046383292
 30
0.0
 11
-3470.381490481037
 21
2862.753046383292
 31
0.0
  0
LINE
  5
AFF8
330
9107
100
AcDbEntity
  8
01-寸法線
 62
     4
440
 16777216
 48
0.5
370
     9
100
AcDbLine
 10
-3530.381490481036
 20
2847.753046383292
 30
0.0
 11
-3500.381490481036
 21
2847.753046383292
 31
0.0
  0
INSERT
  5
AFF9
330
9107
100
AcDbEntity
  8
01-寸法線
 62
     4
440
 16777216
 48
0.5
370
     9
100
AcDbBlockReference
  2
_OPEN
 10
-3560.381490481037
 20
2847.753046383292
 30
0.0
 41
30.0
 42
30.0
 43
30.0
 50
180.0
  0
INSERT
  5
AFFA
330
9107
100
AcDbEntity
  8
01-寸法線
 62
     4
440
 16777216
 48
0.5
370
     9
100
AcDbBlockReference
  2
_OPEN
 10
-3470.381490481037
 20
2847.753046383292
 30
0.0
 41
30.0
 42
30.0
 43
30.0
  0
MTEXT
  5
AFFB
330
9107
100
AcDbEntity
  8
01-寸法線
 62
     4
440
 16777216
 48
0.5
100
AcDbMText
 10
-3515.381490481036
 20
2881.503046383292
 30
0.0
 40
52.5
 41
0.0
 71
     5
 72
     1
  1
\A1;30
  7
ｵﾘｼﾞﾅﾙｽﾀｲﾙ
 73
     1
 44
1.0
  0
POINT
  5
AFFC
330
9107
100
AcDbEntity
  8
DEFPOINTS
 62
     0
440
 16777216
 48
0.5
100
AcDbPoint
 10
-3560.381490481037
 20
2537.753046383292
 30
0.0
  0
POINT
  5
AFFD
330
9107
100
AcDbEntity
  8
DEFPOINTS
 62
     0
440
 16777216
 48
0.5
100
AcDbPoint
 10
-3470.381490481037
 20
2537.753046383292
 30
0.0
  0
POINT
  5
AFFE
330
9107
100
AcDbEntity
  8
DEFPOINTS
 62
     0
440
 16777216
 48
0.5
100
AcDbPoint
 10
-3470.381490481037
 20
2847.753046383292
 30
0.0
  0
ENDBLK
  5
9112
330
9107
100
AcDbEntity
  8
0
 48
0.5
100
AcDbBlockEnd
  0
BLOCK
  5
9306
330
92FA
100
AcDbEntity
  8
0
 48
0.5
100
AcDbBlockBegin
  2
*D12
 70
     1
 10
0.0
 20
0.0
 30
0.0
  3
*D12
  1

  0
LINE
  5
B02E
330
92FA
100
AcDbEntity
  8
01-寸法線
 62
     4
440
 16777216
 48
0.5
370
     9
100
AcDbLine
 10
-3477.881490481036
 20
2560.253046383292
 30
0.0
 11
-3050.381490481037
 21
2560.253046383291
 31
0.0
  0
LINE
  5
B02F
330
92FA
100
AcDbEntity
  8
01-寸法線
 62
     4
440
 16777216
 48
0.5
370
     9
100
AcDbLine
 10
-3477.881490481036
 20
2515.253046383292
 30
0.0
 11
-3050.381490481037
 21
2515.253046383291
 31
0.0
  0
LINE
  5
B030
330
92FA
100
AcDbEntity
  8
01-寸法線
 62
     4
440
 16777216
 48
0.5
370
     9
100
AcDbLine
 10
-3065.381490481037
 20
2485.253046383292
 30
0.0
 11
-3065.381490481037
 21
2455.253046383291
 31
0.0
  0
LINE
  5
B031
330
92FA
100
AcDbEntity
  8
01-寸法線
 62
     4
440
 16777216
 48
0.5
370
     9
100
AcDbLine
 10
-3065.381490481037
 20
2590.253046383292
 30
0.0
 11
-3065.381490481037
 21
2685.893046383291
 31
0.0
  0
LINE
  5
B032
330
92FA
100
AcDbEntity
  8
01-寸法線
 62
     4
440
 16777216
 48
0.5
370
     9
100
AcDbLine
 10
-3065.381490481037
 20
2515.253046383291
 30
0.0
 11
-3065.381490481037
 21
2560.253046383291
 31
0.0
  0
INSERT
  5
B033
330
92FA
100
AcDbEntity
  8
01-寸法線
 62
     4
440
 16777216
 48
0.5
370
     9
100
AcDbBlockReference
  2
_OPEN
 10
-3065.381490481037
 20
2515.253046383291
 30
0.0
 41
30.0
 42
30.0
 43
30.0
 50
90.0
  0
INSERT
  5
B034
330
92FA
100
AcDbEntity
  8
01-寸法線
 62
     4
440
 16777216
 48
0.5
370
     9
100
AcDbBlockReference
  2
_OPEN
 10
-3065.381490481037
 20
2560.253046383291
 30
0.0
 41
30.0
 42
30.0
 43
30.0
 50
270.0
  0
MTEXT
  5
B035
330
92FA
100
AcDbEntity
  8
01-寸法線
 62
     4
440
 16777216
 48
0.5
100
AcDbMText
 10
-3099.131490481037
 20
2653.073046383291
 30
0.0
 40
52.5
 41
0.0
 71
     5
 72
     1
  1
\A1;15
  7
ｵﾘｼﾞﾅﾙｽﾀｲﾙ
 11
0.0000000000000001
 21
1.0
 31
0.0
 73
     1
 44
1.0
  0
POINT
  5
B036
330
92FA
100
AcDbEntity
  8
DEFPOINTS
 62
     0
440
 16777216
 48
0.5
100
AcDbPoint
 10
-3492.881490481036
 20
2560.253046383292
 30
0.0
  0
POINT
  5
B037
330
92FA
100
AcDbEntity
  8
DEFPOINTS
 62
     0
440
 16777216
 48
0.5
100
AcDbPoint
 10
-3492.881490481036
 20
2515.253046383292
 30
0.0
  0
POINT
  5
B038
330
92FA
100
AcDbEntity
  8
DEFPOINTS
 62
     0
440
 16777216
 48
0.5
100
AcDbPoint
 10
-3065.381490481037
 20
2515.253046383291
 30
0.0
  0
ENDBLK
  5
9307
330
92FA
100
AcDbEntity
  8
0
 48
0.5
100
AcDbBlockEnd
  0
BLOCK
  5
A08C
330
A080
100
AcDbEntity
  8
0
 48
0.5
100
AcDbBlockBegin
  2
*D13
 70
     1
 10
0.0
 20
0.0
 30
0.0
  3
*D13
  1

  0
LINE
  5
B008
330
A080
100
AcDbEntity
  8
01-寸法線
 62
     4
440
 16777216
 48
0.5
370
     9
100
AcDbLine
 10
-5315.381490481037
 20
2532.753046383292
 30
0.0
 11
-5315.381490481037
 21
2382.753046383292
 31
0.0
  0
LINE
  5
B009
330
A080
100
AcDbEntity
  8
01-寸法線
 62
     4
440
 16777216
 48
0.5
370
     9
100
AcDbLine
 10
-5277.881490481036
 20
2682.753046383292
 30
0.0
 11
-5277.881490481036
 21
2382.753046383292
 31
0.0
  0
LINE
  5
B00A
330
A080
100
AcDbEntity
  8
01-寸法線
 62
     4
440
 16777216
 48
0.5
370
     9
100
AcDbLine
 10
-5345.381490481037
 20
2397.753046383293
 30
0.0
 11
-5375.381490481037
 21
2397.753046383293
 31
0.0
  0
LINE
  5
B00B
330
A080
100
AcDbEntity
  8
01-寸法線
 62
     4
440
 16777216
 48
0.5
370
     9
100
AcDbLine
 10
-5247.881490481037
 20
2397.753046383293
 30
0.0
 11
-5179.601490481037
 21
2397.753046383293
 31
0.0
  0
LINE
  5
B00C
330
A080
100
AcDbEntity
  8
01-寸法線
 62
     4
440
 16777216
 48
0.5
370
     9
100
AcDbLine
 10
-5315.381490481037
 20
2397.753046383293
 30
0.0
 11
-5277.881490481036
 21
2397.753046383293
 31
0.0
  0
INSERT
  5
B00D
330
A080
100
AcDbEntity
  8
01-寸法線
 62
     4
440
 16777216
 48
0.5
370
     9
100
AcDbBlockReference
  2
_OPEN
 10
-5315.381490481037
 20
2397.753046383293
 30
0.0
 41
30.0
 42
30.0
 43
30.0
  0
INSERT
  5
B00E
330
A080
100
AcDbEntity
  8
01-寸法線
 62
     4
440
 16777216
 48
0.5
370
     9
100
AcDbBlockReference
  2
_OPEN
 10
-5277.881490481036
 20
2397.753046383293
 30
0.0
 41
30.0
 42
30.0
 43
30.0
 50
180.0
  0
MTEXT
  5
B00F
330
A080
100
AcDbEntity
  8
01-寸法線
 62
     4
440
 16777216
 48
0.5
100
AcDbMText
 10
-5198.741490481037
 20
2431.503046383292
 30
0.0
 40
52.5
 41
0.0
 71
     5
 72
     1
  1
\A1;5
  7
ｵﾘｼﾞﾅﾙｽﾀｲﾙ
 73
     1
 44
1.0
  0
POINT
  5
B010
330
A080
100
AcDbEntity
  8
DEFPOINTS
 62
     0
440
 16777216
 48
0.5
100
AcDbPoint
 10
-5315.381490481037
 20
2547.753046383292
 30
0.0
  0
POINT
  5
B011
330
A080
100
AcDbEntity
  8
DEFPOINTS
 62
     0
440
 16777216
 48
0.5
100
AcDbPoint
 10
-5277.881490481036
 20
2697.753046383292
 30
0.0
  0
POINT
  5
B012
330
A080
100
AcDbEntity
  8
DEFPOINTS
 62
     0
440
 16777216
 48
0.5
100
AcDbPoint
 10
-5277.881490481036
 20
2397.753046383293
 30
0.0
  0
ENDBLK
  5
A08D
330
A080
100
AcDbEntity
  8
0
 48
0.5
100
AcDbBlockEnd
  0
BLOCK
  5
A0EE
330
A0E4
100
AcDbEntity
  8
0
 48
0.5
100
AcDbBlockBegin
  2
*D14
 70
     1
 10
0.0
 20
0.0
 30
0.0
  3
*D14
  1

  0
LINE
  5
B025
330
A0E4
100
AcDbEntity
  8
01-寸法線
 62
     4
440
 16777216
 48
0.5
370
     9
100
AcDbLine
 10
-4160.381490481036
 20
2462.753046383292
 30
0.0
 11
-4430.381490481037
 21
2462.753046383292
 31
0.0
  0
LINE
  5
B026
330
A0E4
100
AcDbEntity
  8
01-寸法線
 62
     4
440
 16777216
 48
0.5
370
     9
100
AcDbLine
 10
-4160.381490481036
 20
2612.753046383291
 30
0.0
 11
-4430.381490481037
 21
2612.753046383291
 31
0.0
  0
LINE
  5
B027
330
A0E4
100
AcDbEntity
  8
01-寸法線
 62
     4
440
 16777216
 48
0.5
370
     9
100
AcDbLine
 10
-4415.381490481037
 20
2492.753046383291
 30
0.0
 11
-4415.381490481037
 21
2582.753046383292
 31
0.0
  0
INSERT
  5
B028
330
A0E4
100
AcDbEntity
  8
01-寸法線
 62
     4
440
 16777216
 48
0.5
370
     9
100
AcDbBlockReference
  2
_OPEN
 10
-4415.381490481037
 20
2462.753046383292
 30
0.0
 41
30.0
 42
30.0
 43
30.0
 50
270.0
  0
INSERT
  5
B029
330
A0E4
100
AcDbEntity
  8
01-寸法線
 62
     4
440
 16777216
 48
0.5
370
     9
100
AcDbBlockReference
  2
_OPEN
 10
-4415.381490481037
 20
2612.753046383291
 30
0.0
 41
30.0
 42
30.0
 43
30.0
 50
90.0
  0
MTEXT
  5
B02A
330
A0E4
100
AcDbEntity
  8
01-寸法線
 62
     4
440
 16777216
 48
0.5
100
AcDbMText
 10
-4449.131490481038
 20
2537.753046383291
 30
0.0
 40
52.5
 41
0.0
 71
     5
 72
     1
  1
\A1;50
  7
ｵﾘｼﾞﾅﾙｽﾀｲﾙ
 11
0.0000000000000001
 21
1.0
 31
0.0
 73
     1
 44
1.0
  0
POINT
  5
B02B
330
A0E4
100
AcDbEntity
  8
DEFPOINTS
 62
     0
440
 16777216
 48
0.5
100
AcDbPoint
 10
-4145.381490481036
 20
2462.753046383292
 30
0.0
  0
POINT
  5
B02C
330
A0E4
100
AcDbEntity
  8
DEFPOINTS
 62
     0
440
 16777216
 48
0.5
100
AcDbPoint
 10
-4145.381490481036
 20
2612.753046383291
 30
0.0
  0
POINT
  5
B02D
330
A0E4
100
AcDbEntity
  8
DEFPOINTS
 62
     0
440
 16777216
 48
0.5
100
AcDbPoint
 10
-4415.381490481037
 20
2612.753046383291
 30
0.0
  0
ENDBLK
  5
A0EF
330
A0E4
100
AcDbEntity
  8
0
 48
0.5
100
AcDbBlockEnd
  0
BLOCK
  5
A12F
330
A125
100
AcDbEntity
  8
0
 48
0.5
100
AcDbBlockBegin
  2
*D15
 70
     1
 10
0.0
 20
0.0
 30
0.0
  3
*D15
  1

  0
LINE
  5
AFED
330
A125
100
AcDbEntity
  8
01-寸法線
 62
     4
440
 16777216
 48
0.5
370
     9
100
AcDbLine
 10
-4145.381490481036
 20
2645.753046383291
 30
0.0
 11
-4145.381490481036
 21
2962.753046383292
 31
0.0
  0
LINE
  5
AFEE
330
A125
100
AcDbEntity
  8
01-寸法線
 62
     4
440
 16777216
 48
0.5
370
     9
100
AcDbLine
 10
-3740.381490481037
 20
2762.753046383292
 30
0.0
 11
-3740.381490481037
 21
2962.753046383292
 31
0.0
  0
LINE
  5
AFEF
330
A125
100
AcDbEntity
  8
01-寸法線
 62
     4
440
 16777216
 48
0.5
370
     9
100
AcDbLine
 10
-4115.381490481036
 20
2947.753046383292
 30
0.0
 11
-3770.381490481037
 21
2947.753046383292
 31
0.0
  0
INSERT
  5
AFF0
330
A125
100
AcDbEntity
  8
01-寸法線
 62
     4
440
 16777216
 48
0.5
370
     9
100
AcDbBlockReference
  2
_OPEN
 10
-4145.381490481036
 20
2947.753046383292
 30
0.0
 41
30.0
 42
30.0
 43
30.0
 50
180.0
  0
INSERT
  5
AFF1
330
A125
100
AcDbEntity
  8
01-寸法線
 62
     4
440
 16777216
 48
0.5
370
     9
100
AcDbBlockReference
  2
_OPEN
 10
-3740.381490481037
 20
2947.753046383292
 30
0.0
 41
30.0
 42
30.0
 43
30.0
  0
MTEXT
  5
AFF2
330
A125
100
AcDbEntity
  8
01-寸法線
 62
     4
440
 16777216
 48
0.5
100
AcDbMText
 10
-3942.881490481036
 20
2981.503046383292
 30
0.0
 40
52.5
 41
0.0
 71
     5
 72
     1
  1
\A1;135
  7
ｵﾘｼﾞﾅﾙｽﾀｲﾙ
 73
     1
 44
1.0
  0
POINT
  5
AFF3
330
A125
100
AcDbEntity
  8
DEFPOINTS
 62
     0
440
 16777216
 48
0.5
100
AcDbPoint
 10
-4145.381490481036
 20
2630.753046383292
 30
0.0
  0
POINT
  5
AFF4
330
A125
100
AcDbEntity
  8
DEFPOINTS
 62
     0
440
 16777216
 48
0.5
100
AcDbPoint
 10
-3740.381490481037
 20
2747.753046383292
 30
0.0
  0
POINT
  5
AFF5
330
A125
100
AcDbEntity
  8
DEFPOINTS
 62
     0
440
 16777216
 48
0.5
100
AcDbPoint
 10
-3740.381490481037
 20
2947.753046383292
 30
0.0
  0
ENDBLK
  5
A130
330
A125
100
AcDbEntity
  8
0
 48
0.5
100
AcDbBlockEnd
  0
BLOCK
  5
A13C
330
A132
100
AcDbEntity
  8
0
 48
0.5
100
AcDbBlockBegin
  2
*D16
 70
     1
 10
0.0
 20
0.0
 30
0.0
  3
*D16
  1

  0
LINE
  5
AFE4
330
A132
100
AcDbEntity
  8
01-寸法線
 62
     4
440
 16777216
 48
0.5
370
     9
100
AcDbLine
 10
-3740.381490481037
 20
2762.753046383292
 30
0.0
 11
-3740.381490481037
 21
2962.753046383292
 31
0.0
  0
LINE
  5
AFE5
330
A132
100
AcDbEntity
  8
01-寸法線
 62
     4
440
 16777216
 48
0.5
370
     9
100
AcDbLine
 10
-3335.381490481037
 20
2627.753046383292
 30
0.0
 11
-3335.381490481037
 21
2962.753046383292
 31
0.0
  0
LINE
  5
AFE6
330
A132
100
AcDbEntity
  8
01-寸法線
 62
     4
440
 16777216
 48
0.5
370
     9
100
AcDbLine
 10
-3710.381490481037
 20
2947.753046383292
 30
0.0
 11
-3365.381490481036
 21
2947.753046383292
 31
0.0
  0
INSERT
  5
AFE7
330
A132
100
AcDbEntity
  8
01-寸法線
 62
     4
440
 16777216
 48
0.5
370
     9
100
AcDbBlockReference
  2
_OPEN
 10
-3740.381490481037
 20
2947.753046383292
 30
0.0
 41
30.0
 42
30.0
 43
30.0
 50
180.0
  0
INSERT
  5
AFE8
330
A132
100
AcDbEntity
  8
01-寸法線
 62
     4
440
 16777216
 48
0.5
370
     9
100
AcDbBlockReference
  2
_OPEN
 10
-3335.381490481037
 20
2947.753046383292
 30
0.0
 41
30.0
 42
30.0
 43
30.0
  0
MTEXT
  5
AFE9
330
A132
100
AcDbEntity
  8
01-寸法線
 62
     4
440
 16777216
 48
0.5
100
AcDbMText
 10
-3537.881490481036
 20
2981.503046383292
 30
0.0
 40
52.5
 41
0.0
 71
     5
 72
     1
  1
\A1;135
  7
ｵﾘｼﾞﾅﾙｽﾀｲﾙ
 73
     1
 44
1.0
  0
POINT
  5
AFEA
330
A132
100
AcDbEntity
  8
DEFPOINTS
 62
     0
440
 16777216
 48
0.5
100
AcDbPoint
 10
-3740.381490481037
 20
2747.753046383292
 30
0.0
  0
POINT
  5
AFEB
330
A132
100
AcDbEntity
  8
DEFPOINTS
 62
     0
440
 16777216
 48
0.5
100
AcDbPoint
 10
-3335.381490481037
 20
2612.753046383292
 30
0.0
  0
POINT
  5
AFEC
330
A132
100
AcDbEntity
  8
DEFPOINTS
 62
     0
440
 16777216
 48
0.5
100
AcDbPoint
 10
-3335.381490481037
 20
2947.753046383292
 30
0.0
  0
ENDBLK
  5
A13D
330
A132
100
AcDbEntity
  8
0
 48
0.5
100
AcDbBlockEnd
  0
BLOCK
  5
AABD
330
AAB1
100
AcDbEntity
  8
0
 48
0.5
100
AcDbBlockBegin
  2
*D17
 70
     1
 10
0.0
 20
0.0
 30
0.0
  3
*D17
  1

  0
LINE
  5
B066
330
AAB1
100
AcDbEntity
  8
01-寸法線
 62
     4
440
 16777216
 48
0.5
370
     9
100
AcDbLine
 10
-5180.381490481035
 20
4147.753046383292
 30
0.0
 11
-5380.381490481036
 21
4147.753046383292
 31
0.0
  0
LINE
  5
B067
330
AAB1
100
AcDbEntity
  8
01-寸法線
 62
     4
440
 16777216
 48
0.5
370
     9
100
AcDbLine
 10
-5180.381490481035
 20
4207.753046383292
 30
0.0
 11
-5380.381490481036
 21
4207.753046383292
 31
0.0
  0
LINE
  5
B068
330
AAB1
100
AcDbEntity
  8
01-寸法線
 62
     4
440
 16777216
 48
0.5
370
     9
100
AcDbLine
 10
-5365.381490481036
 20
4117.753046383291
 30
0.0
 11
-5365.381490481036
 21
4087.753046383292
 31
0.0
  0
LINE
  5
B069
330
AAB1
100
AcDbEntity
  8
01-寸法線
 62
     4
440
 16777216
 48
0.5
370
     9
100
AcDbLine
 10
-5365.381490481036
 20
4237.753046383292
 30
0.0
 11
-5365.381490481036
 21
4338.193046383291
 31
0.0
  0
LINE
  5
B06A
330
AAB1
100
AcDbEntity
  8
01-寸法線
 62
     4
440
 16777216
 48
0.5
370
     9
100
AcDbLine
 10
-5365.381490481036
 20
4147.753046383292
 30
0.0
 11
-5365.381490481036
 21
4207.753046383292
 31
0.0
  0
INSERT
  5
B06B
330
AAB1
100
AcDbEntity
  8
01-寸法線
 62
     4
440
 16777216
 48
0.5
370
     9
100
AcDbBlockReference
  2
_OPEN
 10
-5365.381490481036
 20
4147.753046383292
 30
0.0
 41
30.0
 42
30.0
 43
30.0
 50
90.0
  0
INSERT
  5
B06C
330
AAB1
100
AcDbEntity
  8
01-寸法線
 62
     4
440
 16777216
 48
0.5
370
     9
100
AcDbBlockReference
  2
_OPEN
 10
-5365.381490481036
 20
4207.753046383292
 30
0.0
 41
30.0
 42
30.0
 43
30.0
 50
270.0
  0
MTEXT
  5
B06D
330
AAB1
100
AcDbEntity
  8
01-寸法線
 62
     4
440
 16777216
 48
0.5
100
AcDbMText
 10
-5399.131490481037
 20
4302.973046383291
 30
0.0
 40
52.5
 41
0.0
 71
     5
 72
     1
  1
\A1;60
  7
ｵﾘｼﾞﾅﾙｽﾀｲﾙ
 11
0.0000000000000001
 21
1.0
 31
0.0
 73
     1
 44
1.0
  0
POINT
  5
B06E
330
AAB1
100
AcDbEntity
  8
DEFPOINTS
 62
     0
440
 16777216
 48
0.5
100
AcDbPoint
 10
-5165.381490481036
 20
4147.753046383292
 30
0.0
  0
POINT
  5
B06F
330
AAB1
100
AcDbEntity
  8
DEFPOINTS
 62
     0
440
 16777216
 48
0.5
100
AcDbPoint
 10
-5165.381490481036
 20
4207.753046383292
 30
0.0
  0
POINT
  5
B070
330
AAB1
100
AcDbEntity
  8
DEFPOINTS
 62
     0
440
 16777216
 48
0.5
100
AcDbPoint
 10
-5365.381490481036
 20
4207.753046383292
 30
0.0
  0
ENDBLK
  5
AABE
330
AAB1
100
AcDbEntity
  8
0
 48
0.5
100
AcDbBlockEnd
  0
BLOCK
  5
AB42
330
AB38
100
AcDbEntity
  8
0
 48
0.5
100
AcDbBlockBegin
  2
*D18
 70
     1
 10
0.0
 20
0.0
 30
0.0
  3
*D18
  1

  0
LINE
  5
AFFF
330
AB38
100
AcDbEntity
  8
01-寸法線
 62
     4
440
 16777216
 48
0.5
370
     9
100
AcDbLine
 10
-5262.881490481037
 20
2697.753046383292
 30
0.0
 11
-4850.381490481037
 21
2697.753046383291
 31
0.0
  0
LINE
  5
B000
330
AB38
100
AcDbEntity
  8
01-寸法線
 62
     4
440
 16777216
 48
0.5
370
     9
100
AcDbLine
 10
-5000.381490481037
 20
2847.753046383292
 30
0.0
 11
-4850.381490481037
 21
2847.753046383292
 31
0.0
  0
LINE
  5
B001
330
AB38
100
AcDbEntity
  8
01-寸法線
 62
     4
440
 16777216
 48
0.5
370
     9
100
AcDbLine
 10
-4865.381490481037
 20
2727.753046383292
 30
0.0
 11
-4865.381490481037
 21
2817.753046383292
 31
0.0
  0
INSERT
  5
B002
330
AB38
100
AcDbEntity
  8
01-寸法線
 62
     4
440
 16777216
 48
0.5
370
     9
100
AcDbBlockReference
  2
_OPEN
 10
-4865.381490481037
 20
2697.753046383291
 30
0.0
 41
30.0
 42
30.0
 43
30.0
 50
270.0
  0
INSERT
  5
B003
330
AB38
100
AcDbEntity
  8
01-寸法線
 62
     4
440
 16777216
 48
0.5
370
     9
100
AcDbBlockReference
  2
_OPEN
 10
-4865.381490481037
 20
2847.753046383292
 30
0.0
 41
30.0
 42
30.0
 43
30.0
 50
90.0
  0
MTEXT
  5
B004
330
AB38
100
AcDbEntity
  8
01-寸法線
 62
     4
440
 16777216
 48
0.5
100
AcDbMText
 10
-4899.131490481038
 20
2772.753046383292
 30
0.0
 40
52.5
 41
0.0
 71
     5
 72
     1
  1
\A1;20
  7
ｵﾘｼﾞﾅﾙｽﾀｲﾙ
 11
0.0000000000000001
 21
1.0
 31
0.0
 73
     1
 44
1.0
  0
POINT
  5
B005
330
AB38
100
AcDbEntity
  8
DEFPOINTS
 62
     0
440
 16777216
 48
0.5
100
AcDbPoint
 10
-5277.881490481036
 20
2697.753046383292
 30
0.0
  0
POINT
  5
B006
330
AB38
100
AcDbEntity
  8
DEFPOINTS
 62
     0
440
 16777216
 48
0.5
100
AcDbPoint
 10
-5015.381490481036
 20
2847.753046383292
 30
0.0
  0
POINT
  5
B007
330
AB38
100
AcDbEntity
  8
DEFPOINTS
 62
     0
440
 16777216
 48
0.5
100
AcDbPoint
 10
-4865.381490481037
 20
2847.753046383292
 30
0.0
  0
ENDBLK
  5
AB43
330
AB38
100
AcDbEntity
  8
0
 48
0.5
100
AcDbBlockEnd
  0
BLOCK
  5
AD4B
330
AD41
100
AcDbEntity
  8
0
 48
0.5
100
AcDbBlockBegin
  2
*D19
 70
     1
 10
0.0
 20
0.0
 30
0.0
  3
*D19
  1

  0
LINE
  5
B24B
330
AD41
100
AcDbEntity
  8
01-寸法線
 62
     4
440
 16777216
 48
0.5
370
     9
100
AcDbLine
 10
-6585.381490481037
 20
1047.753046383292
 30
0.0
 11
-6885.381490481037
 21
1047.753046383292
 31
0.0
  0
LINE
  5
B24C
330
AD41
100
AcDbEntity
  8
01-寸法線
 62
     4
440
 16777216
 48
0.5
370
     9
100
AcDbLine
 10
-6585.381490481037
 20
3047.753046383292
 30
0.0
 11
-6885.381490481036
 21
3047.753046383292
 31
0.0
  0
LINE
  5
B24D
330
AD41
100
AcDbEntity
  8
01-寸法線
 62
     4
440
 16777216
 48
0.5
370
     9
100
AcDbLine
 10
-6870.381490481037
 20
1077.753046383292
 30
0.0
 11
-6870.381490481036
 21
3017.753046383292
 31
0.0
  0
INSERT
  5
B24E
330
AD41
100
AcDbEntity
  8
01-寸法線
 62
     4
440
 16777216
 48
0.5
370
     9
100
AcDbBlockReference
  2
_OPEN
 10
-6870.381490481037
 20
1047.753046383292
 30
0.0
 41
30.0
 42
30.0
 43
30.0
 50
270.0
  0
INSERT
  5
B24F
330
AD41
100
AcDbEntity
  8
01-寸法線
 62
     4
440
 16777216
 48
0.5
370
     9
100
AcDbBlockReference
  2
_OPEN
 10
-6870.381490481036
 20
3047.753046383292
 30
0.0
 41
30.0
 42
30.0
 43
30.0
 50
90.0
  0
MTEXT
  5
B250
330
AD41
100
AcDbEntity
  8
01-寸法線
 62
     4
440
 16777216
 48
0.5
100
AcDbMText
 10
-6904.131490481038
 20
2047.753046383291
 30
0.0
 40
52.5
 41
0.0
 71
     5
 72
     1
  1
\A1;2000
  7
ｵﾘｼﾞﾅﾙｽﾀｲﾙ
 11
0.0000000000000001
 21
1.0
 31
0.0
 73
     1
 44
1.0
  0
POINT
  5
B251
330
AD41
100
AcDbEntity
  8
DEFPOINTS
 62
     0
440
 16777216
 48
0.5
100
AcDbPoint
 10
-6570.381490481036
 20
1047.753046383292
 30
0.0
  0
POINT
  5
B252
330
AD41
100
AcDbEntity
  8
DEFPOINTS
 62
     0
440
 16777216
 48
0.5
100
AcDbPoint
 10
-6570.381490481036
 20
3047.753046383292
 30
0.0
  0
POINT
  5
B253
330
AD41
100
AcDbEntity
  8
DEFPOINTS
 62
     0
440
 16777216
 48
0.5
100
AcDbPoint
 10
-6870.381490481036
 20
3047.753046383292
 30
0.0
  0
ENDBLK
  5
AD4C
330
AD41
100
AcDbEntity
  8
0
 48
0.5
100
AcDbBlockEnd
  0
BLOCK
  5
ADF4
330
ADEA
100
AcDbEntity
  8
0
 48
0.5
100
AcDbBlockBegin
  2
*D20
 70
     1
 10
0.0
 20
0.0
 30
0.0
  3
*D20
  1

  0
LINE
  5
B3A2
330
ADEA
100
AcDbEntity
  8
01-寸法線
 62
     4
440
 16777216
 48
0.5
370
     9
100
AcDbLine
 10
-1733.129630970538
 20
4212.777860432239
 30
0.0
 11
-1703.278515264238
 21
4209.792748861607
 31
0.0
  0
LINE
  5
B3A3
330
ADEA
100
AcDbEntity
  8
01-寸法線
 62
     4
440
 16777216
 48
0.5
370
     9
100
AcDbLine
 10
-1812.73260618734
 20
4220.738157953921
 30
0.0
 11
-1912.43533264638
 21
4230.708430599828
 31
0.0
  0
LINE
  5
B3A4
330
ADEA
100
AcDbEntity
  8
01-寸法線
 62
     4
440
 16777216
 48
0.5
370
     9
100
AcDbLine
 10
-1762.980746676837
 20
4215.762972002869
 30
0.0
 11
-1782.88149048104
 21
4217.75304638329
 31
0.0
  0
INSERT
  5
B3A5
330
ADEA
100
AcDbEntity
  8
01-寸法線
 62
     4
440
 16777216
 48
0.5
370
     9
100
AcDbBlockReference
  2
_OPEN
 10
-1762.980746676837
 20
4215.762972002869
 30
0.0
 41
30.0
 42
30.0
 43
30.0
 50
174.2894068624983
  0
INSERT
  5
B3A6
330
ADEA
100
AcDbEntity
  8
01-寸法線
 62
     4
440
 16777216
 48
0.5
370
     9
100
AcDbBlockReference
  2
_OPEN
 10
-1782.88149048104
 20
4217.75304638329
 30
0.0
 41
30.0
 42
30.0
 43
30.0
 50
354.2894068624984
  0
MTEXT
  5
B3A7
330
ADEA
100
AcDbEntity
  8
01-寸法線
 62
     4
440
 16777216
 48
0.5
100
AcDbMText
 10
-1874.15127675305
 20
4260.798355231777
 30
0.0
 40
52.5
 41
0.0
 71
     5
 72
     1
  1
\A1;20
  7
ｵﾘｼﾞﾅﾙｽﾀｲﾙ
 11
0.9950371902099856
 21
-0.0995037190210332
 31
0.0
 73
     1
 44
1.0
  0
POINT
  5
B3A8
330
ADEA
100
AcDbEntity
  8
DEFPOINTS
 62
     0
440
 16777216
 48
0.5
100
AcDbPoint
 10
-1762.980746676837
 20
4215.76297200287
 30
0.0
  0
POINT
  5
B3A9
330
ADEA
100
AcDbEntity
  8
DEFPOINTS
 62
     0
440
 16777216
 48
0.5
100
AcDbPoint
 10
-1782.88149048104
 20
4217.753046383291
 30
0.0
  0
POINT
  5
B3AA
330
ADEA
100
AcDbEntity
  8
DEFPOINTS
 62
     0
440
 16777216
 48
0.5
100
AcDbPoint
 10
-1782.88149048104
 20
4217.75304638329
 30
0.0
  0
ENDBLK
  5
ADF5
330
ADEA
100
AcDbEntity
  8
0
 48
0.5
100
AcDbBlockEnd
  0
BLOCK
  5
AE6B
330
AE5F
100
AcDbEntity
  8
0
 48
0.5
100
AcDbBlockBegin
  2
*D21
 70
     1
 10
0.0
 20
0.0
 30
0.0
  3
*D21
  1

  0
LINE
  5
B3CA
330
AE5F
100
AcDbEntity
  8
01-寸法線
 62
     4
440
 16777216
 48
0.5
370
     9
100
AcDbLine
 10
-1577.881490481036
 20
3617.753046383291
 30
0.0
 11
-1377.881490481036
 21
3617.753046383291
 31
0.0
  0
LINE
  5
B3CB
330
AE5F
100
AcDbEntity
  8
01-寸法線
 62
     4
440
 16777216
 48
0.5
370
     9
100
AcDbLine
 10
-1577.881490481036
 20
3622.753046383291
 30
0.0
 11
-1377.881490481036
 21
3622.753046383291
 31
0.0
  0
LINE
  5
B3CC
330
AE5F
100
AcDbEntity
  8
01-寸法線
 62
     4
440
 16777216
 48
0.5
370
     9
100
AcDbLine
 10
-1392.881490481036
 20
3587.753046383291
 30
0.0
 11
-1392.881490481036
 21
3557.753046383291
 31
0.0
  0
LINE
  5
B3CD
330
AE5F
100
AcDbEntity
  8
01-寸法線
 62
     4
440
 16777216
 48
0.5
370
     9
100
AcDbLine
 10
-1392.881490481036
 20
3652.753046383291
 30
0.0
 11
-1392.881490481036
 21
3721.033046383291
 31
0.0
  0
LINE
  5
B3CE
330
AE5F
100
AcDbEntity
  8
01-寸法線
 62
     4
440
 16777216
 48
0.5
370
     9
100
AcDbLine
 10
-1392.881490481036
 20
3617.753046383291
 30
0.0
 11
-1392.881490481036
 21
3622.753046383291
 31
0.0
  0
INSERT
  5
B3CF
330
AE5F
100
AcDbEntity
  8
01-寸法線
 62
     4
440
 16777216
 48
0.5
370
     9
100
AcDbBlockReference
  2
_OPEN
 10
-1392.881490481036
 20
3617.753046383291
 30
0.0
 41
30.0
 42
30.0
 43
30.0
 50
90.0
  0
INSERT
  5
B3D0
330
AE5F
100
AcDbEntity
  8
01-寸法線
 62
     4
440
 16777216
 48
0.5
370
     9
100
AcDbBlockReference
  2
_OPEN
 10
-1392.881490481036
 20
3622.753046383291
 30
0.0
 41
30.0
 42
30.0
 43
30.0
 50
270.0
  0
MTEXT
  5
B3D1
330
AE5F
100
AcDbEntity
  8
01-寸法線
 62
     4
440
 16777216
 48
0.5
100
AcDbMText
 10
-1426.631490481037
 20
3701.89304638329
 30
0.0
 40
52.5
 41
0.0
 71
     5
 72
     1
  1
\A1;5
  7
ｵﾘｼﾞﾅﾙｽﾀｲﾙ
 11
0.0000000000000001
 21
1.0
 31
0.0
 73
     1
 44
1.0
  0
POINT
  5
B3D2
330
AE5F
100
AcDbEntity
  8
DEFPOINTS
 62
     0
440
 16777216
 48
0.5
100
AcDbPoint
 10
-1592.881490481036
 20
3617.753046383291
 30
0.0
  0
POINT
  5
B3D3
330
AE5F
100
AcDbEntity
  8
DEFPOINTS
 62
     0
440
 16777216
 48
0.5
100
AcDbPoint
 10
-1592.881490481036
 20
3622.753046383291
 30
0.0
  0
POINT
  5
B3D4
330
AE5F
100
AcDbEntity
  8
DEFPOINTS
 62
     0
440
 16777216
 48
0.5
100
AcDbPoint
 10
-1392.881490481036
 20
3622.753046383291
 30
0.0
  0
ENDBLK
  5
AE6C
330
AE5F
100
AcDbEntity
  8
0
 48
0.5
100
AcDbBlockEnd
  0
BLOCK
  5
AF72
330
AF66
100
AcDbEntity
  8
0
 48
0.5
100
AcDbBlockBegin
  2
*D22
 70
     1
 10
0.0
 20
0.0
 30
0.0
  3
*D22
  1

  0
LINE
  5
B3AB
330
AF66
100
AcDbEntity
  8
01-寸法線
 62
     4
440
 16777216
 48
0.5
370
     9
100
AcDbLine
 10
-1012.881490481036
 20
4332.753046383292
 30
0.0
 11
-1012.881490481036
 21
4532.753046383292
 31
0.0
  0
LINE
  5
B3AC
330
AF66
100
AcDbEntity
  8
01-寸法線
 62
     4
440
 16777216
 48
0.5
370
     9
100
AcDbLine
 10
-1017.881490481035
 20
4332.75304638329
 30
0.0
 11
-1017.881490481035
 21
4532.753046383292
 31
0.0
  0
LINE
  5
B3AD
330
AF66
100
AcDbEntity
  8
01-寸法線
 62
     4
440
 16777216
 48
0.5
370
     9
100
AcDbLine
 10
-982.8814904810361
 20
4517.753046383291
 30
0.0
 11
-952.881490481036
 21
4517.753046383291
 31
0.0
  0
LINE
  5
B3AE
330
AF66
100
AcDbEntity
  8
01-寸法線
 62
     4
440
 16777216
 48
0.5
370
     9
100
AcDbLine
 10
-1047.881490481035
 20
4517.753046383291
 30
0.0
 11
-1116.161490481035
 21
4517.753046383291
 31
0.0
  0
LINE
  5
B3AF
330
AF66
100
AcDbEntity
  8
01-寸法線
 62
     4
440
 16777216
 48
0.5
370
     9
100
AcDbLine
 10
-1012.881490481036
 20
4517.753046383291
 30
0.0
 11
-1017.881490481035
 21
4517.753046383291
 31
0.0
  0
INSERT
  5
B3B0
330
AF66
100
AcDbEntity
  8
01-寸法線
 62
     4
440
 16777216
 48
0.5
370
     9
100
AcDbBlockReference
  2
_OPEN
 10
-1012.881490481036
 20
4517.753046383291
 30
0.0
 41
30.0
 42
30.0
 43
30.0
 50
180.0
  0
INSERT
  5
B3B1
330
AF66
100
AcDbEntity
  8
01-寸法線
 62
     4
440
 16777216
 48
0.5
370
     9
100
AcDbBlockReference
  2
_OPEN
 10
-1017.881490481035
 20
4517.753046383291
 30
0.0
 41
30.0
 42
30.0
 43
30.0
  0
MTEXT
  5
B3B2
330
AF66
100
AcDbEntity
  8
01-寸法線
 62
     4
440
 16777216
 48
0.5
100
AcDbMText
 10
-1097.021490481035
 20
4551.503046383292
 30
0.0
 40
52.5
 41
0.0
 71
     5
 72
     1
  1
\A1;5
  7
ｵﾘｼﾞﾅﾙｽﾀｲﾙ
 73
     1
 44
1.0
  0
POINT
  5
B3B3
330
AF66
100
AcDbEntity
  8
DEFPOINTS
 62
     0
440
 16777216
 48
0.5
100
AcDbPoint
 10
-1012.881490481036
 20
4317.753046383291
 30
0.0
  0
POINT
  5
B3B4
330
AF66
100
AcDbEntity
  8
DEFPOINTS
 62
     0
440
 16777216
 48
0.5
100
AcDbPoint
 10
-1017.881490481035
 20
4317.75304638329
 30
0.0
  0
POINT
  5
B3B5
330
AF66
100
AcDbEntity
  8
DEFPOINTS
 62
     0
440
 16777216
 48
0.5
100
AcDbPoint
 10
-1017.881490481035
 20
4517.753046383291
 30
0.0
  0
ENDBLK
  5
AF73
330
AF66
100
AcDbEntity
  8
0
 48
0.5
100
AcDbBlockEnd
  0
BLOCK
  5
B1CE
330
B1C2
100
AcDbEntity
  8
0
 48
0.5
100
AcDbBlockBegin
  2
*D23
 70
     1
 10
0.0
 20
0.0
 30
0.0
  3
*D23
  1

  0
LINE
  5
B21A
330
B1C2
100
AcDbEntity
  8
01-寸法線
 62
     4
440
 16777216
 48
0.5
370
     9
100
AcDbLine
 10
-6545.381490481036
 20
4412.753046383292
 30
0.0
 11
-6545.381490481036
 21
4612.753046383292
 31
0.0
  0
LINE
  5
B21B
330
B1C2
100
AcDbEntity
  8
01-寸法線
 62
     4
440
 16777216
 48
0.5
370
     9
100
AcDbLine
 10
-6570.381490481036
 20
4162.753046383292
 30
0.0
 11
-6570.381490481036
 21
4612.753046383292
 31
0.0
  0
LINE
  5
B21C
330
B1C2
100
AcDbEntity
  8
01-寸法線
 62
     4
440
 16777216
 48
0.5
370
     9
100
AcDbLine
 10
-6515.381490481036
 20
4597.753046383291
 30
0.0
 11
-6485.381490481036
 21
4597.753046383291
 31
0.0
  0
LINE
  5
B21D
330
B1C2
100
AcDbEntity
  8
01-寸法線
 62
     4
440
 16777216
 48
0.5
370
     9
100
AcDbLine
 10
-6600.381490481035
 20
4597.753046383291
 30
0.0
 11
-6699.861490481035
 21
4597.753046383291
 31
0.0
  0
LINE
  5
B21E
330
B1C2
100
AcDbEntity
  8
01-寸法線
 62
     4
440
 16777216
 48
0.5
370
     9
100
AcDbLine
 10
-6545.381490481036
 20
4597.753046383291
 30
0.0
 11
-6570.381490481036
 21
4597.753046383291
 31
0.0
  0
INSERT
  5
B21F
330
B1C2
100
AcDbEntity
  8
01-寸法線
 62
     4
440
 16777216
 48
0.5
370
     9
100
AcDbBlockReference
  2
_OPEN
 10
-6545.381490481036
 20
4597.753046383291
 30
0.0
 41
30.0
 42
30.0
 43
30.0
 50
180.0
  0
INSERT
  5
B220
330
B1C2
100
AcDbEntity
  8
01-寸法線
 62
     4
440
 16777216
 48
0.5
370
     9
100
AcDbBlockReference
  2
_OPEN
 10
-6570.381490481036
 20
4597.753046383291
 30
0.0
 41
30.0
 42
30.0
 43
30.0
  0
MTEXT
  5
B221
330
B1C2
100
AcDbEntity
  8
01-寸法線
 62
     4
440
 16777216
 48
0.5
100
AcDbMText
 10
-6665.121490481036
 20
4631.503046383292
 30
0.0
 40
52.5
 41
0.0
 71
     5
 72
     1
  1
\A1;25
  7
ｵﾘｼﾞﾅﾙｽﾀｲﾙ
 73
     1
 44
1.0
  0
POINT
  5
B222
330
B1C2
100
AcDbEntity
  8
DEFPOINTS
 62
     0
440
 16777216
 48
0.5
100
AcDbPoint
 10
-6545.381490481036
 20
4397.753046383292
 30
0.0
  0
POINT
  5
B223
330
B1C2
100
AcDbEntity
  8
DEFPOINTS
 62
     0
440
 16777216
 48
0.5
100
AcDbPoint
 10
-6570.381490481036
 20
4147.753046383292
 30
0.0
  0
POINT
  5
B224
330
B1C2
100
AcDbEntity
  8
DEFPOINTS
 62
     0
440
 16777216
 48
0.5
100
AcDbPoint
 10
-6570.381490481036
 20
4597.753046383291
 30
0.0
  0
ENDBLK
  5
B1CF
330
B1C2
100
AcDbEntity
  8
0
 48
0.5
100
AcDbBlockEnd
  0
BLOCK
  5
B1DB
330
B1D1
100
AcDbEntity
  8
0
 48
0.5
100
AcDbBlockBegin
  2
*D24
 70
     1
 10
0.0
 20
0.0
 30
0.0
  3
*D24
  1

  0
LINE
  5
B211
330
B1D1
100
AcDbEntity
  8
01-寸法線
 62
     4
440
 16777216
 48
0.5
370
     9
100
AcDbLine
 10
-6545.381490481036
 20
4412.753046383292
 30
0.0
 11
-6545.381490481036
 21
4612.753046383292
 31
0.0
  0
LINE
  5
B212
330
B1D1
100
AcDbEntity
  8
01-寸法線
 62
     4
440
 16777216
 48
0.5
370
     9
100
AcDbLine
 10
-6365.381490481036
 20
4412.753046383292
 30
0.0
 11
-6365.381490481036
 21
4612.753046383292
 31
0.0
  0
LINE
  5
B213
330
B1D1
100
AcDbEntity
  8
01-寸法線
 62
     4
440
 16777216
 48
0.5
370
     9
100
AcDbLine
 10
-6515.381490481036
 20
4597.753046383291
 30
0.0
 11
-6395.381490481036
 21
4597.753046383291
 31
0.0
  0
INSERT
  5
B214
330
B1D1
100
AcDbEntity
  8
01-寸法線
 62
     4
440
 16777216
 48
0.5
370
     9
100
AcDbBlockReference
  2
_OPEN
 10
-6545.381490481036
 20
4597.753046383291
 30
0.0
 41
30.0
 42
30.0
 43
30.0
 50
180.0
  0
INSERT
  5
B215
330
B1D1
100
AcDbEntity
  8
01-寸法線
 62
     4
440
 16777216
 48
0.5
370
     9
100
AcDbBlockReference
  2
_OPEN
 10
-6365.381490481036
 20
4597.753046383291
 30
0.0
 41
30.0
 42
30.0
 43
30.0
  0
MTEXT
  5
B216
330
B1D1
100
AcDbEntity
  8
01-寸法線
 62
     4
440
 16777216
 48
0.5
100
AcDbMText
 10
-6455.381490481037
 20
4631.503046383292
 30
0.0
 40
52.5
 41
0.0
 71
     5
 72
     1
  1
\A1;180
  7
ｵﾘｼﾞﾅﾙｽﾀｲﾙ
 73
     1
 44
1.0
  0
POINT
  5
B217
330
B1D1
100
AcDbEntity
  8
DEFPOINTS
 62
     0
440
 16777216
 48
0.5
100
AcDbPoint
 10
-6545.381490481036
 20
4397.753046383292
 30
0.0
  0
POINT
  5
B218
330
B1D1
100
AcDbEntity
  8
DEFPOINTS
 62
     0
440
 16777216
 48
0.5
100
AcDbPoint
 10
-6365.381490481036
 20
4397.753046383292
 30
0.0
  0
POINT
  5
B219
330
B1D1
100
AcDbEntity
  8
DEFPOINTS
 62
     0
440
 16777216
 48
0.5
100
AcDbPoint
 10
-6365.381490481036
 20
4597.753046383291
 30
0.0
  0
ENDBLK
  5
B1DC
330
B1D1
100
AcDbEntity
  8
0
 48
0.5
100
AcDbBlockEnd
  0
BLOCK
  5
B1F3
330
B1E9
100
AcDbEntity
  8
0
 48
0.5
100
AcDbBlockBegin
  2
*D25
 70
     1
 10
0.0
 20
0.0
 30
0.0
  3
*D25
  1

  0
LINE
  5
B22E
330
B1E9
100
AcDbEntity
  8
01-寸法線
 62
     4
440
 16777216
 48
0.5
370
     9
100
AcDbLine
 10
-6585.381490481037
 20
4147.753046383292
 30
0.0
 11
-6885.381490481036
 21
4147.753046383292
 31
0.0
  0
LINE
  5
B22F
330
B1E9
100
AcDbEntity
  8
01-寸法線
 62
     4
440
 16777216
 48
0.5
370
     9
100
AcDbLine
 10
-6561.118447233946
 20
4397.753046383292
 30
0.0
 11
-6885.381490481036
 21
4397.753046383292
 31
0.0
  0
LINE
  5
B230
330
B1E9
100
AcDbEntity
  8
01-寸法線
 62
     4
440
 16777216
 48
0.5
370
     9
100
AcDbLine
 10
-6870.381490481036
 20
4177.753046383291
 30
0.0
 11
-6870.381490481036
 21
4367.753046383291
 31
0.0
  0
INSERT
  5
B231
330
B1E9
100
AcDbEntity
  8
01-寸法線
 62
     4
440
 16777216
 48
0.5
370
     9
100
AcDbBlockReference
  2
_OPEN
 10
-6870.381490481036
 20
4147.753046383292
 30
0.0
 41
30.0
 42
30.0
 43
30.0
 50
270.0
  0
INSERT
  5
B232
330
B1E9
100
AcDbEntity
  8
01-寸法線
 62
     4
440
 16777216
 48
0.5
370
     9
100
AcDbBlockReference
  2
_OPEN
 10
-6870.381490481036
 20
4397.753046383292
 30
0.0
 41
30.0
 42
30.0
 43
30.0
 50
90.0
  0
MTEXT
  5
B233
330
B1E9
100
AcDbEntity
  8
01-寸法線
 62
     4
440
 16777216
 48
0.5
100
AcDbMText
 10
-6904.131490481038
 20
4272.753046383289
 30
0.0
 40
52.5
 41
0.0
 71
     5
 72
     1
  1
\A1;250
  7
ｵﾘｼﾞﾅﾙｽﾀｲﾙ
 11
0.0000000000000001
 21
1.0
 31
0.0
 73
     1
 44
1.0
  0
POINT
  5
B234
330
B1E9
100
AcDbEntity
  8
DEFPOINTS
 62
     0
440
 16777216
 48
0.5
100
AcDbPoint
 10
-6570.381490481036
 20
4147.753046383292
 30
0.0
  0
POINT
  5
B235
330
B1E9
100
AcDbEntity
  8
DEFPOINTS
 62
     0
440
 16777216
 48
0.5
100
AcDbPoint
 10
-6546.118447233945
 20
4397.753046383292
 30
0.0
  0
POINT
  5
B236
330
B1E9
100
AcDbEntity
  8
DEFPOINTS
 62
     0
440
 16777216
 48
0.5
100
AcDbPoint
 10
-6870.381490481036
 20
4397.753046383292
 30
0.0
  0
ENDBLK
  5
B1F4
330
B1E9
100
AcDbEntity
  8
0
 48
0.5
100
AcDbBlockEnd
  0
BLOCK
  5
B205
330
B1FB
100
AcDbEntity
  8
0
 48
0.5
100
AcDbBlockBegin
  2
*D26
 70
     1
 10
0.0
 20
0.0
 30
0.0
  3
*D26
  1

  0
LINE
  5
B225
330
B1FB
100
AcDbEntity
  8
01-寸法線
 62
     4
440
 16777216
 48
0.5
370
     9
100
AcDbLine
 10
-6770.381490481035
 20
4212.753046383291
 30
0.0
 11
-6770.381490481035
 21
4242.753046383291
 31
0.0
  0
LINE
  5
B226
330
B1FB
100
AcDbEntity
  8
01-寸法線
 62
     4
440
 16777216
 48
0.5
370
     9
100
AcDbLine
 10
-6770.381490481035
 20
4117.753046383291
 30
0.0
 11
-6770.381490481035
 21
4018.753046383291
 31
0.0
  0
LINE
  5
B227
330
B1FB
100
AcDbEntity
  8
01-寸法線
 62
     4
440
 16777216
 48
0.5
370
     9
100
AcDbLine
 10
-6770.381490481035
 20
4182.75304638329
 30
0.0
 11
-6770.381490481035
 21
4147.753046383291
 31
0.0
  0
INSERT
  5
B228
330
B1FB
100
AcDbEntity
  8
01-寸法線
 62
     4
440
 16777216
 48
0.5
370
     9
100
AcDbBlockReference
  2
_OPEN
 10
-6770.381490481035
 20
4182.75304638329
 30
0.0
 41
30.0
 42
30.0
 43
30.0
 50
270.0
  0
INSERT
  5
B229
330
B1FB
100
AcDbEntity
  8
01-寸法線
 62
     4
440
 16777216
 48
0.5
370
     9
100
AcDbBlockReference
  2
_OPEN
 10
-6770.381490481035
 20
4147.753046383291
 30
0.0
 41
30.0
 42
30.0
 43
30.0
 50
90.0
  0
MTEXT
  5
B22A
330
B1FB
100
AcDbEntity
  8
01-寸法線
 62
     4
440
 16777216
 48
0.5
100
AcDbMText
 10
-6804.131490481037
 20
4053.253046383289
 30
0.0
 40
52.5
 41
0.0
 71
     5
 72
     1
  1
\A1;35
  7
ｵﾘｼﾞﾅﾙｽﾀｲﾙ
 11
0.0000000000000001
 21
1.0
 31
0.0
 73
     1
 44
1.0
  0
POINT
  5
B22B
330
B1FB
100
AcDbEntity
  8
DEFPOINTS
 62
     0
440
 16777216
 48
0.5
100
AcDbPoint
 10
-6770.381490481035
 20
4182.75304638329
 30
0.0
  0
POINT
  5
B22C
330
B1FB
100
AcDbEntity
  8
DEFPOINTS
 62
     0
440
 16777216
 48
0.5
100
AcDbPoint
 10
-6770.381490481035
 20
4147.753046383291
 30
0.0
  0
POINT
  5
B22D
330
B1FB
100
AcDbEntity
  8
DEFPOINTS
 62
     0
440
 16777216
 48
0.5
100
AcDbPoint
 10
-6770.381490481035
 20
4147.753046383291
 30
0.0
  0
ENDBLK
  5
B206
330
B1FB
100
AcDbEntity
  8
0
 48
0.5
100
AcDbBlockEnd
  0
BLOCK
  5
B260
330
B256
100
AcDbEntity
  8
0
 48
0.5
100
AcDbBlockBegin
  2
*D27
 70
     1
 10
0.0
 20
0.0
 30
0.0
  3
*D27
  1

  0
LINE
  5
B257
330
B256
100
AcDbEntity
  8
01-寸法線
 62
     4
440
 16777216
 48
0.5
370
     9
100
AcDbLine
 10
-6570.381490481036
 20
4132.753046383291
 30
0.0
 11
-6570.381490481036
 21
3932.753046383292
 31
0.0
  0
LINE
  5
B258
330
B256
100
AcDbEntity
  8
01-寸法線
 62
     4
440
 16777216
 48
0.5
370
     9
100
AcDbLine
 10
-6365.381490481036
 20
4132.753046383291
 30
0.0
 11
-6365.381490481036
 21
3932.753046383292
 31
0.0
  0
LINE
  5
B259
330
B256
100
AcDbEntity
  8
01-寸法線
 62
     4
440
 16777216
 48
0.5
370
     9
100
AcDbLine
 10
-6540.381490481036
 20
3947.753046383292
 30
0.0
 11
-6395.381490481036
 21
3947.753046383292
 31
0.0
  0
INSERT
  5
B25A
330
B256
100
AcDbEntity
  8
01-寸法線
 62
     4
440
 16777216
 48
0.5
370
     9
100
AcDbBlockReference
  2
_OPEN
 10
-6570.381490481036
 20
3947.753046383292
 30
0.0
 41
30.0
 42
30.0
 43
30.0
 50
180.0
  0
INSERT
  5
B25B
330
B256
100
AcDbEntity
  8
01-寸法線
 62
     4
440
 16777216
 48
0.5
370
     9
100
AcDbBlockReference
  2
_OPEN
 10
-6365.381490481036
 20
3947.753046383292
 30
0.0
 41
30.0
 42
30.0
 43
30.0
  0
MTEXT
  5
B25C
330
B256
100
AcDbEntity
  8
01-寸法線
 62
     4
440
 16777216
 48
0.5
100
AcDbMText
 10
-6467.881490481037
 20
3981.503046383292
 30
0.0
 40
52.5
 41
0.0
 71
     5
 72
     1
  1
\A1;205
  7
ｵﾘｼﾞﾅﾙｽﾀｲﾙ
 73
     1
 44
1.0
  0
POINT
  5
B25D
330
B256
100
AcDbEntity
  8
DEFPOINTS
 62
     0
440
 16777216
 48
0.5
100
AcDbPoint
 10
-6570.381490481036
 20
4147.753046383292
 30
0.0
  0
POINT
  5
B25E
330
B256
100
AcDbEntity
  8
DEFPOINTS
 62
     0
440
 16777216
 48
0.5
100
AcDbPoint
 10
-6365.381490481036
 20
4147.753046383292
 30
0.0
  0
POINT
  5
B25F
330
B256
100
AcDbEntity
  8
DEFPOINTS
 62
     0
440
 16777216
 48
0.5
100
AcDbPoint
 10
-6365.381490481036
 20
3947.753046383292
 30
0.0
  0
ENDBLK
  5
B261
330
B256
100
AcDbEntity
  8
0
 48
0.5
100
AcDbBlockEnd
  0
BLOCK
  5
B29E
330
B292
100
AcDbEntity
  8
0
 48
0.5
100
AcDbBlockBegin
  2
*D28
 70
     1
 10
0.0
 20
0.0
 30
0.0
  3
*D28
  1

  0
LINE
  5
B2CC
330
B292
100
AcDbEntity
  8
01-寸法線
 62
     4
440
 16777216
 48
0.5
370
     9
100
AcDbLine
 10
-3240.381490481036
 20
4412.753046383292
 30
0.0
 11
-3240.381490481036
 21
4612.753046383292
 31
0.0
  0
LINE
  5
B2CD
330
B292
100
AcDbEntity
  8
01-寸法線
 62
     4
440
 16777216
 48
0.5
370
     9
100
AcDbLine
 10
-3165.381490481036
 20
4412.753046383292
 30
0.0
 11
-3165.381490481036
 21
4612.753046383292
 31
0.0
  0
LINE
  5
B2CE
330
B292
100
AcDbEntity
  8
01-寸法線
 62
     4
440
 16777216
 48
0.5
370
     9
100
AcDbLine
 10
-3210.381490481037
 20
4597.753046383291
 30
0.0
 11
-3195.381490481036
 21
4597.753046383291
 31
0.0
  0
INSERT
  5
B2CF
330
B292
100
AcDbEntity
  8
01-寸法線
 62
     4
440
 16777216
 48
0.5
370
     9
100
AcDbBlockReference
  2
_OPEN
 10
-3240.381490481036
 20
4597.753046383291
 30
0.0
 41
30.0
 42
30.0
 43
30.0
 50
180.0
  0
INSERT
  5
B2D0
330
B292
100
AcDbEntity
  8
01-寸法線
 62
     4
440
 16777216
 48
0.5
370
     9
100
AcDbBlockReference
  2
_OPEN
 10
-3165.381490481036
 20
4597.753046383291
 30
0.0
 41
30.0
 42
30.0
 43
30.0
  0
MTEXT
  5
B2D1
330
B292
100
AcDbEntity
  8
01-寸法線
 62
     4
440
 16777216
 48
0.5
100
AcDbMText
 10
-3202.881490481036
 20
4631.503046383292
 30
0.0
 40
52.5
 41
0.0
 71
     5
 72
     1
  1
\A1;75
  7
ｵﾘｼﾞﾅﾙｽﾀｲﾙ
 73
     1
 44
1.0
  0
POINT
  5
B2D2
330
B292
100
AcDbEntity
  8
DEFPOINTS
 62
     0
440
 16777216
 48
0.5
100
AcDbPoint
 10
-3240.381490481036
 20
4397.753046383292
 30
0.0
  0
POINT
  5
B2D3
330
B292
100
AcDbEntity
  8
DEFPOINTS
 62
     0
440
 16777216
 48
0.5
100
AcDbPoint
 10
-3165.381490481036
 20
4397.753046383292
 30
0.0
  0
POINT
  5
B2D4
330
B292
100
AcDbEntity
  8
DEFPOINTS
 62
     0
440
 16777216
 48
0.5
100
AcDbPoint
 10
-3165.381490481036
 20
4597.753046383291
 30
0.0
  0
ENDBLK
  5
B29F
330
B292
100
AcDbEntity
  8
0
 48
0.5
100
AcDbBlockEnd
  0
BLOCK
  5
B2E2
330
B2D6
100
AcDbEntity
  8
0
 48
0.5
100
AcDbBlockBegin
  2
*D29
 70
     1
 10
0.0
 20
0.0
 30
0.0
  3
*D29
  1

  0
LINE
  5
B310
330
B2D6
100
AcDbEntity
  8
01-寸法線
 62
     4
440
 16777216
 48
0.5
370
     9
100
AcDbLine
 10
-5165.381490481036
 20
4412.753046383292
 30
0.0
 11
-5165.381490481036
 21
4612.753046383292
 31
0.0
  0
LINE
  5
B311
330
B2D6
100
AcDbEntity
  8
01-寸法線
 62
     4
440
 16777216
 48
0.5
370
     9
100
AcDbLine
 10
-5090.381490481036
 20
4412.753046383292
 30
0.0
 11
-5090.381490481036
 21
4612.753046383292
 31
0.0
  0
LINE
  5
B312
330
B2D6
100
AcDbEntity
  8
01-寸法線
 62
     4
440
 16777216
 48
0.5
370
     9
100
AcDbLine
 10
-5135.381490481036
 20
4597.753046383291
 30
0.0
 11
-5120.381490481037
 21
4597.753046383291
 31
0.0
  0
INSERT
  5
B313
330
B2D6
100
AcDbEntity
  8
01-寸法線
 62
     4
440
 16777216
 48
0.5
370
     9
100
AcDbBlockReference
  2
_OPEN
 10
-5165.381490481036
 20
4597.753046383291
 30
0.0
 41
30.0
 42
30.0
 43
30.0
 50
180.0
  0
INSERT
  5
B314
330
B2D6
100
AcDbEntity
  8
01-寸法線
 62
     4
440
 16777216
 48
0.5
370
     9
100
AcDbBlockReference
  2
_OPEN
 10
-5090.381490481036
 20
4597.753046383291
 30
0.0
 41
30.0
 42
30.0
 43
30.0
  0
MTEXT
  5
B315
330
B2D6
100
AcDbEntity
  8
01-寸法線
 62
     4
440
 16777216
 48
0.5
100
AcDbMText
 10
-5127.881490481036
 20
4631.503046383292
 30
0.0
 40
52.5
 41
0.0
 71
     5
 72
     1
  1
\A1;75
  7
ｵﾘｼﾞﾅﾙｽﾀｲﾙ
 73
     1
 44
1.0
  0
POINT
  5
B316
330
B2D6
100
AcDbEntity
  8
DEFPOINTS
 62
     0
440
 16777216
 48
0.5
100
AcDbPoint
 10
-5165.381490481036
 20
4397.753046383292
 30
0.0
  0
POINT
  5
B317
330
B2D6
100
AcDbEntity
  8
DEFPOINTS
 62
     0
440
 16777216
 48
0.5
100
AcDbPoint
 10
-5090.381490481036
 20
4397.753046383292
 30
0.0
  0
POINT
  5
B318
330
B2D6
100
AcDbEntity
  8
DEFPOINTS
 62
     0
440
 16777216
 48
0.5
100
AcDbPoint
 10
-5090.381490481036
 20
4597.753046383291
 30
0.0
  0
ENDBLK
  5
B2E3
330
B2D6
100
AcDbEntity
  8
0
 48
0.5
100
AcDbBlockEnd
  0
BLOCK
  5
B343
330
B337
100
AcDbEntity
  8
0
 48
0.5
100
AcDbBlockBegin
  2
*D30
 70
     1
 10
0.0
 20
0.0
 30
0.0
  3
*D30
  1

  0
LINE
  5
B338
330
B337
100
AcDbEntity
  8
01-寸法線
 62
     4
440
 16777216
 48
0.5
370
     9
100
AcDbLine
 10
-4635.381490481036
 20
4182.753046383292
 30
0.0
 11
-4450.381490481036
 21
4182.753046383292
 31
0.0
  0
LINE
  5
B339
330
B337
100
AcDbEntity
  8
01-寸法線
 62
     4
440
 16777216
 48
0.5
370
     9
100
AcDbLine
 10
-4650.381490481036
 20
4147.753046383292
 30
0.0
 11
-4450.381490481036
 21
4147.753046383292
 31
0.0
  0
LINE
  5
B33A
330
B337
100
AcDbEntity
  8
01-寸法線
 62
     4
440
 16777216
 48
0.5
370
     9
100
AcDbLine
 10
-4465.381490481036
 20
4212.753046383292
 30
0.0
 11
-4465.381490481036
 21
4242.753046383291
 31
0.0
  0
LINE
  5
B33B
330
B337
100
AcDbEntity
  8
01-寸法線
 62
     4
440
 16777216
 48
0.5
370
     9
100
AcDbLine
 10
-4465.381490481036
 20
4117.753046383291
 30
0.0
 11
-4465.381490481036
 21
4018.753046383292
 31
0.0
  0
LINE
  5
B33C
330
B337
100
AcDbEntity
  8
01-寸法線
 62
     4
440
 16777216
 48
0.5
370
     9
100
AcDbLine
 10
-4465.381490481036
 20
4182.753046383292
 30
0.0
 11
-4465.381490481036
 21
4147.753046383292
 31
0.0
  0
INSERT
  5
B33D
330
B337
100
AcDbEntity
  8
01-寸法線
 62
     4
440
 16777216
 48
0.5
370
     9
100
AcDbBlockReference
  2
_OPEN
 10
-4465.381490481036
 20
4182.753046383292
 30
0.0
 41
30.0
 42
30.0
 43
30.0
 50
270.0
  0
INSERT
  5
B33E
330
B337
100
AcDbEntity
  8
01-寸法線
 62
     4
440
 16777216
 48
0.5
370
     9
100
AcDbBlockReference
  2
_OPEN
 10
-4465.381490481036
 20
4147.753046383292
 30
0.0
 41
30.0
 42
30.0
 43
30.0
 50
90.0
  0
MTEXT
  5
B33F
330
B337
100
AcDbEntity
  8
01-寸法線
 62
     4
440
 16777216
 48
0.5
100
AcDbMText
 10
-4499.131490481037
 20
4053.253046383291
 30
0.0
 40
52.5
 41
0.0
 71
     5
 72
     1
  1
\A1;35
  7
ｵﾘｼﾞﾅﾙｽﾀｲﾙ
 11
0.0000000000000001
 21
1.0
 31
0.0
 73
     1
 44
1.0
  0
POINT
  5
B340
330
B337
100
AcDbEntity
  8
DEFPOINTS
 62
     0
440
 16777216
 48
0.5
100
AcDbPoint
 10
-4650.381490481036
 20
4182.753046383292
 30
0.0
  0
POINT
  5
B341
330
B337
100
AcDbEntity
  8
DEFPOINTS
 62
     0
440
 16777216
 48
0.5
100
AcDbPoint
 10
-4665.381490481036
 20
4147.753046383292
 30
0.0
  0
POINT
  5
B342
330
B337
100
AcDbEntity
  8
DEFPOINTS
 62
     0
440
 16777216
 48
0.5
100
AcDbPoint
 10
-4465.381490481036
 20
4147.753046383292
 30
0.0
  0
ENDBLK
  5
B344
330
B337
100
AcDbEntity
  8
0
 48
0.5
100
AcDbBlockEnd
  0
BLOCK
  5
C7D8
330
C7CC
100
AcDbEntity
  8
0
 48
0.5
100
AcDbBlockBegin
  2
*D32
 70
     1
 10
0.0
 20
0.0
 30
0.0
  3
*D32
  1

  0
LINE
  5
C7CD
330
C7CC
100
AcDbEntity
  8
01-寸法線
 62
     4
440
 16777216
 48
0.5
370
     9
100
AcDbLine
 10
-3150.381490481036
 20
4367.753046383291
 30
0.0
 11
-2950.381490481036
 21
4367.753046383291
 31
0.0
  0
LINE
  5
C7CE
330
C7CC
100
AcDbEntity
  8
01-寸法線
 62
     4
440
 16777216
 48
0.5
370
     9
100
AcDbLine
 10
-3150.381490481036
 20
4397.753046383292
 30
0.0
 11
-2950.381490481036
 21
4397.753046383292
 31
0.0
  0
LINE
  5
C7CF
330
C7CC
100
AcDbEntity
  8
01-寸法線
 62
     4
440
 16777216
 48
0.5
370
     9
100
AcDbLine
 10
-2965.381490481036
 20
4337.753046383292
 30
0.0
 11
-2965.381490481036
 21
4307.753046383292
 31
0.0
  0
LINE
  5
C7D0
330
C7CC
100
AcDbEntity
  8
01-寸法線
 62
     4
440
 16777216
 48
0.5
370
     9
100
AcDbLine
 10
-2965.381490481036
 20
4427.753046383291
 30
0.0
 11
-2965.381490481036
 21
4527.473046383292
 31
0.0
  0
LINE
  5
C7D1
330
C7CC
100
AcDbEntity
  8
01-寸法線
 62
     4
440
 16777216
 48
0.5
370
     9
100
AcDbLine
 10
-2965.381490481036
 20
4367.753046383291
 30
0.0
 11
-2965.381490481036
 21
4397.753046383292
 31
0.0
  0
INSERT
  5
C7D2
330
C7CC
100
AcDbEntity
  8
01-寸法線
 62
     4
440
 16777216
 48
0.5
370
     9
100
AcDbBlockReference
  2
_OPEN
 10
-2965.381490481036
 20
4367.753046383291
 30
0.0
 41
30.0
 42
30.0
 43
30.0
 50
90.0
  0
INSERT
  5
C7D3
330
C7CC
100
AcDbEntity
  8
01-寸法線
 62
     4
440
 16777216
 48
0.5
370
     9
100
AcDbBlockReference
  2
_OPEN
 10
-2965.381490481036
 20
4397.753046383292
 30
0.0
 41
30.0
 42
30.0
 43
30.0
 50
270.0
  0
MTEXT
  5
C7D4
330
C7CC
100
AcDbEntity
  8
01-寸法線
 62
     4
440
 16777216
 48
0.5
100
AcDbMText
 10
-2999.131490481037
 20
4492.61304638329
 30
0.0
 40
52.5
 41
0.0
 71
     5
 72
     1
  1
\A1;30
  7
ｵﾘｼﾞﾅﾙｽﾀｲﾙ
 11
0.0000000000000001
 21
1.0
 31
0.0
 73
     1
 44
1.0
  0
POINT
  5
C7D5
330
C7CC
100
AcDbEntity
  8
DEFPOINTS
 62
     0
440
 16777216
 48
0.5
100
AcDbPoint
 10
-3165.381490481036
 20
4367.753046383291
 30
0.0
  0
POINT
  5
C7D6
330
C7CC
100
AcDbEntity
  8
DEFPOINTS
 62
     0
440
 16777216
 48
0.5
100
AcDbPoint
 10
-3165.381490481036
 20
4397.753046383292
 30
0.0
  0
POINT
  5
C7D7
330
C7CC
100
AcDbEntity
  8
DEFPOINTS
 62
     0
440
 16777216
 48
0.5
100
AcDbPoint
 10
-2965.381490481036
 20
4397.753046383292
 30
0.0
  0
ENDBLK
  5
C7D9
330
C7CC
100
AcDbEntity
  8
0
 48
0.5
100
AcDbBlockEnd
  0
ENDSEC
  0
SECTION
  2
ENTITIES
  0
LINE
  5
8635
330
2
100
AcDbEntity
  8
DEFPOINTS
 48
0.5
100
AcDbLine
 10
-7865.381490481038
 20
189.7530463832918
 30
0.0
 11
114.618509518963
 21
189.7530463832918
 31
0.0
  0
LINE
  5
8636
330
2
100
AcDbEntity
  8
DEFPOINTS
 48
0.5
100
AcDbLine
 10
-7865.381490481038
 20
189.7530463832918
 30
0.0
 11
-7865.381490481038
 21
5832.753046383293
 31
0.0
  0
LINE
  5
8637
330
2
100
AcDbEntity
  8
DEFPOINTS
 48
0.5
100
AcDbLine
 10
-7865.381490481038
 20
5832.753046383292
 30
0.0
 11
114.6185095189636
 21
5832.753046383292
 31
0.0
  0
LINE
  5
863D
330
2
100
AcDbEntity
  8
11-外枠線
 48
0.5
100
AcDbLine
 10
-7580.381490481037
 20
5547.753046383292
 30
0.0
 11
-170.3814904810364
 21
5547.753046383292
 31
0.0
  0
LINE
  5
863E
330
2
100
AcDbEntity
  8
11-外枠線
 48
0.5
100
AcDbLine
 10
-170.3814904810364
 20
5547.753046383292
 30
0.0
 11
-170.3814904810369
 21
379.7530463832918
 31
0.0
  0
LINE
  5
863F
330
2
100
AcDbEntity
  8
11-外枠線
 48
0.5
100
AcDbLine
 10
-170.3814904810369
 20
379.7530463832918
 30
0.0
 11
-7580.381490481037
 21
379.7530463832918
 31
0.0
  0
LINE
  5
8640
330
2
100
AcDbEntity
  8
11-外枠線
 48
0.5
100
AcDbLine
 10
-7580.381490481037
 20
379.7530463832918
 30
0.0
 11
-7580.381490481037
 21
5547.753046383292
 31
0.0
  0
TEXT
  5
8713
330
2
100
AcDbEntity
  8
09-下線
100
AcDbText
 10
-7280.381490481037
 20
5264.210189240435
 30
0.0
 40
80.0
  1
%%Uベース無中央分離帯ブロック－Ｂ(防草タイプ)
  7
ｵﾘｼﾞﾅﾙｽﾀｲﾙ
 11
-7280.381490481037
 21
5247.753046383292
 31
0.0
100
AcDbText
 73
     1
  0
LINE
  5
8C1E
330
2
100
AcDbEntity
  8
02-外形線
 48
0.5
100
AcDbLine
 10
-3165.381490481036
 20
4372.753046383293
 30
0.0
 11
-3165.381490481036
 21
4147.753046383292
 31
0.0
  0
LINE
  5
8C20
330
2
100
AcDbEntity
  8
02-外形線
 48
0.5
100
AcDbLine
 10
-5165.381490481035
 20
4397.753046383291
 30
0.0
 11
-5165.381490481036
 21
4147.753046383292
 31
0.0
  0
LINE
  5
8C21
330
2
100
AcDbEntity
  8
02-外形線
 48
0.5
100
AcDbLine
 10
-5165.381490481036
 20
4147.753046383292
 30
0.0
 11
-3165.381490481036
 21
4147.753046383292
 31
0.0
  0
CIRCLE
  5
8C2C
330
2
100
AcDbEntity
  8
02-外形線
 48
0.5
100
AcDbCircle
 10
-5090.381490481036
 20
4207.753046383292
 30
0.0
 40
8.5
  0
CIRCLE
  5
8C2D
330
2
100
AcDbEntity
  8
03-隠れ線
 48
0.5
100
AcDbCircle
 10
-5090.381490481036
 20
4207.753046383292
 30
0.0
 40
14.0
  0
CIRCLE
  5
8C2E
330
2
100
AcDbEntity
  8
03-隠れ線
 48
0.5
100
AcDbCircle
 10
-3240.381490481036
 20
4207.753046383292
 30
0.0
 40
14.0
  0
CIRCLE
  5
8C2F
330
2
100
AcDbEntity
  8
02-外形線
 48
0.5
100
AcDbCircle
 10
-3240.381490481036
 20
4207.753046383292
 30
0.0
 40
8.5
  0
DIMENSION
  5
8C7E
330
2
100
AcDbEntity
  8
01-寸法線
 48
0.5
100
AcDbDimension
  2
*D3
 10
-4665.381490481036
 20
3947.753046383292
 30
0.0
 11
-4915.381490481036
 21
3981.503046383292
 31
0.0
 70
    32
 71
     5
 42
500.0
  3
スタイル15
100
AcDbAlignedDimension
 13
-5165.381490481036
 23
4147.753046383292
 33
0.0
 14
-4665.381490481036
 24
4147.753046383292
 34
0.0
100
AcDbRotatedDimension
  0
DIMENSION
  5
8C8B
330
2
100
AcDbEntity
  8
01-寸法線
 48
0.5
100
AcDbDimension
  2
*D4
 10
-3665.381490481036
 20
3947.753046383292
 30
0.0
 11
-4165.381490481036
 21
3981.503046383292
 31
0.0
 70
    32
 71
     5
 42
1000.0
  3
スタイル15
100
AcDbAlignedDimension
 13
-4665.381490481036
 23
4147.753046383292
 33
0.0
 14
-3665.381490481036
 24
4147.753046383292
 34
0.0
100
AcDbRotatedDimension
1001
ACAD
1000
DSTYLE
1002
{
1070
   279
1070
     1
1002
}
  0
DIMENSION
  5
8C98
330
2
100
AcDbEntity
  8
01-寸法線
 48
0.5
100
AcDbDimension
  2
*D5
 10
-3165.381490481036
 20
3947.753046383292
 30
0.0
 11
-3415.381490481036
 21
3981.503046383292
 31
0.0
 70
    32
 71
     5
 42
500.0
  3
スタイル15
100
AcDbAlignedDimension
 13
-3665.381490481036
 23
4147.753046383292
 33
0.0
 14
-3165.381490481036
 24
4147.753046383292
 34
0.0
100
AcDbRotatedDimension
1001
ACAD
1000
DSTYLE
1002
{
1070
   279
1070
     1
1002
}
  0
DIMENSION
  5
8CA5
330
2
100
AcDbEntity
  8
01-寸法線
 48
0.5
100
AcDbDimension
  2
*D6
 10
-3165.381490481036
 20
3847.753046383292
 30
0.0
 11
-4165.381490481036
 21
3881.503046383292
 31
0.0
 70
    32
 71
     5
 42
2000.0
  3
スタイル15
100
AcDbAlignedDimension
 13
-5165.381490481036
 23
3947.753046383292
 33
0.0
 14
-3165.381490481036
 24
3947.753046383292
 34
0.0
100
AcDbRotatedDimension
  0
LINE
  5
8CCB
330
2
100
AcDbEntity
  8
01-寸法線
 48
0.5
100
AcDbLine
 10
-5086.131490481037
 20
4215.114262315458
 30
0.0
 11
-4749.744831659155
 21
4797.753046383292
 31
0.0
  0
LINE
  5
8CCD
330
2
100
AcDbEntity
  8
01-寸法線
 48
0.5
100
AcDbLine
 10
-4749.744831659155
 20
4797.753046383292
 30
0.0
 11
-4119.744831659155
 21
4797.753046383292
 31
0.0
  0
TEXT
  5
8CCE
330
2
100
AcDbEntity
  8
08-下線
100
AcDbText
 10
-4722.744831659155
 20
4808.553046383293
 30
0.0
 40
52.5
  1
連結用ｲﾝｻｰﾄ M12
  7
ｵﾘｼﾞﾅﾙｽﾀｲﾙ
 72
     4
 11
-4434.744831659155
 21
4835.703046383293
 31
0.0
100
AcDbText
  0
TEXT
  5
8CD5
330
2
100
AcDbEntity
  8
08-下線
100
AcDbText
 10
-4588.344831659155
 20
4733.103046383293
 30
0.0
 40
52.5
  1
(２箇所)
  7
ｵﾘｼﾞﾅﾙｽﾀｲﾙ
 72
     4
 11
-4434.744831659155
 21
4759.803046383292
 31
0.0
100
AcDbText
  0
INSERT
  5
8CF9
330
2
100
AcDbEntity
  8
01-寸法線
 62
     4
 48
0.5
370
    13
100
AcDbBlockReference
  2
_OPEN
 10
-5086.131490481037
 20
4215.114262315458
 30
0.0
 41
30.0
 42
30.0
 43
30.0
 50
239.9999999999992
  0
LINE
  5
8DEA
102
{ACAD_REACTORS
330
8F84
102
}
330
2
100
AcDbEntity
  8
02-外形線
 48
0.5
100
AcDbLine
 10
-5615.381490481037
 20
2847.753046383292
 30
0.0
 11
-5015.381490481036
 21
2847.753046383292
 31
0.0
  0
LINE
  5
8DEC
330
2
100
AcDbEntity
  8
06-中心線
 48
0.5
100
AcDbLine
 10
-5615.381490481037
 20
2897.753046383292
 30
0.0
 11
-5615.381490481037
 21
2497.753046383293
 31
0.0
  0
LINE
  5
8DED
330
2
100
AcDbEntity
  8
06-中心線
 48
0.5
100
AcDbLine
 10
-5015.381490481036
 20
2897.753046383292
 30
0.0
 11
-5015.381490481036
 21
2497.753046383292
 31
0.0
  0
LINE
  5
8DEE
330
2
100
AcDbEntity
  8
06-中心線
 48
0.5
100
AcDbLine
 10
-5665.381490481037
 20
2547.753046383292
 30
0.0
 11
-4965.381490481036
 21
2547.753046383292
 31
0.0
  0
LINE
  5
8DFD
102
{ACAD_REACTORS
330
8F84
102
}
330
2
100
AcDbEntity
  8
02-外形線
 48
0.5
100
AcDbLine
 10
-5315.381490481037
 20
2847.753046383292
 30
0.0
 11
-5315.381490481037
 21
2547.753046383292
 31
0.0
  0
LINE
  5
8DFE
102
{ACAD_REACTORS
330
8F84
102
}
330
2
100
AcDbEntity
  8
02-外形線
 48
0.5
100
AcDbLine
 10
-5277.881490481036
 20
2847.753046383292
 30
0.0
 11
-5277.881490481036
 21
2697.753046383292
 31
0.0
  0
LINE
  5
8DFF
102
{ACAD_REACTORS
330
8F84
102
}
330
2
100
AcDbEntity
  8
02-外形線
 48
0.5
100
AcDbLine
 10
-5277.881490481036
 20
2697.753046383292
 30
0.0
 11
-5315.381490481037
 21
2660.253046383292
 31
0.0
  0
LINE
  5
8F39
330
2
100
AcDbEntity
  8
01-寸法線
 48
0.5
100
AcDbLine
 10
-5296.631490481036
 20
3047.753046383292
 30
0.0
 11
-5296.631490481036
 21
2847.753046383292
 31
0.0
  0
TEXT
  5
8F3A
330
2
100
AcDbEntity
  8
08-下線
100
AcDbText
 10
-5552.631490481036
 20
3059.603046383292
 30
0.0
 40
52.5
  1
ｼｰﾙ材
  7
ｵﾘｼﾞﾅﾙｽﾀｲﾙ
 72
     4
 11
-5456.631490481036
 21
3085.703046383292
 31
0.0
100
AcDbText
  0
LINE
  5
8F3B
330
2
100
AcDbEntity
  8
01-寸法線
 48
0.5
100
AcDbLine
 10
-5616.631490481037
 20
3047.753046383292
 30
0.0
 11
-5296.631490481036
 21
3047.753046383292
 31
0.0
  0
TEXT
  5
8F3C
330
2
100
AcDbEntity
  8
08-下線
100
AcDbText
 10
-5591.031490481037
 20
2982.203046383293
 30
0.0
 40
52.5
  1
(ｔ=17)
  7
ｵﾘｼﾞﾅﾙｽﾀｲﾙ
 72
     4
 11
-5456.631490481036
 21
3009.803046383292
 31
0.0
100
AcDbText
  0
INSERT
  5
8F41
330
2
100
AcDbEntity
  8
01-寸法線
 62
     4
 48
0.5
370
    13
100
AcDbBlockReference
  2
_OPEN
 10
-5296.631490481036
 20
2847.753046383292
 30
0.0
 41
30.0
 42
30.0
 43
30.0
 50
269.9999999999993
  0
HATCH
  5
8F84
330
2
100
AcDbEntity
  8
13-ﾊｯﾁ線
 48
0.5
100
AcDbHatch
 10
0.0
 20
0.0
 30
0.0
210
0.0
220
0.0
230
1.0
  2
ANSI37
 70
     0
 71
     1
 91
        1
 92
        7
 72
     0
 73
     1
 93
        4
 10
-5315.381490481037
 20
2847.753046383292
 10
-5315.381490481037
 20
2660.253046383293
 10
-5277.881490481036
 20
2697.753046383292
 10
-5277.881490481036
 20
2847.753046383292
 97
        4
330
8DEA
330
8DFD
330
8DFF
330
8DFE
 75
     0
 76
     1
 52
0.0
 41
300.0
 77
     0
 78
     2
 53
45.0
 43
-713.3224733528277
 44
665.0184799818835
 45
-26.51650429449553
 46
26.51650429449553
 79
     0
 53
135.0
 43
-713.3224733528277
 44
665.0184799818835
 45
-26.51650429449553
 46
-26.51650429449553
 79
     0
 47
1.66931800700684
 98
        1
 10
-5290.262874234612
 20
2624.525519756726
  0
TEXT
  5
8F86
330
2
100
AcDbEntity
  8
08-下線
100
AcDbText
 10
-5600.63863333818
 20
3336.124474954721
 30
0.0
 40
65.0
  1
%%U接合部詳細図
  7
ｵﾘｼﾞﾅﾙｽﾀｲﾙ
 72
     1
 11
-5315.381490481037
 21
3322.753046383292
 31
0.0
100
AcDbText
 73
     1
  0
TEXT
  5
8F88
330
2
100
AcDbEntity
  8
08-下線
100
AcDbText
 10
-5700.381490481037
 20
1646.503046383292
 30
0.0
 40
52.5
  1
製品ﾎﾞﾘｭｰﾑ
  7
ｵﾘｼﾞﾅﾙｽﾀｲﾙ
 11
-5700.381490481037
 21
1672.753046383292
 31
0.0
100
AcDbText
 73
     2
  0
TEXT
  5
8F89
330
2
100
AcDbEntity
  8
08-下線
100
AcDbText
 10
-5700.381490481037
 20
1446.503046383291
 30
0.0
 40
52.5
  1
製品重量
  7
ｵﾘｼﾞﾅﾙｽﾀｲﾙ
 11
-5700.381490481037
 21
1472.753046383292
 31
0.0
100
AcDbText
 73
     2
  0
TEXT
  5
8F8A
330
2
100
AcDbEntity
  8
08-下線
100
AcDbText
 10
-5242.381490481037
 20
1646.503046383292
 30
0.0
 40
52.5
  1
0.094
  7
ｵﾘｼﾞﾅﾙｽﾀｲﾙ
 72
     2
 11
-5050.381490481036
 21
1672.753046383292
 31
0.0
100
AcDbText
 73
     2
  0
TEXT
  5
8F8B
330
2
100
AcDbEntity
  8
08-下線
100
AcDbText
 10
-4961.981490481037
 20
1674.003046383292
 30
0.0
 40
25.0
  1
3
  7
ｵﾘｼﾞﾅﾙｽﾀｲﾙ
 11
-4961.981490481037
 21
1699.003046383292
 31
0.0
100
AcDbText
 73
     3
  0
TEXT
  5
8F8C
330
2
100
AcDbEntity
  8
08-下線
100
AcDbText
 10
-5000.381490481037
 20
1646.503046383292
 30
0.0
 40
52.5
  1
m
  7
ｵﾘｼﾞﾅﾙｽﾀｲﾙ
 11
-5000.381490481037
 21
1672.753046383292
 31
0.0
100
AcDbText
 73
     2
  0
LINE
  5
8F8E
330
2
100
AcDbEntity
  8
10-罫線
 48
0.5
100
AcDbLine
 10
-5765.381490481036
 20
1772.753046383291
 30
0.0
 11
-4865.381490481037
 21
1772.753046383291
 31
0.0
  0
LINE
  5
8F91
330
2
100
AcDbEntity
  8
10-罫線
 48
0.5
100
AcDbLine
 10
-5765.381490481036
 20
1372.753046383292
 30
0.0
 11
-4865.381490481037
 21
1372.753046383292
 31
0.0
  0
LINE
  5
8F93
330
2
100
AcDbEntity
  8
10-罫線
 48
0.5
100
AcDbLine
 10
-5765.381490481036
 20
1772.753046383291
 30
0.0
 11
-5765.381490481036
 21
1372.753046383292
 31
0.0
  0
TEXT
  5
8F95
330
2
100
AcDbEntity
  8
08-下線
100
AcDbText
 10
-5165.581490481037
 20
1446.503046383291
 30
0.0
 40
52.5
  1
225
  7
ｵﾘｼﾞﾅﾙｽﾀｲﾙ
 72
     2
 11
-5050.381490481036
 21
1472.753046383292
 31
0.0
100
AcDbText
 73
     2
  0
TEXT
  5
8F97
330
2
100
AcDbEntity
  8
08-下線
100
AcDbText
 10
-5000.381490481037
 20
1446.503046383291
 30
0.0
 40
52.5
  1
kg
  7
ｵﾘｼﾞﾅﾙｽﾀｲﾙ
 11
-5000.381490481037
 21
1472.753046383292
 31
0.0
100
AcDbText
 73
     2
  0
LINE
  5
8F98
330
2
100
AcDbEntity
  8
10-罫線
 48
0.5
100
AcDbLine
 10
-4865.381490481037
 20
1772.753046383291
 30
0.0
 11
-4865.381490481037
 21
1372.753046383292
 31
0.0
  0
TEXT
  5
8FB3
330
2
100
AcDbEntity
  8
08-下線
100
AcDbText
 10
-4025.638633338179
 20
3336.124474954721
 30
0.0
 40
65.0
  1
%%U連結部詳細図
  7
ｵﾘｼﾞﾅﾙｽﾀｲﾙ
 72
     1
 11
-3740.381490481037
 21
3322.753046383292
 31
0.0
100
AcDbText
 73
     1
  0
CIRCLE
  5
8FC2
330
2
100
AcDbEntity
  8
02-外形線
 48
0.5
100
AcDbCircle
 10
-3965.381490481036
 20
2537.753046383292
 30
0.0
 40
18.0
  0
CIRCLE
  5
8FC3
330
2
100
AcDbEntity
  8
02-外形線
 48
0.5
100
AcDbCircle
 10
-3515.381490481036
 20
2537.753046383292
 30
0.0
 40
18.0
  0
CIRCLE
  5
8FC4
330
2
100
AcDbEntity
  8
02-外形線
 48
0.5
100
AcDbCircle
 10
-3965.381490481036
 20
2537.753046383292
 30
0.0
 40
22.5
  0
ARC
  5
8FC5
330
2
100
AcDbEntity
  8
02-外形線
 48
0.5
100
AcDbCircle
 10
-3492.881490481036
 20
2537.753046383292
 30
0.0
 40
22.5
100
AcDbArc
 50
270.0
 51
90.0
  0
ARC
  5
8FC8
330
2
100
AcDbEntity
  8
02-外形線
 48
0.5
100
AcDbCircle
 10
-3537.881490481036
 20
2537.753046383292
 30
0.0
 40
22.5
100
AcDbArc
 50
90.0
 51
270.0
  0
LINE
  5
8FC9
330
2
100
AcDbEntity
  8
02-外形線
 48
0.5
100
AcDbLine
 10
-3537.881490481036
 20
2560.253046383292
 30
0.0
 11
-3492.881490481036
 21
2560.253046383292
 31
0.0
  0
LINE
  5
8FCA
330
2
100
AcDbEntity
  8
02-外形線
 48
0.5
100
AcDbLine
 10
-3537.881490481036
 20
2515.253046383292
 30
0.0
 11
-3492.881490481036
 21
2515.253046383292
 31
0.0
  0
LINE
  5
8FCB
330
2
100
AcDbEntity
  8
02-外形線
 48
0.5
100
AcDbLine
 10
-4115.381490481036
 20
2597.753046383292
 30
0.0
 11
-3365.381490481036
 21
2597.753046383292
 31
0.0
  0
LINE
  5
8FCC
330
2
100
AcDbEntity
  8
02-外形線
 48
0.5
100
AcDbLine
 10
-3365.381490481036
 20
2597.753046383292
 30
0.0
 11
-3365.381490481036
 21
2477.753046383292
 31
0.0
  0
LINE
  5
8FCD
330
2
100
AcDbEntity
  8
02-外形線
 48
0.5
100
AcDbLine
 10
-3365.381490481036
 20
2477.753046383292
 30
0.0
 11
-4115.381490481036
 21
2477.753046383292
 31
0.0
  0
LINE
  5
8FCE
330
2
100
AcDbEntity
  8
02-外形線
 48
0.5
100
AcDbLine
 10
-4115.381490481036
 20
2477.753046383292
 30
0.0
 11
-4115.381490481036
 21
2597.753046383292
 31
0.0
  0
LINE
  5
8FDE
330
2
100
AcDbEntity
  8
02-外形線
 48
0.5
100
AcDbLine
 10
-4115.381490481036
 20
1643.253046383292
 30
0.0
 11
-4115.381490481036
 21
1629.753046383292
 31
0.0
  0
LINE
  5
8FDF
330
2
100
AcDbEntity
  8
02-外形線
 48
0.5
100
AcDbLine
 10
-4115.381490481036
 20
1643.253046383292
 30
0.0
 11
-3365.381490481038
 21
1643.253046383292
 31
0.0
  0
LINE
  5
8FE0
330
2
100
AcDbEntity
  8
02-外形線
 48
0.5
100
AcDbLine
 10
-3365.381490481038
 20
1643.253046383292
 30
0.0
 11
-3365.381490481038
 21
1629.753046383292
 31
0.0
  0
LINE
  5
8FE1
330
2
100
AcDbEntity
  8
02-外形線
 48
0.5
100
AcDbLine
 10
-3365.381490481038
 20
1629.753046383292
 30
0.0
 11
-4115.381490481036
 21
1629.753046383292
 31
0.0
  0
LINE
  5
8FE2
330
2
100
AcDbEntity
  8
02-外形線
 48
0.5
100
AcDbLine
 10
-4004.381490481037
 20
1643.253046383292
 30
0.0
 11
-4004.381490481037
 21
1650.153046383291
 31
0.0
  0
LINE
  5
8FE3
330
2
100
AcDbEntity
  8
02-外形線
 48
0.5
100
AcDbLine
 10
-4004.381490481037
 20
1650.153046383291
 30
0.0
 11
-3926.381490481038
 21
1650.153046383291
 31
0.0
  0
LINE
  5
8FE4
330
2
100
AcDbEntity
  8
02-外形線
 48
0.5
100
AcDbLine
 10
-3926.381490481038
 20
1650.153046383291
 30
0.0
 11
-3926.381490481038
 21
1643.253046383292
 31
0.0
  0
LINE
  5
8FE5
330
2
100
AcDbEntity
  8
02-外形線
 48
0.5
100
AcDbLine
 10
-3993.881490481038
 20
1650.153046383291
 30
0.0
 11
-3993.881490481038
 21
1674.153046383291
 31
0.0
  0
LINE
  5
8FE6
330
2
100
AcDbEntity
  8
02-外形線
 48
0.5
100
AcDbLine
 10
-3993.881490481038
 20
1674.153046383291
 30
0.0
 11
-3936.881490481038
 21
1674.153046383291
 31
0.0
  0
LINE
  5
8FE7
330
2
100
AcDbEntity
  8
02-外形線
 48
0.5
100
AcDbLine
 10
-3936.881490481038
 20
1674.153046383291
 30
0.0
 11
-3936.881490481038
 21
1650.153046383291
 31
0.0
  0
LINE
  5
8FE8
330
2
100
AcDbEntity
  8
02-外形線
 48
0.5
100
AcDbLine
 10
-3965.381490481038
 20
1650.153046383291
 30
0.0
 11
-3965.381490481038
 21
1674.153046383291
 31
0.0
  0
LINE
  5
8FF5
330
2
100
AcDbEntity
  8
02-外形線
 48
0.5
100
AcDbLine
 10
-3990.881490481038
 20
1629.753046383292
 30
0.0
 11
-3990.881490481038
 21
1521.753046383292
 31
0.0
  0
LINE
  5
8FF6
330
2
100
AcDbEntity
  8
02-外形線
 48
0.5
100
AcDbLine
 10
-3983.381490481038
 20
1629.753046383292
 30
0.0
 11
-3983.381490481038
 21
1554.753046383292
 31
0.0
  0
LINE
  5
8FF7
330
2
100
AcDbEntity
  8
02-外形線
 48
0.5
100
AcDbLine
 10
-3983.381490481038
 20
1554.753046383292
 30
0.0
 11
-3947.381490481038
 21
1554.753046383292
 31
0.0
  0
LINE
  5
8FF8
330
2
100
AcDbEntity
  8
02-外形線
 48
0.5
100
AcDbLine
 10
-3947.381490481038
 20
1554.753046383292
 30
0.0
 11
-3947.381490481038
 21
1629.753046383292
 31
0.0
  0
LINE
  5
8FF9
330
2
100
AcDbEntity
  8
02-外形線
 48
0.5
100
AcDbLine
 10
-3939.881490481037
 20
1629.753046383292
 30
0.0
 11
-3939.881490481037
 21
1521.753046383292
 31
0.0
  0
LINE
  5
8FFA
330
2
100
AcDbEntity
  8
02-外形線
 48
0.5
100
AcDbLine
 10
-3939.881490481037
 20
1521.753046383292
 30
0.0
 11
-3923.381490481038
 21
1521.753046383292
 31
0.0
  0
LINE
  5
8FFB
330
2
100
AcDbEntity
  8
02-外形線
 48
0.5
100
AcDbLine
 10
-3923.381490481038
 20
1521.753046383292
 30
0.0
 11
-3923.381490481038
 21
1509.753046383291
 31
0.0
  0
LINE
  5
8FFC
330
2
100
AcDbEntity
  8
02-外形線
 48
0.5
100
AcDbLine
 10
-3923.381490481038
 20
1509.753046383291
 30
0.0
 11
-4007.381490481037
 21
1509.753046383291
 31
0.0
  0
LINE
  5
8FFD
330
2
100
AcDbEntity
  8
02-外形線
 48
0.5
100
AcDbLine
 10
-4007.381490481037
 20
1509.753046383291
 30
0.0
 11
-4007.381490481037
 21
1521.753046383292
 31
0.0
  0
LINE
  5
8FFE
330
2
100
AcDbEntity
  8
02-外形線
 48
0.5
100
AcDbLine
 10
-4007.381490481037
 20
1521.753046383292
 30
0.0
 11
-3990.881490481038
 21
1521.753046383292
 31
0.0
  0
LINE
  5
8FFF
330
2
100
AcDbEntity
  8
02-外形線
 48
0.5
100
AcDbLine
 10
-3983.381490481038
 20
1575.153046383291
 30
0.0
 11
-3947.381490481038
 21
1575.153046383291
 31
0.0
  0
LINE
  5
901C
330
2
100
AcDbEntity
  8
02-外形線
 48
0.5
100
AcDbLine
 10
-3983.381490481038
 20
1575.153046383291
 30
0.0
 11
-3947.381490481038
 21
1577.403046383291
 31
0.0
  0
LINE
  5
9028
330
2
100
AcDbEntity
  8
02-外形線
 48
0.5
100
AcDbLine
 10
-3983.381490481038
 20
1629.153046383291
 30
0.0
 11
-3973.781490481033
 21
1629.753046383292
 31
0.0
  0
LINE
  5
903A
330
2
100
AcDbEntity
  8
02-外形線
 48
0.5
100
AcDbLine
 10
-3557.381490481037
 20
1521.753046383292
 30
0.0
 11
-3540.881490481036
 21
1521.753046383292
 31
0.0
  0
LINE
  5
903B
330
2
100
AcDbEntity
  8
02-外形線
 48
0.5
100
AcDbLine
 10
-3557.381490481037
 20
1509.753046383291
 30
0.0
 11
-3557.381490481037
 21
1521.753046383292
 31
0.0
  0
LINE
  5
903C
330
2
100
AcDbEntity
  8
02-外形線
 48
0.5
100
AcDbLine
 10
-3473.381490481036
 20
1509.753046383291
 30
0.0
 11
-3557.381490481037
 21
1509.753046383291
 31
0.0
  0
LINE
  5
903D
330
2
100
AcDbEntity
  8
02-外形線
 48
0.5
100
AcDbLine
 10
-3473.381490481036
 20
1521.753046383292
 30
0.0
 11
-3473.381490481036
 21
1509.753046383291
 31
0.0
  0
LINE
  5
903E
330
2
100
AcDbEntity
  8
02-外形線
 48
0.5
100
AcDbLine
 10
-3489.881490481036
 20
1521.753046383292
 30
0.0
 11
-3473.381490481036
 21
1521.753046383292
 31
0.0
  0
LINE
  5
903F
330
2
100
AcDbEntity
  8
02-外形線
 48
0.5
100
AcDbLine
 10
-3489.881490481036
 20
1629.753046383292
 30
0.0
 11
-3489.881490481036
 21
1521.753046383292
 31
0.0
  0
LINE
  5
9043
330
2
100
AcDbEntity
  8
02-外形線
 48
0.5
100
AcDbLine
 10
-3540.881490481036
 20
1629.753046383292
 30
0.0
 11
-3540.881490481036
 21
1521.753046383292
 31
0.0
  0
LINE
  5
9044
330
2
100
AcDbEntity
  8
02-外形線
 48
0.5
100
AcDbLine
 10
-3515.381490481036
 20
1650.153046383291
 30
0.0
 11
-3515.381490481036
 21
1674.153046383291
 31
0.0
  0
LINE
  5
9045
330
2
100
AcDbEntity
  8
02-外形線
 48
0.5
100
AcDbLine
 10
-3486.881490481037
 20
1674.153046383291
 30
0.0
 11
-3486.881490481037
 21
1650.153046383291
 31
0.0
  0
LINE
  5
9046
330
2
100
AcDbEntity
  8
02-外形線
 48
0.5
100
AcDbLine
 10
-3543.881490481036
 20
1674.153046383291
 30
0.0
 11
-3486.881490481037
 21
1674.153046383291
 31
0.0
  0
LINE
  5
9047
330
2
100
AcDbEntity
  8
02-外形線
 48
0.5
100
AcDbLine
 10
-3543.881490481036
 20
1650.153046383291
 30
0.0
 11
-3543.881490481036
 21
1674.153046383291
 31
0.0
  0
LINE
  5
9048
330
2
100
AcDbEntity
  8
02-外形線
 48
0.5
100
AcDbLine
 10
-3476.381490481036
 20
1650.153046383291
 30
0.0
 11
-3476.381490481036
 21
1643.253046383292
 31
0.0
  0
LINE
  5
9049
330
2
100
AcDbEntity
  8
02-外形線
 48
0.5
100
AcDbLine
 10
-3554.381490481036
 20
1650.153046383291
 30
0.0
 11
-3476.381490481036
 21
1650.153046383291
 31
0.0
  0
LINE
  5
904A
330
2
100
AcDbEntity
  8
02-外形線
 48
0.5
100
AcDbLine
 10
-3554.381490481036
 20
1643.253046383292
 30
0.0
 11
-3554.381490481036
 21
1650.153046383291
 31
0.0
  0
LINE
  5
9051
330
2
100
AcDbEntity
  8
02-外形線
 48
0.5
100
AcDbLine
 10
-4265.381490481035
 20
2327.753046383292
 30
0.0
 11
-3215.381490481036
 21
2327.753046383291
 31
0.0
  0
LINE
  5
9055
330
2
100
AcDbEntity
  8
06-中心線
 48
0.5
100
AcDbLine
 10
-4265.381490481036
 20
2797.753046383292
 30
0.0
 11
-4265.381490481035
 21
2277.753046383292
 31
0.0
  0
LINE
  5
9056
330
2
100
AcDbEntity
  8
06-中心線
 48
0.5
100
AcDbLine
 10
-4315.381490481036
 20
2747.753046383292
 30
0.0
 11
-3165.381490481036
 21
2747.753046383292
 31
0.0
  0
LINE
  5
9057
330
2
100
AcDbEntity
  8
06-中心線
 48
0.5
100
AcDbLine
 10
-3215.381490481037
 20
2797.753046383293
 30
0.0
 11
-3215.381490481036
 21
2277.753046383292
 31
0.0
  0
LINE
  5
9067
330
2
100
AcDbEntity
  8
02-外形線
 48
0.5
100
AcDbLine
 10
-3740.381490481036
 20
2597.753046383292
 30
0.0
 11
-3740.381490481037
 21
2747.753046383292
 31
0.0
  0
LINE
  5
9068
330
2
100
AcDbEntity
  8
02-外形線
 48
0.5
100
AcDbLine
 10
-3740.381490481036
 20
2477.753046383292
 30
0.0
 11
-3740.381490481036
 21
2327.753046383292
 31
0.0
  0
DIMENSION
  5
906D
330
2
100
AcDbEntity
  8
01-寸法線
 48
0.5
100
AcDbDimension
  2
*D7
 10
-3740.381490481036
 20
2177.753046383292
 30
0.0
 11
-3852.881490481036
 21
2177.753046383292
 31
0.0
 70
   160
  1
75
 71
     5
 42
225.0
  3
スタイル15
100
AcDbAlignedDimension
 13
-3965.381490481036
 23
2477.753046383292
 33
0.0
 14
-3740.381490481036
 24
2327.753046383292
 34
0.0
100
AcDbRotatedDimension
  0
DIMENSION
  5
907A
330
2
100
AcDbEntity
  8
01-寸法線
 48
0.5
100
AcDbDimension
  2
*D8
 10
-3515.381490481036
 20
2177.753046383292
 30
0.0
 11
-3627.881490481036
 21
2211.503046383292
 31
0.0
 70
    32
  1
75
 71
     5
 42
225.0
  3
スタイル15
100
AcDbAlignedDimension
 13
-3740.381490481036
 23
2327.753046383292
 33
0.0
 14
-3515.381490481036
 24
2477.753046383292
 34
0.0
100
AcDbRotatedDimension
1001
ACAD
1000
DSTYLE
1002
{
1070
   279
1070
     1
1002
}
  0
DIMENSION
  5
9087
330
2
100
AcDbEntity
  8
01-寸法線
 48
0.5
100
AcDbDimension
  2
*D9
 10
-3365.381490481036
 20
2077.753046383292
 30
0.0
 11
-3740.381490481036
 21
2077.753046383292
 31
0.0
 70
   160
  1
250
 71
     5
 42
750.0
  3
スタイル15
100
AcDbAlignedDimension
 13
-4115.381490481036
 23
2477.753046383292
 33
0.0
 14
-3365.381490481036
 24
2477.753046383292
 34
0.0
100
AcDbRotatedDimension
  0
DIMENSION
  5
90A7
330
2
100
AcDbEntity
  8
01-寸法線
 48
0.5
100
AcDbDimension
  2
*D10
 10
-2965.381490481036
 20
2597.753046383291
 30
0.0
 11
-2999.131490481037
 21
2537.753046383291
 31
0.0
 70
    32
  1
40
 71
     5
 42
120.0
  3
スタイル15
100
AcDbAlignedDimension
 13
-3365.381490481036
 23
2477.753046383292
 33
0.0
 14
-3365.381490481036
 24
2597.753046383292
 34
0.0
 50
90.0
100
AcDbRotatedDimension
  0
DIMENSION
  5
9106
330
2
100
AcDbEntity
  8
01-寸法線
 48
0.5
100
AcDbDimension
  2
*D11
 10
-3470.381490481037
 20
2847.753046383292
 30
0.0
 11
-3515.381490481036
 21
2881.503046383292
 31
0.0
 70
    32
  1
30
 71
     5
 42
90.0
  3
スタイル15
100
AcDbAlignedDimension
 13
-3560.381490481037
 23
2537.753046383292
 33
0.0
 14
-3470.381490481037
 24
2537.753046383292
 34
0.0
100
AcDbRotatedDimension
  0
LINE
  5
9119
330
2
100
AcDbEntity
  8
01-寸法線
 48
0.5
100
AcDbLine
 10
-3840.381490481036
 20
2597.753046383291
 30
0.0
 11
-3840.381490481038
 21
3097.753046383291
 31
0.0
  0
TEXT
  5
911B
330
2
100
AcDbEntity
  8
08-下線
100
AcDbText
 10
-4509.181490481037
 20
3108.55304638329
 30
0.0
 40
52.5
  1
連結ﾌﾟﾚｰﾄ(ﾒｯｷ)
  7
ｵﾘｼﾞﾅﾙｽﾀｲﾙ
 72
     4
 11
-4240.381490481037
 21
3135.70304638329
 31
0.0
100
AcDbText
  0
LINE
  5
911C
330
2
100
AcDbEntity
  8
01-寸法線
 48
0.5
100
AcDbLine
 10
-4540.381490481037
 20
3097.753046383289
 30
0.0
 11
-3840.381490481038
 21
3097.753046383291
 31
0.0
  0
TEXT
  5
911D
330
2
100
AcDbEntity
  8
08-下線
100
AcDbText
 10
-4470.781490481036
 20
3034.15304638329
 30
0.0
 40
52.5
  1
250\U+00D740\U+00D74.5
  7
ｵﾘｼﾞﾅﾙｽﾀｲﾙ
 72
     4
 11
-4240.381490481037
 21
3059.803046383291
 31
0.0
100
AcDbText
  0
LINE
  5
9125
330
2
100
AcDbEntity
  8
01-寸法線
 48
0.5
100
AcDbLine
 10
-3976.631490481036
 20
2518.267474798142
 30
0.0
 11
-4173.227587389301
 21
2177.753046383292
 31
0.0
  0
LINE
  5
912A
330
2
100
AcDbEntity
  8
01-寸法線
 48
0.5
100
AcDbLine
 10
-4343.227587389301
 20
2177.753046383291
 30
0.0
 11
-4173.227587389301
 21
2177.753046383292
 31
0.0
  0
MTEXT
  5
912B
330
2
100
AcDbEntity
  8
01-寸法線
 62
     4
100
AcDbMText
 10
-4278.227587389301
 20
2211.503046383292
 30
0.0
 40
52.5
 41
0.0
 71
     5
 72
     1
  1
\U+03C615
  7
ｵﾘｼﾞﾅﾙｽﾀｲﾙ
 73
     1
 44
1.0
  0
INSERT
  5
9130
330
2
100
AcDbEntity
  8
01-寸法線
 62
     4
 48
0.5
370
    13
100
AcDbBlockReference
  2
_OPEN
 10
-3840.381490481036
 20
2597.753046383291
 30
0.0
 41
30.0
 42
30.0
 43
30.0
 50
269.9999999999993
  0
INSERT
  5
9131
330
2
100
AcDbEntity
  8
01-寸法線
 62
     4
 48
0.5
370
    13
100
AcDbBlockReference
  2
_OPEN
 10
-3976.631490481037
 20
2518.267474798143
 30
0.0
 41
30.0
 42
30.0
 43
30.0
 50
59.99999999999986
  0
LINE
  5
9174
330
2
100
AcDbEntity
  8
02-外形線
 48
0.5
100
AcDbLine
 10
-4265.381490481035
 20
1677.753046383292
 30
0.0
 11
-4163.381490481036
 21
1677.753046383292
 31
0.0
  0
LINE
  5
9183
330
2
100
AcDbEntity
  8
06-中心線
 48
0.5
100
AcDbLine
 10
-4265.381490481035
 20
1727.753046383291
 30
0.0
 11
-4265.381490481035
 21
1377.753046383292
 31
0.0
  0
LINE
  5
9184
330
2
100
AcDbEntity
  8
06-中心線
 48
0.5
100
AcDbLine
 10
-3215.381490481036
 20
1727.753046383291
 30
0.0
 11
-3215.381490481036
 21
1377.753046383292
 31
0.0
  0
LINE
  5
9186
330
2
100
AcDbEntity
  8
02-外形線
 48
0.5
100
AcDbLine
 10
-3740.381490481037
 20
1629.753046383292
 30
0.0
 11
-3740.381490481036
 21
1427.753046383292
 31
0.0
  0
LINE
  5
9194
330
2
100
AcDbEntity
  8
01-寸法線
 48
0.5
100
AcDbLine
 10
-3489.881490481035
 20
1509.753046383291
 30
0.0
 11
-3313.789658378199
 21
1204.753046383291
 31
0.0
  0
INSERT
  5
9199
330
2
100
AcDbEntity
  8
01-寸法線
 62
     4
 48
0.5
370
    13
100
AcDbBlockReference
  2
_OPEN
 10
-4004.381490481036
 20
1650.153046383292
 30
0.0
 41
30.0
 42
30.0
 43
30.0
 50
300.000000000001
  0
INSERT
  5
919A
330
2
100
AcDbEntity
  8
01-寸法線
 62
     4
 48
0.5
370
    13
100
AcDbBlockReference
  2
_OPEN
 10
-3486.881490481037
 20
1674.153046383291
 30
0.0
 41
30.0
 42
30.0
 43
30.0
 50
239.9999999999997
  0
INSERT
  5
919B
330
2
100
AcDbEntity
  8
01-寸法線
 62
     4
 48
0.5
370
    13
100
AcDbBlockReference
  2
_OPEN
 10
-3489.881490481035
 20
1509.753046383292
 30
0.0
 41
30.0
 42
30.0
 43
30.0
 50
120.0000000000003
  0
TEXT
  5
919C
330
2
100
AcDbEntity
  8
08-下線
100
AcDbText
 10
-4366.786411748595
 20
1892.603046383291
 30
0.0
 40
52.5
  1
ﾜｯｼｬｰ
  7
ｵﾘｼﾞﾅﾙｽﾀｲﾙ
 72
     4
 11
-4270.786411748595
 21
1915.703046383292
 31
0.0
100
AcDbText
  0
TEXT
  5
919D
330
2
100
AcDbEntity
  8
08-下線
100
AcDbText
 10
-4366.786411748595
 20
1812.653046383292
 30
0.0
 40
52.5
  1
(ﾒｯｷ)
  7
ｵﾘｼﾞﾅﾙｽﾀｲﾙ
 72
     4
 11
-4270.786411748595
 21
1839.803046383292
 31
0.0
100
AcDbText
  0
LINE
  5
919E
330
2
100
AcDbEntity
  8
01-寸法線
 48
0.5
100
AcDbLine
 10
-4405.786411748596
 20
1877.753046383291
 30
0.0
 11
-4135.786411748596
 21
1877.753046383292
 31
0.0
  0
TEXT
  5
91A4
330
2
100
AcDbEntity
  8
08-下線
100
AcDbText
 10
-3280.332975674029
 20
1812.653046383293
 30
0.0
 40
52.5
  1
(ﾒｯｷ)
  7
ｵﾘｼﾞﾅﾙｽﾀｲﾙ
 72
     4
 11
-3184.332975674029
 21
1839.803046383293
 31
0.0
100
AcDbText
  0
LINE
  5
91A5
330
2
100
AcDbEntity
  8
01-寸法線
 48
0.5
100
AcDbLine
 10
-3369.332975674029
 20
1877.753046383292
 30
0.0
 11
-2999.332975674029
 21
1877.753046383293
 31
0.0
  0
TEXT
  5
91A6
330
2
100
AcDbEntity
  8
08-下線
100
AcDbText
 10
-3337.932975674029
 20
1888.253046383292
 30
0.0
 40
52.5
  1
ﾎﾞﾙﾄ M12
  7
ｵﾘｼﾞﾅﾙｽﾀｲﾙ
 72
     4
 11
-3184.332975674029
 21
1915.703046383292
 31
0.0
100
AcDbText
  0
LINE
  5
91AB
330
2
100
AcDbEntity
  8
01-寸法線
 48
0.5
100
AcDbLine
 10
-3313.789658378199
 20
1204.753046383291
 30
0.0
 11
-2893.789658378199
 21
1204.753046383292
 31
0.0
  0
TEXT
  5
91AC
330
2
100
AcDbEntity
  8
08-下線
100
AcDbText
 10
-3276.589658378199
 20
1215.553046383291
 30
0.0
 40
52.5
  1
ｲﾝｻｰﾄ M12
  7
ｵﾘｼﾞﾅﾙｽﾀｲﾙ
 72
     4
 11
-3103.789658378199
 21
1242.703046383291
 31
0.0
100
AcDbText
  0
TEXT
  5
91AD
330
2
100
AcDbEntity
  8
08-下線
100
AcDbText
 10
-3199.789658378199
 20
1139.653046383292
 30
0.0
 40
52.5
  1
(ﾒｯｷ)
  7
ｵﾘｼﾞﾅﾙｽﾀｲﾙ
 72
     4
 11
-3103.789658378199
 21
1166.803046383292
 31
0.0
100
AcDbText
  0
LINE
  5
92DD
330
2
100
AcDbEntity
  8
02-外形線
 48
0.5
100
AcDbLine
 10
-3983.381490481038
 20
1581.153046383291
 30
0.0
 11
-3947.381490481038
 21
1583.403046383291
 31
0.0
  0
LINE
  5
92DE
330
2
100
AcDbEntity
  8
02-外形線
 48
0.5
100
AcDbLine
 10
-3983.381490481038
 20
1587.153046383291
 30
0.0
 11
-3947.381490481038
 21
1589.403046383291
 31
0.0
  0
LINE
  5
92DF
330
2
100
AcDbEntity
  8
02-外形線
 48
0.5
100
AcDbLine
 10
-3983.381490481038
 20
1593.153046383291
 30
0.0
 11
-3947.381490481038
 21
1595.403046383291
 31
0.0
  0
LINE
  5
92E0
330
2
100
AcDbEntity
  8
02-外形線
 48
0.5
100
AcDbLine
 10
-3983.381490481038
 20
1599.153046383291
 30
0.0
 11
-3947.381490481038
 21
1601.403046383291
 31
0.0
  0
LINE
  5
92E1
330
2
100
AcDbEntity
  8
02-外形線
 48
0.5
100
AcDbLine
 10
-3983.381490481038
 20
1605.153046383291
 30
0.0
 11
-3947.381490481038
 21
1607.403046383291
 31
0.0
  0
LINE
  5
92E2
330
2
100
AcDbEntity
  8
02-外形線
 48
0.5
100
AcDbLine
 10
-3983.381490481038
 20
1611.153046383291
 30
0.0
 11
-3947.381490481038
 21
1613.403046383291
 31
0.0
  0
LINE
  5
92E3
330
2
100
AcDbEntity
  8
02-外形線
 48
0.5
100
AcDbLine
 10
-3983.381490481038
 20
1617.153046383291
 30
0.0
 11
-3947.381490481038
 21
1619.403046383291
 31
0.0
  0
LINE
  5
92E4
330
2
100
AcDbEntity
  8
02-外形線
 48
0.5
100
AcDbLine
 10
-3983.381490481038
 20
1623.153046383291
 30
0.0
 11
-3947.381490481038
 21
1625.403046383291
 31
0.0
  0
LINE
  5
92E9
330
2
100
AcDbEntity
  8
02-外形線
 48
0.5
100
AcDbLine
 10
-3533.381490481036
 20
1623.153046383291
 30
0.0
 11
-3497.381490481036
 21
1625.403046383291
 31
0.0
  0
LINE
  5
92EA
330
2
100
AcDbEntity
  8
02-外形線
 48
0.5
100
AcDbLine
 10
-3533.381490481036
 20
1617.153046383291
 30
0.0
 11
-3497.381490481036
 21
1619.403046383291
 31
0.0
  0
LINE
  5
92EB
330
2
100
AcDbEntity
  8
02-外形線
 48
0.5
100
AcDbLine
 10
-3533.381490481036
 20
1611.153046383291
 30
0.0
 11
-3497.381490481036
 21
1613.403046383291
 31
0.0
  0
LINE
  5
92EC
330
2
100
AcDbEntity
  8
02-外形線
 48
0.5
100
AcDbLine
 10
-3533.381490481036
 20
1605.153046383291
 30
0.0
 11
-3497.381490481036
 21
1607.403046383291
 31
0.0
  0
LINE
  5
92ED
330
2
100
AcDbEntity
  8
02-外形線
 48
0.5
100
AcDbLine
 10
-3533.381490481036
 20
1599.153046383291
 30
0.0
 11
-3497.381490481036
 21
1601.403046383291
 31
0.0
  0
LINE
  5
92EE
330
2
100
AcDbEntity
  8
02-外形線
 48
0.5
100
AcDbLine
 10
-3533.381490481036
 20
1593.153046383291
 30
0.0
 11
-3497.381490481036
 21
1595.403046383291
 31
0.0
  0
LINE
  5
92EF
330
2
100
AcDbEntity
  8
02-外形線
 48
0.5
100
AcDbLine
 10
-3533.381490481036
 20
1587.153046383291
 30
0.0
 11
-3497.381490481036
 21
1589.403046383291
 31
0.0
  0
LINE
  5
92F0
330
2
100
AcDbEntity
  8
02-外形線
 48
0.5
100
AcDbLine
 10
-3533.381490481036
 20
1581.153046383291
 30
0.0
 11
-3497.381490481036
 21
1583.403046383291
 31
0.0
  0
LINE
  5
92F1
330
2
100
AcDbEntity
  8
02-外形線
 48
0.5
100
AcDbLine
 10
-3497.381490481036
 20
1554.753046383292
 30
0.0
 11
-3497.381490481036
 21
1629.753046383292
 31
0.0
  0
LINE
  5
92F2
330
2
100
AcDbEntity
  8
02-外形線
 48
0.5
100
AcDbLine
 10
-3533.381490481036
 20
1629.753046383292
 30
0.0
 11
-3533.381490481036
 21
1554.753046383292
 31
0.0
  0
LINE
  5
92F3
330
2
100
AcDbEntity
  8
02-外形線
 48
0.5
100
AcDbLine
 10
-3533.381490481036
 20
1629.153046383291
 30
0.0
 11
-3523.781490481031
 21
1629.753046383292
 31
0.0
  0
LINE
  5
92F4
330
2
100
AcDbEntity
  8
02-外形線
 48
0.5
100
AcDbLine
 10
-3533.381490481036
 20
1554.753046383292
 30
0.0
 11
-3497.381490481036
 21
1554.753046383292
 31
0.0
  0
LINE
  5
92F5
330
2
100
AcDbEntity
  8
02-外形線
 48
0.5
100
AcDbLine
 10
-3533.381490481036
 20
1575.153046383291
 30
0.0
 11
-3497.381490481036
 21
1575.153046383291
 31
0.0
  0
LINE
  5
92F6
330
2
100
AcDbEntity
  8
02-外形線
 48
0.5
100
AcDbLine
 10
-3533.381490481036
 20
1575.153046383291
 30
0.0
 11
-3497.381490481036
 21
1577.403046383291
 31
0.0
  0
DIMENSION
  5
92F9
330
2
100
AcDbEntity
  8
01-寸法線
 48
0.5
100
AcDbDimension
  2
*D12
 10
-3065.381490481037
 20
2515.253046383291
 30
0.0
 11
-3099.131490481037
 21
2653.073046383291
 31
0.0
 70
    32
  1
15
 71
     5
 42
45.0
  3
スタイル15
100
AcDbAlignedDimension
 13
-3492.881490481036
 23
2560.253046383292
 33
0.0
 14
-3492.881490481036
 24
2515.253046383292
 34
0.0
 50
90.0
100
AcDbRotatedDimension
1001
ACAD
1000
DSTYLE
1002
{
1070
   280
1070
     1
1002
}
  0
TEXT
  5
9317
330
2
100
AcDbEntity
  8
08-下線
100
AcDbText
 10
-4719.581490481036
 20
963.5530463832918
 30
0.0
 40
52.5
  1
　連結ﾌﾟﾚｰﾄ、ﾎﾞﾙﾄ、ﾜｯｼｬｰ、ｲﾝｻｰﾄの仕様
  7
ｵﾘｼﾞﾅﾙｽﾀｲﾙ
 11
-4719.581490481036
 21
952.7530463832917
 31
0.0
100
AcDbText
 73
     1
  0
TEXT
  5
931C
330
2
100
AcDbEntity
  8
08-下線
100
AcDbText
 10
-4719.581490481036
 20
838.5530463832918
 30
0.0
 40
52.5
  1
1.材質はSS400または同等以上のもの
  7
ｵﾘｼﾞﾅﾙｽﾀｲﾙ
 11
-4719.581490481036
 21
827.7530463832917
 31
0.0
100
AcDbText
 73
     1
  0
TEXT
  5
931D
330
2
100
AcDbEntity
  8
08-下線
100
AcDbText
 10
-4719.581490481036
 20
713.5530463832918
 30
0.0
 40
52.5
  1
2.電気亜鉛ﾒｯｷ(JIS H 8610)2種3級または同等以上のもの
  7
ｵﾘｼﾞﾅﾙｽﾀｲﾙ
 11
-4719.581490481036
 21
702.7530463832918
 31
0.0
100
AcDbText
 73
     1
  0
TEXT
  5
9716
330
2
100
AcDbEntity
  8
08-下線
100
AcDbText
 10
-1738.181490481037
 20
4731.124474954721
 30
0.0
 40
65.0
  1
%%Uｼﾞｮｲﾝﾄ部詳細図
  7
ｵﾘｼﾞﾅﾙｽﾀｲﾙ
 72
     1
 11
-1405.381490481037
 21
4717.753046383291
 31
0.0
100
AcDbText
 73
     1
  0
LINE
  5
9F91
330
2
100
AcDbEntity
  8
02-外形線
 48
0.5
100
AcDbLine
 10
-3170.381490481036
 20
4377.753046383292
 30
0.0
 11
-3165.381490481036
 21
4372.753046383293
 31
0.0
  0
LINE
  5
9F9E
330
2
100
AcDbEntity
  8
02-外形線
 48
0.5
100
AcDbLine
 10
-3170.381490481036
 20
4147.753046383292
 30
0.0
 11
-3170.381490481036
 21
4397.753046383292
 31
0.0
  0
DIMENSION
  5
A07F
330
2
100
AcDbEntity
  8
01-寸法線
 48
0.5
100
AcDbDimension
  2
*D13
 10
-5277.881490481036
 20
2397.753046383293
 30
0.0
 11
-5198.741490481037
 21
2431.503046383292
 31
0.0
 70
    32
  1
5
 71
     5
 42
37.5
  3
スタイル15
100
AcDbAlignedDimension
 13
-5315.381490481037
 23
2547.753046383292
 33
0.0
 14
-5277.881490481036
 24
2697.753046383292
 34
0.0
100
AcDbRotatedDimension
  0
LINE
  5
A0DA
330
2
100
AcDbEntity
  8
02-外形線
 48
0.5
100
AcDbLine
 10
-4163.381490481036
 20
2630.753046383292
 30
0.0
 11
-3317.381490481036
 21
2630.753046383292
 31
0.0
  0
LINE
  5
A0DB
330
2
100
AcDbEntity
  8
02-外形線
 48
0.5
100
AcDbLine
 10
-3317.381490481036
 20
2630.753046383292
 30
0.0
 11
-3317.381490481036
 21
2444.753046383292
 31
0.0
  0
LINE
  5
A0DC
330
2
100
AcDbEntity
  8
02-外形線
 48
0.5
100
AcDbLine
 10
-3317.381490481036
 20
2444.753046383292
 30
0.0
 11
-4163.381490481036
 21
2444.753046383292
 31
0.0
  0
LINE
  5
A0DD
330
2
100
AcDbEntity
  8
02-外形線
 48
0.5
100
AcDbLine
 10
-4163.381490481036
 20
2444.753046383292
 30
0.0
 11
-4163.381490481036
 21
2630.753046383292
 31
0.0
  0
LINE
  5
A0DE
330
2
100
AcDbEntity
  8
02-外形線
 48
0.5
100
AcDbLine
 10
-4145.381490481036
 20
2612.753046383291
 30
0.0
 11
-3335.381490481037
 21
2612.753046383292
 31
0.0
  0
LINE
  5
A0DF
330
2
100
AcDbEntity
  8
02-外形線
 48
0.5
100
AcDbLine
 10
-3335.381490481037
 20
2612.753046383292
 30
0.0
 11
-3335.381490481037
 21
2462.753046383292
 31
0.0
  0
LINE
  5
A0E0
330
2
100
AcDbEntity
  8
02-外形線
 48
0.5
100
AcDbLine
 10
-3335.381490481037
 20
2462.753046383292
 30
0.0
 11
-4145.381490481036
 21
2462.753046383292
 31
0.0
  0
LINE
  5
A0E1
330
2
100
AcDbEntity
  8
02-外形線
 48
0.5
100
AcDbLine
 10
-4145.381490481036
 20
2462.753046383292
 30
0.0
 11
-4145.381490481036
 21
2612.753046383291
 31
0.0
  0
DIMENSION
  5
A0E3
330
2
100
AcDbEntity
  8
01-寸法線
 48
0.5
100
AcDbDimension
  2
*D14
 10
-4415.381490481037
 20
2612.753046383291
 30
0.0
 11
-4449.131490481038
 21
2537.753046383291
 31
0.0
 70
    32
  1
50
 71
     5
 42
150.0
  3
スタイル15
100
AcDbAlignedDimension
 13
-4145.381490481036
 23
2462.753046383292
 33
0.0
 14
-4145.381490481036
 24
2612.753046383291
 34
0.0
 50
90.0
100
AcDbRotatedDimension
  0
DIMENSION
  5
A124
330
2
100
AcDbEntity
  8
01-寸法線
 48
0.5
100
AcDbDimension
  2
*D15
 10
-3740.381490481037
 20
2947.753046383292
 30
0.0
 11
-3942.881490481036
 21
2981.503046383292
 31
0.0
 70
    32
  1
135
 71
     5
 42
404.9999999999995
  3
スタイル15
100
AcDbAlignedDimension
 13
-4145.381490481036
 23
2630.753046383292
 33
0.0
 14
-3740.381490481037
 24
2747.753046383292
 34
0.0
100
AcDbRotatedDimension
  0
DIMENSION
  5
A131
330
2
100
AcDbEntity
  8
01-寸法線
 48
0.5
100
AcDbDimension
  2
*D16
 10
-3335.381490481037
 20
2947.753046383292
 30
0.0
 11
-3537.881490481036
 21
2981.503046383292
 31
0.0
 70
    32
  1
135
 71
     5
 42
405.0000000000004
  3
スタイル15
100
AcDbAlignedDimension
 13
-3740.381490481037
 23
2747.753046383292
 33
0.0
 14
-3335.381490481037
 24
2612.753046383292
 34
0.0
100
AcDbRotatedDimension
1001
ACAD
1000
DSTYLE
1002
{
1070
   279
1070
     1
1002
}
  0
LINE
  5
A1D6
330
2
100
AcDbEntity
  8
02-外形線
 48
0.5
100
AcDbLine
 10
-4163.381490481036
 20
2630.753046383292
 30
0.0
 11
-4145.381490481036
 21
2612.753046383291
 31
0.0
  0
LINE
  5
A1D7
330
2
100
AcDbEntity
  8
02-外形線
 48
0.5
100
AcDbLine
 10
-4163.381490481036
 20
2444.753046383292
 30
0.0
 11
-4145.381490481036
 21
2462.753046383292
 31
0.0
  0
LINE
  5
A1D8
330
2
100
AcDbEntity
  8
02-外形線
 48
0.5
100
AcDbLine
 10
-3335.381490481037
 20
2462.753046383292
 30
0.0
 11
-3317.381490481036
 21
2444.753046383292
 31
0.0
  0
LINE
  5
A1D9
330
2
100
AcDbEntity
  8
02-外形線
 48
0.5
100
AcDbLine
 10
-3335.381490481037
 20
2612.753046383292
 30
0.0
 11
-3317.381490481036
 21
2630.753046383292
 31
0.0
  0
LINE
  5
A1DB
330
2
100
AcDbEntity
  8
02-外形線
 48
0.5
100
AcDbLine
 10
-4145.381490481036
 20
1629.753046383292
 30
0.0
 11
-3335.381490481037
 21
1629.753046383292
 31
0.0
  0
LINE
  5
A1EB
330
2
100
AcDbEntity
  8
02-外形線
 48
0.5
100
AcDbLine
 10
-3317.381490481036
 20
1677.753046383292
 30
0.0
 11
-3215.381490481036
 21
1677.753046383292
 31
0.0
  0
LINE
  5
A1ED
330
2
100
AcDbEntity
  8
02-外形線
 48
0.5
100
AcDbLine
 10
-4163.381490481036
 20
1677.753046383292
 30
0.0
 11
-4145.381490481036
 21
1629.753046383292
 31
0.0
  0
LINE
  5
A1EE
330
2
100
AcDbEntity
  8
02-外形線
 48
0.5
100
AcDbLine
 10
-3317.381490481036
 20
1677.753046383292
 30
0.0
 11
-3335.381490481037
 21
1629.753046383292
 31
0.0
  0
LINE
  5
A1EF
330
2
100
AcDbEntity
  8
01-寸法線
 48
0.5
100
AcDbLine
 10
-3486.881490481037
 20
1674.153046383291
 30
0.0
 11
-3369.332975674029
 21
1877.753046383292
 31
0.0
  0
LINE
  5
A1F0
330
2
100
AcDbEntity
  8
01-寸法線
 48
0.5
100
AcDbLine
 10
-4004.381490481037
 20
1650.153046383291
 30
0.0
 11
-4135.786411748596
 21
1877.753046383292
 31
0.0
  0
LINE
  5
A1F3
330
2
100
AcDbEntity
  8
06-中心線
 48
0.5
100
AcDbLine
 10
-4315.381490481036
 20
1427.753046383292
 30
0.0
 11
-3165.381490481036
 21
1427.753046383292
 31
0.0
  0
LINE
  5
A2CF
330
2
100
AcDbEntity
  8
03-隠れ線
 48
0.5
100
AcDbLine
 10
-3165.381490481037
 20
4176.753046383291
 30
0.0
 11
-3306.381490481037
 21
4176.753046383291
 31
0.0
  0
LINE
  5
A2D0
330
2
100
AcDbEntity
  8
03-隠れ線
 48
0.5
100
AcDbLine
 10
-3306.381490481037
 20
4176.753046383291
 30
0.0
 11
-3306.381490481037
 21
4238.75304638329
 31
0.0
  0
LINE
  5
A2D1
330
2
100
AcDbEntity
  8
03-隠れ線
 48
0.5
100
AcDbLine
 10
-3306.381490481037
 20
4238.75304638329
 30
0.0
 11
-3165.381490481037
 21
4238.75304638329
 31
0.0
  0
LINE
  5
A2D2
330
2
100
AcDbEntity
  8
03-隠れ線
 48
0.5
100
AcDbLine
 10
-3165.381490481037
 20
4182.75304638329
 30
0.0
 11
-3300.381490481037
 21
4182.75304638329
 31
0.0
  0
LINE
  5
A2D3
330
2
100
AcDbEntity
  8
03-隠れ線
 48
0.5
100
AcDbLine
 10
-3300.381490481037
 20
4182.75304638329
 30
0.0
 11
-3300.381490481037
 21
4232.75304638329
 31
0.0
  0
LINE
  5
A2D4
330
2
100
AcDbEntity
  8
03-隠れ線
 48
0.5
100
AcDbLine
 10
-3300.381490481037
 20
4232.75304638329
 30
0.0
 11
-3165.381490481037
 21
4232.75304638329
 31
0.0
  0
LINE
  5
A2D5
330
2
100
AcDbEntity
  8
03-隠れ線
 48
0.5
100
AcDbLine
 10
-3300.381490481037
 20
4182.75304638329
 30
0.0
 11
-3306.381490481037
 21
4176.753046383291
 31
0.0
  0
LINE
  5
A2D6
330
2
100
AcDbEntity
  8
03-隠れ線
 48
0.5
100
AcDbLine
 10
-3300.381490481037
 20
4232.75304638329
 30
0.0
 11
-3306.381490481037
 21
4238.75304638329
 31
0.0
  0
LINE
  5
A2D9
330
2
100
AcDbEntity
  8
03-隠れ線
 48
0.5
100
AcDbLine
 10
-5030.381490481036
 20
4182.753046383292
 30
0.0
 11
-5165.381490481036
 21
4182.753046383292
 31
0.0
  0
LINE
  5
A2DA
330
2
100
AcDbEntity
  8
03-隠れ線
 48
0.5
100
AcDbLine
 10
-5165.381490481036
 20
4232.753046383292
 30
0.0
 11
-5030.381490481036
 21
4232.753046383292
 31
0.0
  0
LINE
  5
A2DB
330
2
100
AcDbEntity
  8
03-隠れ線
 48
0.5
100
AcDbLine
 10
-5024.381490481037
 20
4176.753046383292
 30
0.0
 11
-5165.381490481036
 21
4176.753046383292
 31
0.0
  0
LINE
  5
A2DC
330
2
100
AcDbEntity
  8
03-隠れ線
 48
0.5
100
AcDbLine
 10
-5165.381490481036
 20
4238.753046383291
 30
0.0
 11
-5024.381490481037
 21
4238.753046383291
 31
0.0
  0
LINE
  5
A2DD
330
2
100
AcDbEntity
  8
03-隠れ線
 48
0.5
100
AcDbLine
 10
-5030.381490481036
 20
4182.753046383292
 30
0.0
 11
-5024.381490481037
 21
4176.753046383292
 31
0.0
  0
LINE
  5
A2DE
330
2
100
AcDbEntity
  8
03-隠れ線
 48
0.5
100
AcDbLine
 10
-5024.381490481037
 20
4238.753046383291
 30
0.0
 11
-5024.381490481037
 21
4176.753046383292
 31
0.0
  0
LINE
  5
A2DF
330
2
100
AcDbEntity
  8
03-隠れ線
 48
0.5
100
AcDbLine
 10
-5030.381490481036
 20
4232.753046383292
 30
0.0
 11
-5024.381490481037
 21
4238.753046383291
 31
0.0
  0
LINE
  5
A2E0
330
2
100
AcDbEntity
  8
03-隠れ線
 48
0.5
100
AcDbLine
 10
-5030.381490481036
 20
4232.753046383292
 30
0.0
 11
-5030.381490481036
 21
4182.753046383292
 31
0.0
  0
DIMENSION
  5
AAB0
330
2
100
AcDbEntity
  8
01-寸法線
 48
0.5
100
AcDbDimension
  2
*D17
 10
-5365.381490481036
 20
4207.753046383292
 30
0.0
 11
-5399.131490481037
 21
4302.973046383291
 31
0.0
 70
    32
 71
     5
 42
60.0
  3
スタイル15
100
AcDbAlignedDimension
 13
-5165.381490481036
 23
4147.753046383292
 33
0.0
 14
-5165.381490481036
 24
4207.753046383292
 34
0.0
 50
90.0
100
AcDbRotatedDimension
  0
DIMENSION
  5
AB37
330
2
100
AcDbEntity
  8
01-寸法線
 48
0.5
100
AcDbDimension
  2
*D18
 10
-4865.381490481037
 20
2847.753046383292
 30
0.0
 11
-4899.131490481038
 21
2772.753046383292
 31
0.0
 70
    32
  1
20
 71
     5
 42
150.0000000000004
  3
スタイル15
100
AcDbAlignedDimension
 13
-5277.881490481036
 23
2697.753046383292
 33
0.0
 14
-5015.381490481036
 24
2847.753046383292
 34
0.0
 50
90.0
100
AcDbRotatedDimension
  0
LINE
  5
AB5F
330
2
100
AcDbEntity
  8
02-外形線
 48
0.5
100
AcDbLine
 10
-6570.381490481036
 20
4147.753046383292
 30
0.0
 11
-6548.082979323973
 21
4370.738157953922
 31
0.0
  0
LINE
  5
AB60
330
2
100
AcDbEntity
  8
02-外形線
 48
0.5
100
AcDbLine
 10
-6518.231863617673
 20
4397.753046383292
 30
0.0
 11
-6365.381490481036
 21
4397.753046383292
 31
0.0
  0
ARC
  5
AD12
330
2
100
AcDbEntity
  8
02-外形線
 48
0.5
100
AcDbCircle
 10
-6518.231863617673
 20
4367.753046383291
 30
0.0
 40
30.0
100
AcDbArc
 50
90.0
 51
174.2894068625003
  0
MTEXT
  5
AD1C
330
2
100
AcDbEntity
  8
01-寸法線
 62
     4
100
AcDbMText
 10
-6831.118447233946
 20
4631.503046383289
 30
0.0
 40
52.5
 41
0.0
 71
     5
 72
     1
  1
R=30
  7
ｵﾘｼﾞﾅﾙｽﾀｲﾙ
 73
     1
 44
1.0
  0
LINE
  5
AD1D
330
2
100
AcDbEntity
  8
01-寸法線
 48
0.5
100
AcDbLine
 10
-6916.118447233945
 20
4597.753046383289
 30
0.0
 11
-6746.118447233945
 21
4597.75304638329
 31
0.0
  0
LINE
  5
AD2A
330
2
100
AcDbEntity
  8
01-寸法線
 48
0.5
100
AcDbLine
 10
-6538.362023240502
 20
4389.996622389848
 30
0.0
 11
-6746.118447233945
 21
4597.75304638329
 31
0.0
  0
INSERT
  5
AD2B
330
2
100
AcDbEntity
  8
01-寸法線
 62
     4
 48
0.5
370
    13
100
AcDbBlockReference
  2
_OPEN
 10
-6538.362023240508
 20
4389.996622389856
 30
0.0
 41
-30.0
 42
30.0
 43
30.0
 50
135.0000000000065
  0
LINE
  5
AD33
330
2
100
AcDbEntity
  8
02-外形線
 48
0.5
100
AcDbLine
 10
-6570.381490481037
 20
3047.753046383292
 30
0.0
 11
-6365.381490481036
 21
3047.753046383292
 31
0.0
  0
LINE
  5
AD35
330
2
100
AcDbEntity
  8
02-外形線
 48
0.5
100
AcDbLine
 10
-6365.381490481037
 20
1047.753046383292
 30
0.0
 11
-6570.381490481037
 21
1047.753046383292
 31
0.0
  0
LINE
  5
AD3B
330
2
100
AcDbEntity
  8
02-外形線
 48
0.5
100
AcDbLine
 10
-6570.381490481037
 20
1052.753046383291
 30
0.0
 11
-6365.381490481037
 21
1052.753046383291
 31
0.0
  0
LINE
  5
AD3D
330
2
100
AcDbEntity
  8
02-外形線
 48
0.5
100
AcDbLine
 10
-6545.381490481036
 20
1052.753046383291
 30
0.0
 11
-6545.381490481036
 21
3047.753046383292
 31
0.0
  0
DIMENSION
  5
AD40
330
2
100
AcDbEntity
  8
01-寸法線
 48
0.5
100
AcDbDimension
  2
*D19
 10
-6870.381490481036
 20
3047.753046383292
 30
0.0
 11
-6904.131490481038
 21
2047.753046383291
 31
0.0
 70
    32
 71
     5
 42
2000.0
  3
スタイル15
100
AcDbAlignedDimension
 13
-6570.381490481036
 23
1047.753046383292
 33
0.0
 14
-6570.381490481036
 24
3047.753046383292
 34
0.0
 50
90.0
100
AcDbRotatedDimension
  0
TEXT
  5
AD4D
330
2
100
AcDbEntity
  8
08-下線
100
AcDbText
 10
-6676.381490481036
 20
858.5530463832917
 30
0.0
 40
52.5
  1
ｼｰﾙ溝
  7
ｵﾘｼﾞﾅﾙｽﾀｲﾙ
 72
     1
 11
-6580.381490481037
 21
847.7530463832918
 31
0.0
100
AcDbText
 73
     1
  0
LINE
  5
AD4E
330
2
100
AcDbEntity
  8
01-寸法線
 48
0.5
100
AcDbLine
 10
-6455.381490481037
 20
847.7530463832918
 30
0.0
 11
-6455.381490481037
 21
1047.753046383292
 31
0.0
  0
LINE
  5
AD4F
330
2
100
AcDbEntity
  8
01-寸法線
 48
0.5
100
AcDbLine
 10
-6705.381490481037
 20
847.7530463832918
 30
0.0
 11
-6455.381490481037
 21
847.7530463832918
 31
0.0
  0
INSERT
  5
AD50
330
2
100
AcDbEntity
  8
01-寸法線
 62
     4
 48
0.5
370
    13
100
AcDbBlockReference
  2
_OPEN
 10
-6455.381490481037
 20
1047.753046383292
 30
0.0
 41
30.0
 42
30.0
 43
30.0
 50
90.0
  0
LINE
  5
AD56
330
2
100
AcDbEntity
  8
03-隠れ線
 48
0.5
100
AcDbLine
 10
-6381.381490481036
 20
2912.753046383293
 30
0.0
 11
-6381.381490481036
 21
3047.753046383293
 31
0.0
  0
LINE
  5
AD57
330
2
100
AcDbEntity
  8
03-隠れ線
 48
0.5
100
AcDbLine
 10
-6365.381490481036
 20
2906.753046383293
 30
0.0
 11
-6381.381490481036
 21
2912.753046383293
 31
0.0
  0
LINE
  5
AD58
330
2
100
AcDbEntity
  8
03-隠れ線
 48
0.5
100
AcDbLine
 10
-6421.381490481038
 20
2958.753046383292
 30
0.0
 11
-6421.381490481038
 21
2986.753046383292
 31
0.0
  0
LINE
  5
AD59
330
2
100
AcDbEntity
  8
03-隠れ線
 48
0.5
100
AcDbLine
 10
-6381.381490481037
 20
2981.253046383292
 30
0.0
 11
-6421.381490481038
 21
2981.253046383292
 31
0.0
  0
LINE
  5
AD5A
330
2
100
AcDbEntity
  8
03-隠れ線
 48
0.5
100
AcDbLine
 10
-6381.381490481037
 20
2964.253046383292
 30
0.0
 11
-6421.381490481038
 21
2964.253046383292
 31
0.0
  0
ARC
  5
ADBB
330
2
100
AcDbEntity
  8
02-外形線
 48
0.5
100
AcDbCircle
 10
-1745.731863617674
 20
4287.753046383292
 30
0.0
 40
30.0
100
AcDbArc
 50
90.0
 51
174.2894068625003
  0
LINE
  5
ADBC
330
2
100
AcDbEntity
  8
02-外形線
 48
0.5
100
AcDbLine
 10
-1797.881490481038
 20
4067.753046383291
 30
0.0
 11
-1775.582979323974
 21
4290.738157953921
 31
0.0
  0
LINE
  5
ADC1
330
2
100
AcDbEntity
  8
02-外形線
 48
0.5
100
AcDbLine
 10
-1745.731863617674
 20
4317.753046383291
 30
0.0
 11
-1592.881490481036
 21
4317.753046383291
 31
0.0
  0
LINE
  5
ADC6
330
2
100
AcDbEntity
  8
02-外形線
 48
0.5
100
AcDbLine
 10
-1727.632112375432
 20
4297.753046383292
 30
0.0
 11
-1592.881490481036
 21
4297.753046383292
 31
0.0
  0
LINE
  5
ADD2
330
2
100
AcDbEntity
  8
02-外形線
 48
0.5
100
AcDbLine
 10
-1777.781739238796
 20
4067.753046383291
 30
0.0
 11
-1757.483228081732
 21
4270.738157953921
 31
0.0
  0
LINE
  5
ADDA
330
2
100
AcDbEntity
  8
02-外形線
 48
0.5
100
AcDbLine
 10
-1772.756801428236
 20
4067.75304638329
 30
0.0
 11
-1752.508042130681
 21
4270.240639358816
 31
0.0
  0
LINE
  5
ADDC
330
2
100
AcDbEntity
  8
02-外形線
 48
0.5
100
AcDbLine
 10
-1727.632112375432
 20
4292.753046383292
 30
0.0
 11
-1592.881490481036
 21
4292.753046383292
 31
0.0
  0
ARC
  5
ADE3
330
2
100
AcDbEntity
  8
02-外形線
 48
0.5
100
AcDbCircle
 10
-1727.632112375432
 20
4267.753046383291
 30
0.0
 40
30.0
100
AcDbArc
 50
90.0
 51
174.2894068624998
  0
ARC
  5
ADE5
330
2
100
AcDbEntity
  8
02-外形線
 48
0.5
100
AcDbCircle
 10
-1727.632112375432
 20
4267.753046383291
 30
0.0
 40
25.0
100
AcDbArc
 50
90.0
 51
174.2894068624998
  0
DIMENSION
  5
ADE9
330
2
100
AcDbEntity
  8
01-寸法線
 48
0.5
100
AcDbDimension
  2
*D20
 10
-1782.88149048104
 20
4217.75304638329
 30
0.0
 11
-1874.15127675305
 21
4260.798355231777
 31
0.0
 70
    33
 71
     5
 42
20.00000000000364
  3
スタイル15
100
AcDbAlignedDimension
 13
-1762.980746676837
 23
4215.76297200287
 33
0.0
 14
-1782.88149048104
 24
4217.753046383291
 34
0.0
  0
TEXT
  5
ADFD
330
2
100
AcDbEntity
  8
08-下線
100
AcDbText
 10
-1653.881490481037
 20
4418.55304638327
 30
0.0
 40
52.5
  1
ｼｰﾙ溝
  7
ｵﾘｼﾞﾅﾙｽﾀｲﾙ
 72
     1
 11
-1557.881490481037
 21
4407.75304638327
 31
0.0
100
AcDbText
 73
     1
  0
LINE
  5
ADFE
330
2
100
AcDbEntity
  8
01-寸法線
 48
0.5
100
AcDbLine
 10
-1682.881490481037
 20
4407.75304638327
 30
0.0
 11
-1432.881490481037
 21
4407.75304638327
 31
0.0
  0
INSERT
  5
ADFF
330
2
100
AcDbEntity
  8
01-寸法線
 62
     4
 48
0.5
370
    13
100
AcDbBlockReference
  2
_OPEN
 10
-1682.881490481044
 20
4317.753046383332
 30
0.0
 41
30.0
 42
30.0
 43
30.0
 50
269.9999999999985
  0
LINE
  5
AE16
330
2
100
AcDbEntity
  8
02-外形線
 48
0.5
100
AcDbLine
 10
-1797.881490481038
 20
3622.753046383291
 30
0.0
 11
-1592.881490481036
 21
3622.753046383291
 31
0.0
  0
LINE
  5
AE17
330
2
100
AcDbEntity
  8
02-外形線
 48
0.5
100
AcDbLine
 10
-1592.881490481036
 20
3617.75304638329
 30
0.0
 11
-1772.756801428237
 21
3617.75304638329
 31
0.0
  0
LINE
  5
AE51
330
2
100
AcDbEntity
  8
06-中心線
 48
0.5
100
AcDbLine
 10
-1542.881490481036
 20
3767.753046383291
 30
0.0
 11
-1847.881490481038
 21
3767.753046383291
 31
0.0
  0
DIMENSION
  5
AE5E
330
2
100
AcDbEntity
  8
01-寸法線
 48
0.5
100
AcDbDimension
  2
*D21
 10
-1392.881490481036
 20
3622.753046383291
 30
0.0
 11
-1426.631490481037
 21
3701.89304638329
 31
0.0
 70
    32
 71
     5
 42
5.0
  3
スタイル15
100
AcDbAlignedDimension
 13
-1592.881490481036
 23
3617.753046383291
 33
0.0
 14
-1592.881490481036
 24
3622.753046383291
 34
0.0
 50
90.0
100
AcDbRotatedDimension
  0
LINE
  5
AE73
330
2
100
AcDbEntity
  8
02-外形線
 48
0.5
100
AcDbLine
 10
-1017.881490481035
 20
4317.75304638329
 30
0.0
 11
-1162.881490481035
 21
4317.75304638329
 31
0.0
  0
LINE
  5
AE8C
330
2
100
AcDbEntity
  8
02-外形線
 48
0.5
100
AcDbLine
 10
-1017.881490481035
 20
4067.753046383291
 30
0.0
 11
-1017.881490481036
 21
4317.75304638329
 31
0.0
  0
LINE
  5
AE8D
330
2
100
AcDbEntity
  8
02-外形線
 48
0.5
100
AcDbLine
 10
-1012.881490481036
 20
4292.75304638329
 30
0.0
 11
-1012.881490481036
 21
4067.753046383291
 31
0.0
  0
LINE
  5
AE9E
330
2
100
AcDbEntity
  8
02-外形線
 48
0.5
100
AcDbLine
 10
-1017.881490481036
 20
4297.75304638329
 30
0.0
 11
-1012.881490481036
 21
4292.75304638329
 31
0.0
  0
LINE
  5
AF5B
330
2
100
AcDbEntity
  8
06-中心線
 48
0.5
100
AcDbLine
 10
-1162.881490481036
 20
4017.753046383291
 30
0.0
 11
-1162.881490481035
 21
4367.75304638329
 31
0.0
  0
DIMENSION
  5
AF65
330
2
100
AcDbEntity
  8
01-寸法線
 48
0.5
100
AcDbDimension
  2
*D22
 10
-1017.881490481035
 20
4517.753046383291
 30
0.0
 11
-1097.021490481035
 21
4551.503046383292
 31
0.0
 70
    32
 71
     5
 42
4.99999999999909
  3
スタイル15
100
AcDbAlignedDimension
 13
-1012.881490481036
 23
4317.753046383291
 33
0.0
 14
-1017.881490481035
 24
4317.75304638329
 34
0.0
100
AcDbRotatedDimension
  0
LINE
  5
AFCE
330
2
100
AcDbEntity
  8
DEFPOINTS
 48
0.5
100
AcDbLine
 10
114.6185095189636
 20
5832.753046383292
 30
0.0
 11
114.618509518963
 21
189.7530463832918
 31
0.0
  0
LINE
  5
B112
330
2
100
AcDbEntity
  8
03-隠れ線
 48
0.5
100
AcDbLine
 10
-6381.381490481036
 20
4199.25304638329
 30
0.0
 11
-6421.381490481035
 21
4199.253046383289
 31
0.0
  0
LINE
  5
B113
330
2
100
AcDbEntity
  8
03-隠れ線
 48
0.5
100
AcDbLine
 10
-6381.381490481035
 20
4216.253046383291
 30
0.0
 11
-6421.381490481035
 21
4216.253046383291
 31
0.0
  0
LINE
  5
B116
330
2
100
AcDbEntity
  8
03-隠れ線
 48
0.5
100
AcDbLine
 10
-6381.381490481034
 20
4232.753046383289
 30
0.0
 11
-6381.381490481035
 21
4182.753046383292
 31
0.0
  0
LINE
  5
B117
330
2
100
AcDbEntity
  8
03-隠れ線
 48
0.5
100
AcDbLine
 10
-6365.381490481036
 20
4238.753046383291
 30
0.0
 11
-6381.381490481035
 21
4232.753046383289
 31
0.0
  0
LINE
  5
B118
330
2
100
AcDbEntity
  8
03-隠れ線
 48
0.5
100
AcDbLine
 10
-6365.381490481036
 20
4176.753046383291
 30
0.0
 11
-6381.381490481036
 21
4182.753046383292
 31
0.0
  0
LINE
  5
B11A
330
2
100
AcDbEntity
  8
03-隠れ線
 48
0.5
100
AcDbLine
 10
-6421.381490481038
 20
4221.75304638329
 30
0.0
 11
-6421.381490481038
 21
4193.75304638329
 31
0.0
  0
LINE
  5
B127
330
2
100
AcDbEntity
  8
02-外形線
 48
0.5
100
AcDbLine
 10
-6365.381490481036
 20
3047.753046383292
 30
0.0
 11
-6365.381490481036
 21
1047.753046383292
 31
0.0
  0
LINE
  5
B134
330
2
100
AcDbEntity
  8
03-隠れ線
 48
0.5
100
AcDbLine
 10
-6381.381490481036
 20
1182.753046383291
 30
0.0
 11
-6381.381490481036
 21
1047.753046383291
 31
0.0
  0
LINE
  5
B135
330
2
100
AcDbEntity
  8
03-隠れ線
 48
0.5
100
AcDbLine
 10
-6365.381490481036
 20
1188.753046383291
 30
0.0
 11
-6381.381490481036
 21
1182.753046383291
 31
0.0
  0
LINE
  5
B136
330
2
100
AcDbEntity
  8
03-隠れ線
 48
0.5
100
AcDbLine
 10
-6381.381490481037
 20
1114.253046383291
 30
0.0
 11
-6421.381490481038
 21
1114.253046383291
 31
0.0
  0
LINE
  5
B137
330
2
100
AcDbEntity
  8
03-隠れ線
 48
0.5
100
AcDbLine
 10
-6381.381490481037
 20
1131.253046383291
 30
0.0
 11
-6421.381490481038
 21
1131.253046383291
 31
0.0
  0
LINE
  5
B138
330
2
100
AcDbEntity
  8
03-隠れ線
 48
0.5
100
AcDbLine
 10
-6421.381490481038
 20
1136.753046383291
 30
0.0
 11
-6421.381490481038
 21
1108.753046383291
 31
0.0
  0
TEXT
  5
B192
330
2
100
AcDbEntity
  8
08-下線
100
AcDbText
 10
-4397.78112876734
 20
4610.053046383294
 30
0.0
 40
52.5
  1
貫通穴\U+03C630
  7
ｵﾘｼﾞﾅﾙｽﾀｲﾙ
 72
     4
 11
-4205.78112876734
 21
4635.703046383294
 31
0.0
100
AcDbText
  0
LINE
  5
B193
330
2
100
AcDbEntity
  8
01-寸法線
 48
0.5
100
AcDbLine
 10
-4425.781128767341
 20
4597.753046383291
 30
0.0
 11
-3985.781128767341
 21
4597.753046383291
 31
0.0
  0
TEXT
  5
B194
330
2
100
AcDbEntity
  8
08-下線
100
AcDbText
 10
-4359.381128767341
 20
4533.103046383294
 30
0.0
 40
52.5
  1
(２箇所)
  7
ｵﾘｼﾞﾅﾙｽﾀｲﾙ
 72
     4
 11
-4205.78112876734
 21
4559.803046383294
 31
0.0
100
AcDbText
  0
LINE
  5
B1BF
330
2
100
AcDbEntity
  8
02-外形線
 48
0.5
100
AcDbLine
 10
-6365.381490481036
 20
4317.753046383291
 30
0.0
 11
-6365.381490481036
 21
4147.753046383292
 31
0.0
  0
LINE
  5
B1C0
330
2
100
AcDbEntity
  8
02-外形線
 48
0.5
100
AcDbLine
 10
-6570.381490481036
 20
4147.753046383292
 30
0.0
 11
-6365.381490481036
 21
4147.753046383292
 31
0.0
  0
DIMENSION
  5
B1C1
330
2
100
AcDbEntity
  8
01-寸法線
 48
0.5
100
AcDbDimension
  2
*D23
 10
-6570.381490481036
 20
4597.753046383291
 30
0.0
 11
-6665.121490481036
 21
4631.503046383292
 31
0.0
 70
    32
 71
     5
 42
25.0
  3
スタイル15
100
AcDbAlignedDimension
 13
-6545.381490481036
 23
4397.753046383292
 33
0.0
 14
-6570.381490481036
 24
4147.753046383292
 34
0.0
100
AcDbRotatedDimension
  0
DIMENSION
  5
B1D0
330
2
100
AcDbEntity
  8
01-寸法線
 48
0.5
100
AcDbDimension
  2
*D24
 10
-6365.381490481036
 20
4597.753046383291
 30
0.0
 11
-6455.381490481037
 21
4631.503046383292
 31
0.0
 70
    32
 71
     5
 42
180.0
  3
スタイル15
100
AcDbAlignedDimension
 13
-6545.381490481036
 23
4397.753046383292
 33
0.0
 14
-6365.381490481036
 24
4397.753046383292
 34
0.0
100
AcDbRotatedDimension
  0
LINE
  5
B1E6
330
2
100
AcDbEntity
  8
03-隠れ線
 48
0.5
100
AcDbLine
 10
-6565.881490481036
 20
4192.753046383291
 30
0.0
 11
-6365.381490481036
 21
4192.753046383291
 31
0.0
  0
LINE
  5
B1E7
330
2
100
AcDbEntity
  8
03-隠れ線
 48
0.5
100
AcDbLine
 10
-6567.881490481036
 20
4172.753046383292
 30
0.0
 11
-6365.381490481036
 21
4172.753046383292
 31
0.0
  0
DIMENSION
  5
B1E8
330
2
100
AcDbEntity
  8
01-寸法線
 48
0.5
100
AcDbDimension
  2
*D25
 10
-6870.381490481036
 20
4397.753046383292
 30
0.0
 11
-6904.131490481038
 21
4272.753046383289
 31
0.0
 70
    32
 71
     5
 42
250.0
  3
スタイル15
100
AcDbAlignedDimension
 13
-6570.381490481036
 23
4147.753046383292
 33
0.0
 14
-6546.118447233945
 24
4397.753046383292
 34
0.0
 50
90.0
100
AcDbRotatedDimension
  0
LINE
  5
B1F7
330
2
100
AcDbEntity
  8
06-中心線
 48
0.5
100
AcDbLine
 10
-6785.381490481036
 20
4182.75304638329
 30
0.0
 11
-6315.381490481036
 21
4182.75304638329
 31
0.0
  0
DIMENSION
  5
B1FA
330
2
100
AcDbEntity
  8
01-寸法線
 48
0.5
100
AcDbDimension
  2
*D26
 10
-6770.381490481035
 20
4147.753046383291
 30
0.0
 11
-6804.131490481037
 21
4053.253046383289
 31
0.0
 70
    32
 71
     5
 42
35.0
  3
スタイル15
100
AcDbAlignedDimension
 13
-6770.381490481035
 23
4182.75304638329
 33
0.0
 14
-6770.381490481035
 24
4147.753046383291
 34
0.0
 50
90.0
100
AcDbRotatedDimension
  0
LINE
  5
B249
330
2
100
AcDbEntity
  8
02-外形線
 48
0.5
100
AcDbLine
 10
-6570.381490481036
 20
3047.753046383292
 30
0.0
 11
-6570.381490481037
 21
1047.753046383292
 31
0.0
  0
DIMENSION
  5
B255
330
2
100
AcDbEntity
  8
01-寸法線
 48
0.5
100
AcDbDimension
  2
*D27
 10
-6365.381490481036
 20
3947.753046383292
 30
0.0
 11
-6467.881490481037
 21
3981.503046383292
 31
0.0
 70
    32
 71
     5
 42
205.0
  3
スタイル15
100
AcDbAlignedDimension
 13
-6570.381490481036
 23
4147.753046383292
 33
0.0
 14
-6365.381490481036
 24
4147.753046383292
 34
0.0
100
AcDbRotatedDimension
  0
LINE
  5
B26F
330
2
100
AcDbEntity
  8
06-中心線
 48
0.5
100
AcDbLine
 10
-6620.381490481037
 20
1547.753046383292
 30
0.0
 11
-6315.381490481036
 21
1547.753046383292
 31
0.0
  0
LINE
  5
B271
330
2
100
AcDbEntity
  8
03-隠れ線
 48
0.5
100
AcDbLine
 10
-6566.881490481037
 20
1562.753046383292
 30
0.0
 11
-6365.381490481037
 21
1562.753046383292
 31
0.0
  0
LINE
  5
B272
330
2
100
AcDbEntity
  8
03-隠れ線
 48
0.5
100
AcDbLine
 10
-6566.881490481037
 20
1532.753046383292
 30
0.0
 11
-6365.381490481037
 21
1532.753046383292
 31
0.0
  0
LINE
  5
B274
330
2
100
AcDbEntity
  8
02-外形線
 48
0.5
100
AcDbLine
 10
-6566.881490481037
 20
1562.753046383292
 30
0.0
 11
-6566.881490481037
 21
1532.753046383292
 31
0.0
  0
LINE
  5
B277
330
2
100
AcDbEntity
  8
02-外形線
 48
0.5
100
AcDbLine
 10
-6566.881490481037
 20
2562.753046383293
 30
0.0
 11
-6566.881490481037
 21
2532.753046383292
 31
0.0
  0
LINE
  5
B278
330
2
100
AcDbEntity
  8
03-隠れ線
 48
0.5
100
AcDbLine
 10
-6566.881490481037
 20
2532.753046383292
 30
0.0
 11
-6365.381490481037
 21
2532.753046383292
 31
0.0
  0
LINE
  5
B279
330
2
100
AcDbEntity
  8
06-中心線
 48
0.5
100
AcDbLine
 10
-6620.381490481037
 20
2547.753046383292
 30
0.0
 11
-6315.381490481036
 21
2547.753046383292
 31
0.0
  0
LINE
  5
B27A
330
2
100
AcDbEntity
  8
03-隠れ線
 48
0.5
100
AcDbLine
 10
-6566.881490481037
 20
2562.753046383293
 30
0.0
 11
-6365.381490481037
 21
2562.753046383293
 31
0.0
  0
LINE
  5
B290
330
2
100
AcDbEntity
  8
02-外形線
 48
0.5
100
AcDbLine
 10
-5165.381490481036
 20
4397.753046383292
 30
0.0
 11
-3170.381490481036
 21
4397.753046383292
 31
0.0
  0
DIMENSION
  5
B291
330
2
100
AcDbEntity
  8
01-寸法線
 48
0.5
100
AcDbDimension
  2
*D28
 10
-3165.381490481036
 20
4597.753046383291
 30
0.0
 11
-3202.881490481036
 21
4597.753046383291
 31
0.0
 70
   160
 71
     5
 42
75.0
  3
スタイル15
100
AcDbAlignedDimension
 13
-3240.381490481036
 23
4397.753046383292
 33
0.0
 14
-3165.381490481036
 24
4397.753046383292
 34
0.0
100
AcDbRotatedDimension
  0
DIMENSION
  5
B2D5
330
2
100
AcDbEntity
  8
01-寸法線
 48
0.5
100
AcDbDimension
  2
*D29
 10
-5090.381490481036
 20
4597.753046383291
 30
0.0
 11
-5127.881490481036
 21
4597.753046383291
 31
0.0
 70
   160
 71
     5
 42
75.0
  3
スタイル15
100
AcDbAlignedDimension
 13
-5165.381490481036
 23
4397.753046383292
 33
0.0
 14
-5090.381490481036
 24
4397.753046383292
 34
0.0
100
AcDbRotatedDimension
  0
CIRCLE
  5
B31C
330
2
100
AcDbEntity
  8
02-外形線
 48
0.5
100
AcDbCircle
 10
-4665.381490481036
 20
4182.753046383292
 30
0.0
 40
15.0
  0
CIRCLE
  5
B31D
330
2
100
AcDbEntity
  8
02-外形線
 48
0.5
100
AcDbCircle
 10
-3665.381490481036
 20
4182.753046383292
 30
0.0
 40
15.0
  0
DIMENSION
  5
B336
330
2
100
AcDbEntity
  8
01-寸法線
 48
0.5
100
AcDbDimension
  2
*D30
 10
-4465.381490481036
 20
4147.753046383292
 30
0.0
 11
-4499.131490481037
 21
4053.253046383291
 31
0.0
 70
    32
 71
     5
 42
35.0
  3
スタイル15
100
AcDbAlignedDimension
 13
-4650.381490481036
 23
4182.753046383292
 33
0.0
 14
-4665.381490481036
 24
4147.753046383292
 34
0.0
 50
90.0
100
AcDbRotatedDimension
  0
LINE
  5
B351
330
2
100
AcDbEntity
  8
01-寸法線
 48
0.5
100
AcDbLine
 10
-4657.881490481036
 20
4195.743427440058
 30
0.0
 11
-4425.781128767341
 21
4597.753046383291
 31
0.0
  0
INSERT
  5
B369
330
2
100
AcDbEntity
  8
01-寸法線
 62
     4
 48
0.5
370
    13
100
AcDbBlockReference
  2
_OPEN
 10
-4657.881490481036
 20
4195.743427440058
 30
0.0
 41
30.0
 42
30.0
 43
30.0
 50
239.9999999999992
  0
LINE
  5
B375
330
2
100
AcDbEntity
  8
01-寸法線
 48
0.5
100
AcDbLine
 10
-1682.881490481037
 20
4317.753046383291
 30
0.0
 11
-1682.881490481037
 21
4407.75304638327
 31
0.0
  0
LINE
  5
B385
330
2
100
AcDbEntity
  8
02-外形線
 48
0.5
100
AcDbLine
 10
-1592.881490481036
 20
4237.753046383294
 30
0.0
 11
-1592.881490481036
 21
4067.753046383291
 31
0.0
  0
LINE
  5
B386
330
2
100
AcDbEntity
  8
02-外形線
 48
0.5
100
AcDbLine
 10
-1797.881490481038
 20
4067.75304638329
 30
0.0
 11
-1592.881490481036
 21
4067.753046383291
 31
0.0
  0
LINE
  5
B390
330
2
100
AcDbEntity
  8
02-外形線
 48
0.5
100
AcDbLine
 10
-1162.881490481036
 20
4067.753046383291
 30
0.0
 11
-1012.881490481036
 21
4067.753046383291
 31
0.0
  0
LINE
  5
B3D7
330
2
100
AcDbEntity
  8
02-外形線
 48
0.5
100
AcDbLine
 10
-1772.756801428237
 20
3617.75304638329
 30
0.0
 11
-1777.756801428236
 21
3622.753046383291
 31
0.0
  0
LINE
  5
B3DA
330
2
100
AcDbEntity
  8
02-外形線
 48
0.5
100
AcDbLine
 10
-1797.881490481038
 20
3767.753046383291
 30
0.0
 11
-1797.881490481038
 21
3622.753046383291
 31
0.0
  0
LINE
  5
B3DB
330
2
100
AcDbEntity
  8
02-外形線
 48
0.5
100
AcDbLine
 10
-1592.881490481036
 20
3767.753046383291
 30
0.0
 11
-1592.881490481036
 21
3617.75304638329
 31
0.0
  0
LINE
  5
B3DC
330
2
100
AcDbEntity
  8
02-外形線
 48
0.5
100
AcDbLine
 10
-1772.881490481038
 20
3622.753046383291
 30
0.0
 11
-1772.881490481038
 21
3767.753046383291
 31
0.0
  0
TEXT
  5
C68A
330
2
100
AcDbEntity
  8
08-下線
100
AcDbText
 10
-1857.03863333818
 20
3011.124474954721
 30
0.0
 40
65.0
  1
%%Uｼｰﾙ材の品質及び性能
  7
ｵﾘｼﾞﾅﾙｽﾀｲﾙ
 72
     1
 11
-1405.381490481037
 21
2997.753046383292
 31
0.0
100
AcDbText
 73
     1
  0
TEXT
  5
C68B
330
2
100
AcDbEntity
  8
08-下線
100
AcDbText
 10
-1563.581490481038
 20
2699.003046383292
 30
0.0
 40
25.0
  1
2
  7
ｵﾘｼﾞﾅﾙｽﾀｲﾙ
 11
-1563.581490481038
 21
2724.003046383292
 31
0.0
100
AcDbText
 73
     3
  0
TEXT
  5
C68C
330
2
100
AcDbEntity
  8
08-下線
100
AcDbText
 10
-1736.381490481037
 20
2771.503046383292
 30
0.0
 40
52.5
  1
単 位
  7
ｵﾘｼﾞﾅﾙｽﾀｲﾙ
 72
     1
 11
-1640.381490481037
 21
2797.753046383292
 31
0.0
100
AcDbText
 73
     2
  0
TEXT
  5
C68D
330
2
100
AcDbEntity
  8
08-下線
100
AcDbText
 10
-1563.581490481038
 20
2499.003046383292
 30
0.0
 40
25.0
  1
2
  7
ｵﾘｼﾞﾅﾙｽﾀｲﾙ
 11
-1563.581490481038
 21
2524.003046383292
 31
0.0
100
AcDbText
 73
     3
  0
LINE
  5
C68E
330
2
100
AcDbEntity
  8
10-罫線
 48
0.5
100
AcDbLine
 10
-2390.381490481037
 20
2047.753046383292
 30
0.0
 11
-320.381490481037
 21
2047.753046383292
 31
0.0
  0
TEXT
  5
C68F
330
2
100
AcDbEntity
  8
08-下線
100
AcDbText
 10
-1851.181490481037
 20
2171.503046383292
 30
0.0
 40
52.5
  1
亀裂、削れ等異常なきこと
  7
ｵﾘｼﾞﾅﾙｽﾀｲﾙ
 72
     1
 11
-1390.381490481037
 21
2197.753046383292
 31
0.0
100
AcDbText
 73
     2
  0
LINE
  5
C690
330
2
100
AcDbEntity
  8
10-罫線
 48
0.5
100
AcDbLine
 10
-2390.381490481037
 20
2347.753046383292
 30
0.0
 11
-320.381490481037
 21
2347.753046383292
 31
0.0
  0
LINE
  5
C691
330
2
100
AcDbEntity
  8
10-罫線
 48
0.5
100
AcDbLine
 10
-2490.381490481037
 20
2447.753046383292
 30
0.0
 11
-320.381490481037
 21
2447.753046383292
 31
0.0
  0
LINE
  5
C692
330
2
100
AcDbEntity
  8
10-罫線
 48
0.5
100
AcDbLine
 10
-2390.381490481037
 20
2547.753046383292
 30
0.0
 11
-320.381490481037
 21
2547.753046383292
 31
0.0
  0
LINE
  5
C693
330
2
100
AcDbEntity
  8
10-罫線
 48
0.5
100
AcDbLine
 10
-2390.381490481037
 20
2647.753046383292
 30
0.0
 11
-320.381490481037
 21
2647.753046383292
 31
0.0
  0
LINE
  5
C694
330
2
100
AcDbEntity
  8
10-罫線
 48
0.5
100
AcDbLine
 10
-2390.381490481037
 20
2747.753046383292
 30
0.0
 11
-320.381490481037
 21
2747.753046383292
 31
0.0
  0
LINE
  5
C695
330
2
100
AcDbEntity
  8
10-罫線
 48
0.5
100
AcDbLine
 10
-2490.381490481037
 20
2847.753046383292
 30
0.0
 11
-320.381490481037
 21
2847.753046383292
 31
0.0
  0
LINE
  5
C696
330
2
100
AcDbEntity
  8
10-罫線
 48
0.5
100
AcDbLine
 10
-2490.381490481037
 20
1747.753046383292
 30
0.0
 11
-320.381490481037
 21
1747.753046383292
 31
0.0
  0
TEXT
  5
C697
330
2
100
AcDbEntity
  8
08-下線
100
AcDbText
 10
-1851.181490481036
 20
1871.503046383292
 30
0.0
 40
52.5
  1
亀裂、破れ、溶け等
  7
ｵﾘｼﾞﾅﾙｽﾀｲﾙ
 11
-1851.181490481036
 21
1897.753046383291
 31
0.0
100
AcDbText
 73
     2
  0
TEXT
  5
C699
330
2
100
AcDbEntity
  8
08-下線
100
AcDbText
 10
-2255.581490481037
 20
2271.503046383292
 30
0.0
 40
52.5
  1
耐候性
  7
ｵﾘｼﾞﾅﾙｽﾀｲﾙ
 72
     1
 11
-2140.381490481037
 21
2297.753046383292
 31
0.0
100
AcDbText
 73
     2
  0
LINE
  5
C69A
330
2
100
AcDbEntity
  8
10-罫線
 48
0.5
100
AcDbLine
 10
-2390.381490481037
 20
2847.753046383292
 30
0.0
 11
-2390.381490481037
 21
1747.753046383292
 31
0.0
  0
LINE
  5
C69B
330
2
100
AcDbEntity
  8
10-罫線
 48
0.5
100
AcDbLine
 10
-1890.381490481037
 20
2847.753046383292
 30
0.0
 11
-1890.381490481037
 21
1747.753046383292
 31
0.0
  0
LINE
  5
C69C
330
2
100
AcDbEntity
  8
10-罫線
 48
0.5
100
AcDbLine
 10
-2490.381490481037
 20
2847.753046383292
 30
0.0
 11
-2490.381490481037
 21
1747.753046383292
 31
0.0
  0
TEXT
  5
C69D
330
2
100
AcDbEntity
  8
08-下線
100
AcDbText
 10
-2466.631490481037
 20
2328.153046383292
 30
0.0
 40
52.5
  1
製品性能試験
 50
270.0
  7
縦字ｽﾀｲﾙ
 72
     1
 11
-2440.381490481037
 21
2097.753046383292
 31
0.0
100
AcDbText
 73
     2
  0
TEXT
  5
C69E
330
2
100
AcDbEntity
  8
08-下線
100
AcDbText
 10
-2332.381490481037
 20
1971.503046383292
 30
0.0
 40
52.5
  1
耐ｱｽﾌｧﾙﾄ性
  7
ｵﾘｼﾞﾅﾙｽﾀｲﾙ
 72
     1
 11
-2140.381490481037
 21
1997.753046383292
 31
0.0
100
AcDbText
 73
     2
  0
TEXT
  5
C69F
330
2
100
AcDbEntity
  8
08-下線
100
AcDbText
 10
-2466.631490481037
 20
2801.353046383292
 30
0.0
 40
52.5
  1
一般物性
 50
270.0
  7
縦字ｽﾀｲﾙ
 72
     1
 11
-2440.381490481037
 21
2647.753046383292
 31
0.0
100
AcDbText
 73
     2
  0
TEXT
  5
C6A0
330
2
100
AcDbEntity
  8
08-下線
100
AcDbText
 10
-2351.581490481037
 20
2771.503046383292
 30
0.0
 40
52.5
  1
試 験 項 目
  7
ｵﾘｼﾞﾅﾙｽﾀｲﾙ
 72
     1
 11
-2140.381490481037
 21
2797.753046383292
 31
0.0
100
AcDbText
 73
     2
  0
TEXT
  5
C6A1
330
2
100
AcDbEntity
  8
08-下線
100
AcDbText
 10
-2255.581490481037
 20
2571.503046383292
 30
0.0
 40
52.5
  1
伸び率
  7
ｵﾘｼﾞﾅﾙｽﾀｲﾙ
 72
     1
 11
-2140.381490481037
 21
2597.753046383292
 31
0.0
100
AcDbText
 73
     2
  0
TEXT
  5
C6A2
330
2
100
AcDbEntity
  8
08-下線
100
AcDbText
 10
-2293.981490481037
 20
2671.503046383292
 30
0.0
 40
52.5
  1
引張強さ
  7
ｵﾘｼﾞﾅﾙｽﾀｲﾙ
 72
     1
 11
-2140.381490481037
 21
2697.753046383292
 31
0.0
100
AcDbText
 73
     2
  0
TEXT
  5
C6A3
330
2
100
AcDbEntity
  8
08-下線
100
AcDbText
 10
-2351.581490481037
 20
2371.503046383292
 30
0.0
 40
52.5
  1
試 験 項 目
  7
ｵﾘｼﾞﾅﾙｽﾀｲﾙ
 72
     1
 11
-2140.381490481037
 21
2397.753046383292
 31
0.0
100
AcDbText
 73
     2
  0
TEXT
  5
C6A4
330
2
100
AcDbEntity
  8
08-下線
100
AcDbText
 10
-2370.781490481037
 20
2471.503046383292
 30
0.0
 40
52.5
  1
50％圧縮硬さ
  7
ｵﾘｼﾞﾅﾙｽﾀｲﾙ
 72
     1
 11
-2140.381490481037
 21
2497.753046383292
 31
0.0
100
AcDbText
 73
     2
  0
TEXT
  5
C6A5
330
2
100
AcDbEntity
  8
08-下線
100
AcDbText
 10
-1717.181490481037
 20
2471.503046383292
 30
0.0
 40
52.5
  1
N/mm
  7
ｵﾘｼﾞﾅﾙｽﾀｲﾙ
 72
     1
 11
-1640.381490481037
 21
2497.753046383292
 31
0.0
100
AcDbText
 73
     2
  0
TEXT
  5
C6A6
330
2
100
AcDbEntity
  8
08-下線
100
AcDbText
 10
-1717.181490481037
 20
2671.503046383292
 30
0.0
 40
52.5
  1
N/mm
  7
ｵﾘｼﾞﾅﾙｽﾀｲﾙ
 72
     1
 11
-1640.381490481037
 21
2697.753046383292
 31
0.0
100
AcDbText
 73
     2
  0
TEXT
  5
C6A7
330
2
100
AcDbEntity
  8
08-下線
100
AcDbText
 10
-1678.781490481037
 20
2571.503046383292
 30
0.0
 40
52.5
  1
％
  7
ｵﾘｼﾞﾅﾙｽﾀｲﾙ
 72
     1
 11
-1640.381490481037
 21
2597.753046383292
 31
0.0
100
AcDbText
 73
     2
  0
TEXT
  5
C6A8
330
2
100
AcDbEntity
  8
08-下線
100
AcDbText
 10
-874.1814904810368
 20
2271.503046383292
 30
0.0
 40
52.5
  1
JIS K 6266によ
  7
ｵﾘｼﾞﾅﾙｽﾀｲﾙ
 72
     1
 11
-605.3814904810369
 21
2297.753046383292
 31
0.0
100
AcDbText
 73
     2
  0
TEXT
  5
C6A9
330
2
100
AcDbEntity
  8
08-下線
100
AcDbText
 10
-1543.981490481037
 20
2271.503046383292
 30
0.0
 40
52.5
  1
外観表面
  7
ｵﾘｼﾞﾅﾙｽﾀｲﾙ
 72
     1
 11
-1390.381490481037
 21
2297.753046383292
 31
0.0
100
AcDbText
 73
     2
  0
LINE
  5
C6AA
330
2
100
AcDbEntity
  8
10-罫線
 48
0.5
100
AcDbLine
 10
-890.3814904810369
 20
2847.753046383292
 30
0.0
 11
-890.3814904810369
 21
1747.753046383292
 31
0.0
  0
LINE
  5
C6AB
330
2
100
AcDbEntity
  8
10-罫線
 48
0.5
100
AcDbLine
 10
-320.381490481037
 20
2847.753046383292
 30
0.0
 11
-320.381490481037
 21
1747.753046383292
 31
0.0
  0
TEXT
  5
C6AC
330
2
100
AcDbEntity
  8
08-下線
100
AcDbText
 10
-1390.381490481036
 20
1771.503046383292
 30
0.0
 40
52.5
  1
異常なきこと
  7
ｵﾘｼﾞﾅﾙｽﾀｲﾙ
 72
     2
 11
-929.5814904810368
 21
1797.753046383292
 31
0.0
100
AcDbText
 73
     2
  0
TEXT
  5
C6AD
330
2
100
AcDbEntity
  8
08-下線
100
AcDbText
 10
-874.1814904810368
 20
2171.503046383292
 30
0.0
 40
52.5
  1
る ｻﾝｼｬｲﾝｶｰﾎﾞﾝ
  7
ｵﾘｼﾞﾅﾙｽﾀｲﾙ
 72
     1
 11
-605.3814904810369
 21
2197.753046383292
 31
0.0
100
AcDbText
 73
     2
  0
TEXT
  5
C6AE
330
2
100
AcDbEntity
  8
08-下線
100
AcDbText
 10
-874.1814904810372
 20
1971.503046383292
 30
0.0
 40
52.5
  1
185℃熱板で
  7
ｵﾘｼﾞﾅﾙｽﾀｲﾙ
 11
-874.1814904810372
 21
1997.753046383292
 31
0.0
100
AcDbText
 73
     2
  0
TEXT
  5
C6AF
330
2
100
AcDbEntity
  8
08-下線
100
AcDbText
 10
-1543.981490481037
 20
1971.503046383292
 30
0.0
 40
52.5
  1
外観表面
  7
ｵﾘｼﾞﾅﾙｽﾀｲﾙ
 72
     1
 11
-1390.381490481037
 21
1997.753046383292
 31
0.0
100
AcDbText
 73
     2
  0
TEXT
  5
C6B0
330
2
100
AcDbEntity
  8
08-下線
100
AcDbText
 10
-701.3814904810369
 20
2071.503046383292
 30
0.0
 40
52.5
  1
1000H
  7
ｵﾘｼﾞﾅﾙｽﾀｲﾙ
 72
     1
 11
-605.3814904810369
 21
2097.753046383292
 31
0.0
100
AcDbText
 73
     2
  0
TEXT
  5
C6B1
330
2
100
AcDbEntity
  8
08-下線
100
AcDbText
 10
-682.1814904810367
 20
1871.503046383292
 30
0.0
 40
52.5
  1
1分間放置
  7
ｵﾘｼﾞﾅﾙｽﾀｲﾙ
 72
     2
 11
-336.5814904810368
 21
1897.753046383291
 31
0.0
100
AcDbText
 73
     2
  0
TEXT
  5
C6B2
330
2
100
AcDbEntity
  8
08-下線
100
AcDbText
 10
-816.5814904810369
 20
2771.503046383292
 30
0.0
 40
52.5
  1
試 験 方 法
  7
ｵﾘｼﾞﾅﾙｽﾀｲﾙ
 72
     1
 11
-605.3814904810369
 21
2797.753046383292
 31
0.0
100
AcDbText
 73
     2
  0
TEXT
  5
C6B3
330
2
100
AcDbEntity
  8
08-下線
100
AcDbText
 10
-1255.581490481037
 20
2771.503046383292
 30
0.0
 40
52.5
  1
規格値
  7
ｵﾘｼﾞﾅﾙｽﾀｲﾙ
 72
     1
 11
-1140.381490481037
 21
2797.753046383292
 31
0.0
100
AcDbText
 73
     2
  0
LINE
  5
C6B4
330
2
100
AcDbEntity
  8
10-罫線
 48
0.5
100
AcDbLine
 10
-1390.381490481037
 20
2847.753046383292
 30
0.0
 11
-1390.381490481037
 21
2447.753046383292
 31
0.0
  0
TEXT
  5
C6B5
330
2
100
AcDbEntity
  8
08-下線
100
AcDbText
 10
-1293.981490481037
 20
2471.503046383292
 30
0.0
 40
52.5
  1
0.05以下
  7
ｵﾘｼﾞﾅﾙｽﾀｲﾙ
 72
     1
 11
-1140.381490481037
 21
2497.753046383292
 31
0.0
100
AcDbText
 73
     2
  0
TEXT
  5
C6B6
330
2
100
AcDbEntity
  8
08-下線
100
AcDbText
 10
-1543.981490481037
 20
2371.503046383292
 30
0.0
 40
52.5
  1
規 格 値
  7
ｵﾘｼﾞﾅﾙｽﾀｲﾙ
 72
     1
 11
-1390.381490481037
 21
2397.753046383292
 31
0.0
100
AcDbText
 73
     2
  0
TEXT
  5
C6B7
330
2
100
AcDbEntity
  8
08-下線
100
AcDbText
 10
-1274.781490481037
 20
2571.503046383292
 30
0.0
 40
52.5
  1
100以上
  7
ｵﾘｼﾞﾅﾙｽﾀｲﾙ
 72
     1
 11
-1140.381490481037
 21
2597.753046383292
 31
0.0
100
AcDbText
 73
     2
  0
TEXT
  5
C6B8
330
2
100
AcDbEntity
  8
08-下線
100
AcDbText
 10
-1293.981490481037
 20
2671.503046383292
 30
0.0
 40
52.5
  1
0.05以上
  7
ｵﾘｼﾞﾅﾙｽﾀｲﾙ
 72
     1
 11
-1140.381490481037
 21
2697.753046383292
 31
0.0
100
AcDbText
 73
     2
  0
TEXT
  5
C6B9
330
2
100
AcDbEntity
  8
08-下線
100
AcDbText
 10
-816.5814904810369
 20
2371.503046383292
 30
0.0
 40
52.5
  1
試 験 方 法
  7
ｵﾘｼﾞﾅﾙｽﾀｲﾙ
 72
     1
 11
-605.3814904810369
 21
2397.753046383292
 31
0.0
100
AcDbText
 73
     2
  0
TEXT
  5
C6BA
330
2
100
AcDbEntity
  8
08-下線
100
AcDbText
 10
-797.3814904810369
 20
2471.503046383292
 30
0.0
 40
52.5
  1
JIS K 6767
  7
ｵﾘｼﾞﾅﾙｽﾀｲﾙ
 72
     1
 11
-605.3814904810369
 21
2497.753046383292
 31
0.0
100
AcDbText
 73
     2
  0
TEXT
  5
C6BB
330
2
100
AcDbEntity
  8
08-下線
100
AcDbText
 10
-797.3814904810369
 20
2571.503046383292
 30
0.0
 40
52.5
  1
JIS K 6767
  7
ｵﾘｼﾞﾅﾙｽﾀｲﾙ
 72
     1
 11
-605.3814904810369
 21
2597.753046383292
 31
0.0
100
AcDbText
 73
     2
  0
TEXT
  5
C6BC
330
2
100
AcDbEntity
  8
08-下線
100
AcDbText
 10
-797.3814904810369
 20
2671.503046383292
 30
0.0
 40
52.5
  1
JIS K 6767
  7
ｵﾘｼﾞﾅﾙｽﾀｲﾙ
 72
     1
 11
-605.3814904810369
 21
2697.753046383292
 31
0.0
100
AcDbText
 73
     2
  0
LINE
  5
C6BF
330
2
100
AcDbEntity
  8
01-寸法線
 62
     4
 48
0.5
370
     9
100
AcDbLine
 10
-1205.381490481037
 20
1012.753046383292
 30
0.0
 11
-1205.381490481037
 21
1042.753046383292
 31
0.0
  0
MTEXT
  5
C6C0
330
2
100
AcDbEntity
  8
01-寸法線
 62
     4
 48
0.5
100
AcDbMText
 10
-1456.011379357767
 20
1006.261329246321
 30
0.0
 40
52.5
 41
0.0
 71
     5
 72
     1
  1
C=3
  7
ｵﾘｼﾞﾅﾙｽﾀｲﾙ
 73
     1
 44
1.0
  0
LINE
  5
C6C1
330
2
100
AcDbEntity
  8
02-外形線
 48
0.5
100
AcDbLine
 10
-1405.381490481037
 20
1162.753046383293
 30
0.0
 11
-1547.179516491009
 21
960.2444781771847
 31
0.0
  0
LINE
  5
C6C2
330
2
100
AcDbEntity
  8
01-寸法線
 62
     4
 48
0.5
370
     9
100
AcDbLine
 10
-1405.381490481037
 20
982.7530463832918
 30
0.0
 11
-1615.580723690449
 21
1192.952279592705
 31
0.0
  0
LINE
  5
C6C3
330
2
100
AcDbEntity
  8
01-寸法線
 62
     4
 48
0.5
370
     9
100
AcDbLine
 10
-1554.062433727218
 20
950.414653645722
 30
0.0
 11
-1706.090391682324
 21
1102.442611600829
 31
0.0
  0
CIRCLE
  5
C6C4
330
2
100
AcDbEntity
  8
01-寸法線
 48
0.5
100
AcDbCircle
 10
-1405.381490481037
 20
982.7530463832918
 30
0.0
 40
415.0
  0
LINE
  5
C6C5
330
2
100
AcDbEntity
  8
01-寸法線
 62
     4
 48
0.5
370
     9
100
AcDbLine
 10
-1205.381490481037
 20
1012.753046383292
 30
0.0
 11
-1205.381490481037
 21
1132.753046383288
 31
0.0
  0
LINE
  5
C6C6
330
2
100
AcDbEntity
  8
01-寸法線
 62
     4
 48
0.5
370
     9
100
AcDbLine
 10
-1390.381490481037
 20
982.7530463832918
 30
0.0
 11
-1190.381490481037
 21
982.7530463832918
 31
0.0
  0
LINE
  5
C6C7
330
2
100
AcDbEntity
  8
01-寸法線
 62
     4
 48
0.5
370
     9
100
AcDbLine
 10
-1390.381490481037
 20
962.7530463832931
 30
0.0
 11
-1190.381490481037
 21
962.7530463832931
 31
0.0
  0
LINE
  5
C6C8
330
2
100
AcDbEntity
  8
01-寸法線
 62
     4
 48
0.5
370
     9
100
AcDbLine
 10
-1405.381490481037
 20
982.7530463832918
 30
0.0
 11
-1190.381490481037
 21
982.7530463832918
 31
0.0
  0
INSERT
  5
C6C9
330
2
100
AcDbEntity
  8
01-寸法線
 62
     4
 48
0.5
370
     9
100
AcDbBlockReference
  2
_OPEN
 10
-1289.911436643111
 20
762.7530463832932
 30
0.0
 41
-30.0
 42
30.0
 43
30.0
 50
359.9999999999999
  0
LINE
  5
C6CA
330
2
100
AcDbEntity
  8
01-寸法線
 48
0.5
100
AcDbLine
 10
-1405.381490481037
 20
962.7530463832931
 30
0.0
 11
-1281.251182605267
 21
747.7530463832931
 31
0.0
  0
LINE
  5
C6CB
330
2
100
AcDbEntity
  8
01-寸法線
 48
0.5
100
AcDbLine
 10
-1425.381490481037
 20
962.7530463832931
 30
0.0
 11
-1301.251182605267
 21
747.7530463832931
 31
0.0
  0
MTEXT
  5
C6CC
330
2
100
AcDbEntity
  8
01-寸法線
 62
     4
 48
0.5
100
AcDbMText
 10
-1444.683790847804
 20
843.7458951490661
 30
0.0
 40
52.5
 41
0.0
 71
     5
 72
     1
  1
\A1;55\U+00B0
  7
ｵﾘｼﾞﾅﾙｽﾀｲﾙ
 11
0.8433914458128892
 21
-0.5372996083468183
 31
0.0
 73
     1
 44
1.0
  0
LINE
  5
C6CD
330
2
100
AcDbEntity
  8
02-外形線
 48
0.5
100
AcDbLine
 10
-1405.381490481037
 20
962.7530463832931
 30
0.0
 11
-1405.381490481037
 21
572.7530463832922
 31
0.0
  0
LINE
  5
C6CE
330
2
100
AcDbEntity
  8
01-寸法線
 62
     4
 48
0.5
370
     9
100
AcDbLine
 10
-1653.27181119216
 20
766.7813186360399
 30
0.0
 11
-1695.48378996453
 21
808.9932974084094
 31
0.0
  0
LINE
  5
C6CF
330
2
100
AcDbEntity
  8
01-寸法線
 62
     4
 48
0.5
370
     9
100
AcDbLine
 10
-1511.85045495485
 20
908.2026748733492
 30
0.0
 11
-1663.878412909959
 21
756.1747169182417
 31
0.0
  0
INSERT
  5
C6D0
330
2
100
AcDbEntity
  8
01-寸法線
 62
     4
 48
0.5
370
     9
100
AcDbBlockReference
  2
_OPEN
 10
-1653.27181119216
 20
766.7813186360399
 30
0.0
 41
-30.0
 42
30.0
 43
30.0
 50
314.9999999999999
  0
LINE
  5
C6D1
330
2
100
AcDbEntity
  8
01-寸法線
 62
     4
 48
0.5
370
     9
100
AcDbLine
 10
-1632.058607756564
 20
745.5681152004435
 30
0.0
 11
-1610.845404320967
 21
724.3549117648472
 31
0.0
  0
LINE
  5
C6D2
330
2
100
AcDbEntity
  8
01-寸法線
 62
     4
 48
0.5
370
     9
100
AcDbLine
 10
-1339.911436643111
 20
762.7530463832932
 30
0.0
 11
-1369.911436643111
 21
762.7530463832932
 31
0.0
  0
LINE
  5
C6D3
330
2
100
AcDbEntity
  8
01-寸法線
 62
     4
 48
0.5
370
     9
100
AcDbLine
 10
-1309.911436643111
 20
762.7530463832932
 30
0.0
 11
-1289.911436643111
 21
762.7530463832932
 31
0.0
  0
INSERT
  5
C6D4
330
2
100
AcDbEntity
  8
01-寸法線
 62
     4
 48
0.5
370
     9
100
AcDbBlockReference
  2
_OPEN
 10
-1309.911436643111
 20
762.7530463832932
 30
0.0
 41
-30.0
 42
30.0
 43
30.0
 50
180.0
  0
LINE
  5
C6D5
330
2
100
AcDbEntity
  8
01-寸法線
 62
     4
 48
0.5
370
     9
100
AcDbLine
 10
-1554.06243372722
 20
950.4146536457183
 30
0.0
 11
-1706.090391682328
 21
798.3866956906108
 31
0.0
  0
MTEXT
  5
C6D6
330
2
100
AcDbEntity
  8
01-寸法線
 62
     4
 48
0.5
100
AcDbMText
 10
-1737.252587529219
 20
898.4918027031898
 30
0.0
 40
52.5
 41
0.0
 71
     5
 72
     1
  1
\A1;15
  7
ｵﾘｼﾞﾅﾙｽﾀｲﾙ
 11
0.7071067811865474
 21
-0.7071067811865478
 31
0.0
 73
     1
 44
1.0
  0
LINE
  5
C6D7
330
2
100
AcDbEntity
  8
01-寸法線
 62
     4
 48
0.5
370
     9
100
AcDbLine
 10
-1716.696993400126
 20
830.2065008440058
 30
0.0
 11
-1784.324685952808
 21
897.8341933966872
 31
0.0
  0
INSERT
  5
C6D8
330
2
100
AcDbEntity
  8
01-寸法線
 62
     4
 48
0.5
370
     9
100
AcDbBlockReference
  2
_OPEN
 10
-1695.48378996453
 20
808.9932974084094
 30
0.0
 41
-29.99999999999996
 42
30.0
 43
30.0
 50
134.9999999999999
  0
ARC
  5
C6D9
330
2
100
AcDbEntity
  8
01-寸法線
 62
     4
 48
0.5
370
     9
100
AcDbCircle
 10
-1405.381490481037
 20
982.7530463832918
 30
0.0
 40
99.9999999999998
100
AcDbArc
 50
232.2538531173554
 51
252.74614688267
  0
INSERT
  5
C6DA
330
2
100
AcDbEntity
  8
01-寸法線
 62
     4
 48
0.5
370
     9
100
AcDbBlockReference
  2
_OPEN
 10
-1405.381490481037
 20
882.7530463832923
 30
0.0
 41
-30.00000000000027
 42
30.0
 43
30.0
 50
171.3730734413214
  0
LINE
  5
C6DB
330
2
100
AcDbEntity
  8
02-外形線
 48
0.5
100
AcDbLine
 10
-1425.381490481037
 20
968.7488956190982
 30
0.0
 11
-1502.020630423382
 21
915.0855921095622
 31
0.0
  0
LINE
  5
C6DC
330
2
100
AcDbEntity
  8
02-外形線
 48
0.5
100
AcDbLine
 10
-1547.179516491009
 20
960.2444781771865
 30
0.0
 11
-1545.577152352982
 21
941.929372271481
 31
0.0
  0
LINE
  5
C6DD
330
2
100
AcDbEntity
  8
01-寸法線
 48
0.5
100
AcDbLine
 10
-1549.112686258913
 20
945.464906177413
 30
0.0
 11
-1554.06243372722
 21
950.4146536457183
 31
0.0
  0
LINE
  5
C6DE
330
2
100
AcDbEntity
  8
01-寸法線
 48
0.5
100
AcDbLine
 10
-1490.530037469847
 20
971.7350711307231
 30
0.0
 11
-1546.378334421995
 21
951.0869252243336
 31
0.0
  0
LINE
  5
C6DF
330
2
100
AcDbEntity
  8
01-寸法線
 48
0.5
100
AcDbLine
 10
-1550.047398672763
 20
956.1487179557415
 30
0.0
 11
-1554.06243372722
 21
950.4146536457188
 31
0.0
  0
INSERT
  5
C6E0
330
2
100
AcDbEntity
  8
01-寸法線
 62
     4
 48
0.5
370
     9
100
AcDbBlockReference
  2
_OPEN
 10
-1546.378334421994
 20
951.0869252243336
 30
0.0
 41
-29.99999999999998
 42
30.0
 43
30.0
 50
20.29028338594758
  0
LINE
  5
C6E1
330
2
100
AcDbEntity
  8
02-外形線
 48
0.5
100
AcDbLine
 10
-1502.020630423382
 20
915.0855921095626
 30
0.0
 11
-1520.335736329091
 21
916.6879562475896
 31
0.0
  0
LINE
  5
C6E2
330
2
100
AcDbEntity
  8
01-寸法線
 48
0.5
100
AcDbLine
 10
-1516.800202423155
 20
913.1524223416555
 30
0.0
 11
-1511.85045495485
 21
908.2026748733492
 31
0.0
  0
INSERT
  5
C6E3
330
2
100
AcDbEntity
  8
01-寸法線
 62
     4
 48
0.5
370
     9
100
AcDbBlockReference
  2
_OPEN
 10
-1487.296694909937
 20
925.395402748189
 30
0.0
 41
-30.00000000000027
 42
30.0
 43
30.0
 50
313.6269265586779
  0
LINE
  5
C6E4
330
2
100
AcDbEntity
  8
01-寸法線
 48
0.5
100
AcDbLine
 10
-1506.116390644829
 20
912.2177099278065
 30
0.0
 11
-1511.85045495485
 21
908.2026748733492
 31
0.0
  0
LINE
  5
C6E5
330
2
100
AcDbEntity
  8
01-寸法線
 48
0.5
100
AcDbLine
 10
-1532.956444341033
 20
929.3086642595371
 30
0.0
 11
-1532.956444341033
 21
929.3086642595371
 31
0.0
  0
LINE
  5
C6E6
330
2
100
AcDbEntity
  8
01-寸法線
 48
0.5
100
AcDbLine
 10
-1490.530037469843
 20
971.7350711307327
 30
0.0
 11
-1511.178183376236
 21
915.8867741785762
 31
0.0
  0
INSERT
  5
C6E7
330
2
100
AcDbEntity
  8
01-寸法線
 62
     4
 48
0.5
370
     9
100
AcDbBlockReference
  2
_OPEN
 10
-1511.178183376236
 20
915.8867741785753
 30
0.0
 41
29.99999999999987
 42
29.99999999999987
 43
29.99999999999987
 50
249.7097166140533
  0
LINE
  5
C6E8
330
2
100
AcDbEntity
  8
02-外形線
 48
0.5
100
AcDbLine
 10
-1520.335736329087
 20
916.6879562475934
 30
0.0
 11
-1545.577152352978
 21
941.929372271481
 31
0.0
  0
LINE
  5
C6E9
330
2
100
AcDbEntity
  8
01-寸法線
 48
0.5
100
AcDbLine
 10
-1405.381490481037
 20
967.7530463832917
 30
0.0
 11
-1405.381490481037
 21
982.7530463832918
 31
0.0
  0
LINE
  5
C6EA
330
2
100
AcDbEntity
  8
02-外形線
 48
0.5
100
AcDbLine
 10
-1405.381490481037
 20
962.7530463832931
 30
0.0
 11
-1425.381490481037
 21
968.7488956190982
 31
0.0
  0
LINE
  5
C6EB
330
2
100
AcDbEntity
  8
01-寸法線
 48
0.5
100
AcDbLine
 10
-1405.381490481037
 20
982.7530463832918
 30
0.0
 11
-1417.668771145372
 21
974.1493998380265
 31
0.0
  0
MTEXT
  5
C6EC
330
2
100
AcDbEntity
  8
01-寸法線
 62
     4
 48
0.5
100
AcDbMText
 10
-1210.771436643112
 20
796.5030463832931
 30
0.0
 40
52.5
 41
0.0
 71
     5
 72
     1
  1
\A1;5
  7
ｵﾘｼﾞﾅﾙｽﾀｲﾙ
 73
     1
 44
1.0
  0
LINE
  5
C6ED
330
2
100
AcDbEntity
  8
01-寸法線
 62
     4
 48
0.5
370
     9
100
AcDbLine
 10
-1259.911436643111
 20
762.7530463832932
 30
0.0
 11
-1191.631436643112
 21
762.7530463832932
 31
0.0
  0
LINE
  5
C6EE
330
2
100
AcDbEntity
  8
01-寸法線
 62
     4
 48
0.5
370
     9
100
AcDbLine
 10
-1205.381490481037
 20
932.7530463832932
 30
0.0
 11
-1205.381490481037
 21
864.4730463832933
 31
0.0
  0
MTEXT
  5
C6EF
330
2
100
AcDbEntity
  8
01-寸法線
 62
     4
 48
0.5
100
AcDbMText
 10
-1239.131490481037
 20
883.6130463832928
 30
0.0
 40
52.5
 41
0.0
 71
     5
 72
     1
  1
\A1;5
  7
ｵﾘｼﾞﾅﾙｽﾀｲﾙ
 11
0.0000000000000001
 21
1.0
 31
0.0
 73
     1
 44
1.0
  0
INSERT
  5
C6F0
330
2
100
AcDbEntity
  8
01-寸法線
 62
     4
 48
0.5
370
     9
100
AcDbBlockReference
  2
_OPEN
 10
-1205.381490481037
 20
982.7530463832918
 30
0.0
 41
30.0
 42
30.0
 43
30.0
 50
270.0
  0
INSERT
  5
C6F1
330
2
100
AcDbEntity
  8
01-寸法線
 62
     4
 48
0.5
370
     9
100
AcDbBlockReference
  2
_OPEN
 10
-1205.381490481037
 20
982.7530463832918
 30
0.0
 41
30.0
 42
30.0
 43
30.0
 50
270.0
  0
LINE
  5
C6F2
330
2
100
AcDbEntity
  8
01-寸法線
 62
     4
 48
0.5
370
     9
100
AcDbLine
 10
-1205.381490481037
 20
982.7530463832918
 30
0.0
 11
-1205.381490481037
 21
962.7530463832931
 31
0.0
  0
INSERT
  5
C6F3
330
2
100
AcDbEntity
  8
01-寸法線
 62
     4
 48
0.5
370
     9
100
AcDbBlockReference
  2
_OPEN
 10
-1205.381490481037
 20
962.7530463832931
 30
0.0
 41
30.0
 42
30.0
 43
30.0
 50
90.0
  0
TEXT
  5
C6F4
330
2
100
AcDbEntity
  8
08-下線
100
AcDbText
 10
-1643.095776195323
 20
1471.12447495472
 30
0.0
 40
65.0
  1
%%UＡ部詳細図
  7
ｵﾘｼﾞﾅﾙｽﾀｲﾙ
 72
     1
 11
-1405.381490481037
 21
1457.753046383292
 31
0.0
100
AcDbText
 73
     1
  0
LINE
  5
C6F5
330
2
100
AcDbEntity
  8
01-寸法線
 62
     4
 48
0.5
370
     9
100
AcDbLine
 10
-1390.381490481033
 20
1282.753046383293
 30
0.0
 11
-1190.381490481033
 21
1282.753046383293
 31
0.0
  0
LINE
  5
C6F6
330
2
100
AcDbEntity
  8
01-寸法線
 62
     4
 48
0.5
370
     9
100
AcDbLine
 10
-1390.38149048104
 20
1162.753046383288
 30
0.0
 11
-1190.381490481037
 21
1162.753046383288
 31
0.0
  0
LINE
  5
C6F7
330
2
100
AcDbEntity
  8
01-寸法線
 62
     4
 48
0.5
370
     9
100
AcDbLine
 10
-1390.38149048104
 20
1162.753046383288
 30
0.0
 11
-1190.381490481037
 21
1162.753046383288
 31
0.0
  0
LINE
  5
C6F8
330
2
100
AcDbEntity
  8
02-外形線
 48
0.5
100
AcDbLine
 10
-1405.381490481041
 20
1162.753046383289
 30
0.0
 11
-1405.381490481041
 21
1282.753046383293
 31
0.0
  0
ARC
  5
C6F9
330
2
100
AcDbEntity
  8
01-寸法線
 62
     4
 48
0.5
370
     9
100
AcDbCircle
 10
-1405.381490481039
 20
1162.753046383293
 30
0.0
 40
79.9999999999993
100
AcDbArc
 50
111.6138457497014
 51
213.386154250287
  0
MTEXT
  5
C6FA
330
2
100
AcDbEntity
  8
01-寸法線
 62
     4
 48
0.5
100
AcDbMText
 10
-1508.016034119053
 20
1216.228918238779
 30
0.0
 40
52.5
 41
0.0
 71
     5
 72
     1
  1
\A1;145\U+00B0
  7
ｵﾘｼﾞﾅﾙｽﾀｲﾙ
 11
0.3007057995042521
 21
0.9537169507482335
 31
0.0
 73
     1
 44
1.0
  0
LINE
  5
C6FB
330
2
100
AcDbEntity
  8
01-寸法線
 62
     4
 48
0.5
370
     9
100
AcDbLine
 10
-1626.187325408247
 20
1161.13247443931
 30
0.0
 11
-1674.27058652893
 21
1113.049213318627
 31
0.0
  0
MTEXT
  5
C6FC
330
2
100
AcDbEntity
  8
01-寸法線
 62
     4
 48
0.5
100
AcDbMText
 10
-1674.093809833635
 20
1160.955697744016
 30
0.0
 40
52.5
 41
0.0
 71
     5
 72
     1
  1
\A1;32
  7
ｵﾘｼﾞﾅﾙｽﾀｲﾙ
 11
0.7071067811865475
 21
0.7071067811865476
 31
0.0
 73
     1
 44
1.0
  0
INSERT
  5
C6FD
330
2
100
AcDbEntity
  8
01-寸法線
 62
     4
 48
0.5
370
     9
100
AcDbBlockReference
  2
_OPEN
 10
-1695.483789964526
 20
1091.836009883031
 30
0.0
 41
-29.99999999999996
 42
30.0
 43
30.0
 50
45.00000000000008
  0
INSERT
  5
C6FE
330
2
100
AcDbEntity
  8
01-寸法線
 62
     4
 48
0.5
370
     9
100
AcDbBlockReference
  2
_OPEN
 10
-1451.267605389121
 20
1097.220882840173
 30
0.0
 41
30.00000000000002
 42
30.00000000000002
 43
30.00000000000002
 50
314.1930771251396
  0
INSERT
  5
C6FF
330
2
100
AcDbEntity
  8
01-寸法線
 62
     4
 48
0.5
370
     9
100
AcDbBlockReference
  2
_OPEN
 10
-1604.974121972651
 20
1182.345677874907
 30
0.0
 41
-29.99999999999996
 42
30.0
 43
30.0
 50
225.0000000000001
  0
INSERT
  5
C700
330
2
100
AcDbEntity
  8
01-寸法線
 62
     4
 48
0.5
370
     9
100
AcDbBlockReference
  2
_OPEN
 10
-1405.381490481041
 20
1242.753046383292
 30
0.0
 41
30.00000000000038
 42
30.00000000000038
 43
30.00000000000038
 50
10.80692287486285
  0
LINE
  5
C701
330
2
100
AcDbEntity
  8
02-外形線
 48
0.5
100
AcDbLine
 10
-1692.130509659829
 20
1282.753046383293
 30
0.0
 11
-1405.381490481037
 21
1282.753046383293
 31
0.0
  0
INSERT
  5
C702
330
2
100
AcDbEntity
  8
01-寸法線
 62
     4
 48
0.5
370
     9
100
AcDbBlockReference
  2
_OPEN
 10
-1205.381490481033
 20
1282.753046383293
 30
0.0
 41
30.0
 42
30.0
 43
30.0
 50
90.0
  0
MTEXT
  5
C703
330
2
100
AcDbEntity
  8
01-寸法線
 62
     4
 48
0.5
100
AcDbMText
 10
-1239.131490481037
 20
1072.753046383289
 30
0.0
 40
52.5
 41
0.0
 71
     5
 72
     1
  1
\A1;45
  7
ｵﾘｼﾞﾅﾙｽﾀｲﾙ
 11
0.0000000000000001
 21
1.0
 31
0.0
 73
     1
 44
1.0
  0
INSERT
  5
C705
330
2
100
AcDbEntity
  8
01-寸法線
 62
     4
 48
0.5
370
     9
100
AcDbBlockReference
  2
_OPEN
 10
-1205.381490481037
 20
1162.753046383288
 30
0.0
 41
30.0
 42
30.0
 43
30.0
 50
90.0
  0
INSERT
  5
C706
330
2
100
AcDbEntity
  8
01-寸法線
 62
     4
 48
0.5
370
     9
100
AcDbBlockReference
  2
_OPEN
 10
-1205.381490481037
 20
1162.753046383288
 30
0.0
 41
30.0
 42
30.0
 43
30.0
 50
270.0
  0
MTEXT
  5
C707
330
2
100
AcDbEntity
  8
01-寸法線
 62
     4
 48
0.5
100
AcDbMText
 10
-1239.131490481037
 20
1222.75304638329
 30
0.0
 40
52.5
 41
0.0
 71
     5
 72
     1
  1
30
  7
ｵﾘｼﾞﾅﾙｽﾀｲﾙ
 11
0.0000000000000001
 21
1.0
 31
0.0
 73
     1
 44
1.0
  0
CIRCLE
  5
C70B
330
2
100
AcDbEntity
  8
01-寸法線
 48
0.5
100
AcDbCircle
 10
-6365.381490481036
 20
4342.753046383291
 30
0.0
 40
75.0
  0
LINE
  5
C70C
330
2
100
AcDbEntity
  8
02-外形線
 48
0.5
100
AcDbLine
 10
-6365.381490481036
 20
4367.753046383291
 30
0.0
 11
-6400.830996983528
 21
4317.125904331764
 31
0.0
  0
LINE
  5
C70D
330
2
100
AcDbEntity
  8
02-外形線
 48
0.5
100
AcDbLine
 10
-6394.120051943048
 20
4306.236773849366
 30
0.0
 11
-6400.430405949021
 21
4312.547127855338
 31
0.0
  0
LINE
  5
C70E
330
2
100
AcDbEntity
  8
02-外形線
 48
0.5
100
AcDbLine
 10
-6370.381490481037
 20
4319.252008692242
 30
0.0
 11
-6389.541275466622
 21
4305.836182814859
 31
0.0
  0
LINE
  5
C70F
330
2
100
AcDbEntity
  8
02-外形線
 48
0.5
100
AcDbLine
 10
-6389.541275466623
 20
4305.836182814859
 30
0.0
 11
-6394.120051943049
 21
4306.236773849366
 31
0.0
  0
LINE
  5
C710
330
2
100
AcDbEntity
  8
02-外形線
 48
0.5
100
AcDbLine
 10
-6400.830996983529
 20
4317.125904331765
 30
0.0
 11
-6400.430405949022
 21
4312.547127855338
 31
0.0
  0
LINE
  5
C711
330
2
100
AcDbEntity
  8
02-外形線
 48
0.5
100
AcDbLine
 10
-6365.381490481036
 20
4317.753046383293
 30
0.0
 11
-6370.381490481037
 21
4319.252008692242
 31
0.0
  0
TEXT
  5
C712
330
2
100
AcDbEntity
  8
08-下線
100
AcDbText
 10
-6342.087776421809
 20
4440.486370749307
 30
0.0
 40
52.5
  1
Ａ部
  7
ｵﾘｼﾞﾅﾙｽﾀｲﾙ
 11
-6342.087776421809
 21
4429.686370749307
 31
0.0
100
AcDbText
 73
     1
  0
LINE
  5
C713
330
2
100
AcDbEntity
  8
02-外形線
 48
0.5
100
AcDbLine
 10
-6365.381490481037
 20
4367.753046383291
 30
0.0
 11
-6365.381490481035
 21
4397.753046383291
 31
0.0
  0
LINE
  5
C717
330
2
100
AcDbEntity
  8
01-寸法線
 48
0.5
100
AcDbLine
 10
-3065.381490481037
 20
4197.753046383292
 30
0.0
 11
-2815.381490481037
 21
4197.753046383292
 31
0.0
  0
TEXT
  5
C718
330
2
100
AcDbEntity
  8
08-下線
100
AcDbText
 10
-3036.381490481037
 20
4208.553046383292
 30
0.0
 40
52.5
  1
ｼｰﾙ溝
  7
ｵﾘｼﾞﾅﾙｽﾀｲﾙ
 72
     1
 11
-2940.381490481037
 21
4197.753046383292
 31
0.0
100
AcDbText
 73
     1
  0
LINE
  5
C719
330
2
100
AcDbEntity
  8
03-隠れ線
 48
0.5
100
AcDbLine
 10
-3170.381490481039
 20
4247.753046383294
 30
0.0
 11
-3165.381490481039
 21
4242.753046383294
 31
0.0
  0
INSERT
  5
C71A
330
2
100
AcDbEntity
  8
01-寸法線
 62
     4
 48
0.5
370
    13
100
AcDbBlockReference
  2
_OPEN
 10
-3165.381490481037
 20
4297.753046383292
 30
0.0
 41
29.99999999999996
 42
29.99999999999996
 43
29.99999999999996
 50
134.9999999999999
  0
LINE
  5
C71B
330
2
100
AcDbEntity
  8
01-寸法線
 48
0.5
100
AcDbLine
 10
-3165.381490481037
 20
4297.753046383292
 30
0.0
 11
-3065.381490481037
 21
4197.753046383292
 31
0.0
  0
LINE
  5
C721
330
2
100
AcDbEntity
  8
03-隠れ線
 48
0.5
100
AcDbLine
 10
-5165.381490481036
 20
4317.753046383291
 30
0.0
 11
-3165.381490481037
 21
4317.753046383291
 31
0.0
  0
LINE
  5
C722
330
2
100
AcDbEntity
  8
03-隠れ線
 48
0.5
100
AcDbLine
 10
-5165.381490481035
 20
4319.252008692242
 30
0.0
 11
-3165.381490481037
 21
4319.252008692242
 31
0.0
  0
LINE
  5
C723
330
2
100
AcDbEntity
  8
03-隠れ線
 48
0.5
100
AcDbLine
 10
-5165.381490481036
 20
4305.836182814859
 30
0.0
 11
-3165.381490481038
 21
4305.836182814859
 31
0.0
  0
LINE
  5
C724
330
2
100
AcDbEntity
  8
03-隠れ線
 48
0.5
100
AcDbLine
 10
-5165.381490481035
 20
4367.753046383291
 30
0.0
 11
-3165.381490481037
 21
4367.753046383291
 31
0.0
  0
LINE
  5
C726
330
2
100
AcDbEntity
  8
03-隠れ線
 48
0.5
100
AcDbLine
 10
-6370.381490481037
 20
3047.753046383292
 30
0.0
 11
-6370.381490481038
 21
1047.753046383292
 31
0.0
  0
LINE
  5
C727
330
2
100
AcDbEntity
  8
03-隠れ線
 48
0.5
100
AcDbLine
 10
-6400.830996983531
 20
3047.753046383292
 30
0.0
 11
-6400.830996983531
 21
1047.753046383292
 31
0.0
  0
LINE
  5
C728
330
2
100
AcDbEntity
  8
02-外形線
 48
0.5
100
AcDbLine
 10
-1592.881490481038
 20
4287.753046383293
 30
0.0
 11
-1628.33099698353
 21
4237.125904331764
 31
0.0
  0
LINE
  5
C729
330
2
100
AcDbEntity
  8
02-外形線
 48
0.5
100
AcDbLine
 10
-1592.881490481038
 20
4237.753046383294
 30
0.0
 11
-1597.881490481038
 21
4239.252008692242
 31
0.0
  0
LINE
  5
C72A
330
2
100
AcDbEntity
  8
02-外形線
 48
0.5
100
AcDbLine
 10
-1628.330996983531
 20
4237.125904331765
 30
0.0
 11
-1627.930405949024
 21
4232.547127855339
 31
0.0
  0
LINE
  5
C72B
330
2
100
AcDbEntity
  8
02-外形線
 48
0.5
100
AcDbLine
 10
-1617.041275466624
 20
4225.83618281486
 30
0.0
 11
-1621.620051943051
 21
4226.236773849366
 31
0.0
  0
LINE
  5
C72C
330
2
100
AcDbEntity
  8
02-外形線
 48
0.5
100
AcDbLine
 10
-1597.881490481038
 20
4239.252008692242
 30
0.0
 11
-1617.041275466623
 21
4225.83618281486
 31
0.0
  0
LINE
  5
C72D
330
2
100
AcDbEntity
  8
02-外形線
 48
0.5
100
AcDbLine
 10
-1621.62005194305
 20
4226.236773849367
 30
0.0
 11
-1627.930405949023
 21
4232.547127855339
 31
0.0
  0
LINE
  5
C72E
330
2
100
AcDbEntity
  8
02-外形線
 48
0.5
100
AcDbLine
 10
-1592.881490481039
 20
4287.753046383292
 30
0.0
 11
-1592.881490481037
 21
4317.753046383291
 31
0.0
  0
LINE
  5
C72F
330
2
100
AcDbEntity
  8
03-隠れ線
 48
0.5
100
AcDbLine
 10
-1597.881490481038
 20
3767.75304638329
 30
0.0
 11
-1597.881490481038
 21
3617.75304638329
 31
0.0
  0
LINE
  5
C730
330
2
100
AcDbEntity
  8
03-隠れ線
 48
0.5
100
AcDbLine
 10
-1628.33099698353
 20
3767.75304638329
 30
0.0
 11
-1628.33099698353
 21
3617.753046383291
 31
0.0
  0
LINE
  5
C731
330
2
100
AcDbEntity
  8
03-隠れ線
 48
0.5
100
AcDbLine
 10
-1162.881490481035
 20
4287.753046383292
 30
0.0
 11
-1012.881490481036
 21
4287.753046383293
 31
0.0
  0
LINE
  5
C732
330
2
100
AcDbEntity
  8
03-隠れ線
 48
0.5
100
AcDbLine
 10
-1162.881490481036
 20
4237.753046383294
 30
0.0
 11
-1012.881490481036
 21
4237.753046383294
 31
0.0
  0
LINE
  5
C733
330
2
100
AcDbEntity
  8
03-隠れ線
 48
0.5
100
AcDbLine
 10
-1162.881490481035
 20
4239.252008692242
 30
0.0
 11
-1012.881490481036
 21
4239.252008692242
 31
0.0
  0
LINE
  5
C734
330
2
100
AcDbEntity
  8
03-隠れ線
 48
0.5
100
AcDbLine
 10
-1162.881490481036
 20
4225.83618281486
 30
0.0
 11
-1012.881490481036
 21
4225.83618281486
 31
0.0
  0
LINE
  5
C782
330
2
100
AcDbEntity
  8
01-寸法線
 62
     4
 48
0.5
370
     9
100
AcDbLine
 10
-1190.381490481037
 20
962.7530463832938
 30
0.0
 11
-1090.381490481037
 21
962.7530463832938
 31
0.0
  0
LINE
  5
C783
330
2
100
AcDbEntity
  8
01-寸法線
 62
     4
 48
0.5
370
     9
100
AcDbLine
 10
-1190.381490481037
 20
1162.753046383288
 30
0.0
 11
-1090.381490481037
 21
1162.753046383288
 31
0.0
  0
LINE
  5
C784
330
2
100
AcDbEntity
  8
01-寸法線
 62
     4
 48
0.5
370
     9
100
AcDbLine
 10
-1105.381490481037
 20
992.7530463832937
 30
0.0
 11
-1105.381490481037
 21
1132.753046383288
 31
0.0
  0
INSERT
  5
C785
330
2
100
AcDbEntity
  8
01-寸法線
 62
     4
 48
0.5
370
     9
100
AcDbBlockReference
  2
_OPEN
 10
-1105.381490481037
 20
962.7530463832938
 30
0.0
 41
30.0
 42
30.0
 43
30.0
 50
270.0
  0
INSERT
  5
C786
330
2
100
AcDbEntity
  8
01-寸法線
 62
     4
 48
0.5
370
     9
100
AcDbBlockReference
  2
_OPEN
 10
-1105.381490481037
 20
1162.753046383288
 30
0.0
 41
30.0
 42
30.0
 43
30.0
 50
90.0
  0
MTEXT
  5
C787
330
2
100
AcDbEntity
  8
01-寸法線
 62
     4
 48
0.5
100
AcDbMText
 10
-1139.131490481037
 20
1062.75304638329
 30
0.0
 40
52.5
 41
0.0
 71
     5
 72
     1
  1
50
  7
ｵﾘｼﾞﾅﾙｽﾀｲﾙ
 11
0.0000000000000001
 21
1.0
 31
0.0
 73
     1
 44
1.0
  0
DIMENSION
  5
C7CB
330
2
100
AcDbEntity
  8
01-寸法線
 48
0.5
100
AcDbDimension
  2
*D32
 10
-2965.381490481036
 20
4397.753046383292
 30
0.0
 11
-2999.131490481037
 21
4492.61304638329
 31
0.0
 70
    32
 71
     5
 42
30.0
  3
スタイル15
100
AcDbAlignedDimension
 13
-3165.381490481036
 23
4367.753046383291
 33
0.0
 14
-3165.381490481036
 24
4397.753046383292
 34
0.0
 50
90.0
100
AcDbRotatedDimension
  0
LINE
  5
C7E6
330
2
100
AcDbEntity
  8
01-寸法線
 48
0.5
100
AcDbLine
 10
-1205.381490481037
 20
1192.753046383288
 30
0.0
 11
-1205.381490481033
 21
1252.753046383293
 31
0.0
  0
VIEWPORT
  5
295B
330
7
100
AcDbEntity
 67
     1
  8
0
100
AcDbViewport
 10
5.249999639556163
 20
3.999999883606677
 30
0.0
 40
15.11229656525498
 41
8.992999745766947
 68
     1
 69
     1
 12
5.249999639556163
 22
3.999999883606677
 13
0.0
 23
0.0
 14
10.0
 24
10.0
 15
10.0
 25
10.0
 16
0.0
 26
0.0
 36
1.0
 17
0.0
 27
0.0
 37
0.0
 42
50.0
 43
0.0
 44
0.0
 45
8.992999745766947
 50
0.0
 51
0.0
 72
   100
 90
    32800
  1

281
     0
 71
     1
 74
     0
110
0.0
120
0.0
130
0.0
111
1.0
121
0.0
131
0.0
112
0.0
122
1.0
132
0.0
 79
     0
146
0.0
170
     0
  0
VIEWPORT
  5
295D
330
7
100
AcDbEntity
 67
     1
  8
04-鉄筋線
100
AcDbViewport
 10
5.24999976158142
 20
3.99999976158142
 30
0.0
 40
8.399999618530271
 41
6.399999618530272
 68
     2
 69
     2
 12
3712.5
 22
2625.0
 13
0.0
 23
0.0
 14
100.0
 24
100.0
 15
0.0
 25
0.0
 16
0.0
 26
0.0
 36
1.0
 17
0.0
 27
0.0
 37
0.0
 42
50.0
 43
0.0
 44
0.0
 45
5340.1442243592
 50
0.0
 51
0.0
 72
   100
 90
    32768
  1

281
     0
 71
     1
 74
     0
110
0.0
120
0.0
130
0.0
111
1.0
121
0.0
131
0.0
112
0.0
122
1.0
132
0.0
 79
     0
146
0.0
170
     0
  0
ENDSEC
  0
SECTION
  2
OBJECTS
  0
DICTIONARY
  5
1A
330
0
100
AcDbDictionary
281
     1
  3
ACAD_CIP_PREVIOUS_PRODUCT_INFO
350
C844
  3
ACAD_COLOR
350
1FC9
  3
ACAD_DETAILVIEWSTYLE
350
C837
  3
ACAD_GROUP
350
18
  3
ACAD_LAYOUT
350
1FCC
  3
ACAD_MATERIAL
350
1FC8
  3
ACAD_MLEADERSTYLE
350
C833
  3
ACAD_MLINESTYLE
350
19
  3
ACAD_PLOTSETTINGS
350
1FCD
  3
ACAD_PLOTSTYLENAME
350
1FC6
  3
ACAD_SCALELIST
350
C821
  3
ACAD_SECTIONVIEWSTYLE
350
C835
  3
ACAD_TABLESTYLE
350
1FCA
  3
ACAD_VISUALSTYLE
350
C808
  3
ACDB_RECOMPOSE_DATA
350
C869
  3
AcDbVariableDictionary
350
1FDC
  0
DICTIONARY
  5
C845
330
4
100
AcDbDictionary
280
     1
281
     1
  3
ADSK_XREC_LAYER_RECONCILED
360
C846
  0
DICTIONARY
  5
C847
330
55A
100
AcDbDictionary
280
     1
281
     1
  3
ADSK_XREC_LAYER_RECONCILED
360
C848
  0
DICTIONARY
  5
C849
330
86C
100
AcDbDictionary
280
     1
281
     1
  3
ADSK_XREC_LAYER_RECONCILED
360
C84A
  0
DICTIONARY
  5
C84B
330
104E
100
AcDbDictionary
280
     1
281
     1
  3
ADSK_XREC_LAYER_RECONCILED
360
C84C
  0
DICTIONARY
  5
C84D
330
104F
100
AcDbDictionary
280
     1
281
     1
  3
ADSK_XREC_LAYER_RECONCILED
360
C84E
  0
DICTIONARY
  5
C84F
330
1050
100
AcDbDictionary
280
     1
281
     1
  3
ADSK_XREC_LAYER_RECONCILED
360
C850
  0
DICTIONARY
  5
C851
330
1051
100
AcDbDictionary
280
     1
281
     1
  3
ADSK_XREC_LAYER_RECONCILED
360
C852
  0
DICTIONARY
  5
C853
330
1052
100
AcDbDictionary
280
     1
281
     1
  3
ADSK_XREC_LAYER_RECONCILED
360
C854
  0
DICTIONARY
  5
C855
330
1053
100
AcDbDictionary
280
     1
281
     1
  3
ADSK_XREC_LAYER_RECONCILED
360
C856
  0
DICTIONARY
  5
C857
330
1054
100
AcDbDictionary
280
     1
281
     1
  3
ADSK_XREC_LAYER_RECONCILED
360
C858
  0
DICTIONARY
  5
C859
330
218B
100
AcDbDictionary
280
     1
281
     1
  3
ADSK_XREC_LAYER_RECONCILED
360
C85A
  0
DICTIONARY
  5
C85B
330
218C
100
AcDbDictionary
280
     1
281
     1
  3
ADSK_XREC_LAYER_RECONCILED
360
C85C
  0
DICTIONARY
  5
C85D
330
2B0E
100
AcDbDictionary
280
     1
281
     1
  3
ADSK_XREC_LAYER_RECONCILED
360
C85E
  0
DICTIONARY
  5
C85F
330
8DFB
100
AcDbDictionary
280
     1
281
     1
  3
ADSK_XREC_LAYER_RECONCILED
360
C860
  0
XRECORD
  5
C844
102
{ACAD_REACTORS
330
1A
102
}
330
1A
100
AcDbXrecord
280
     1
300
ACDLT
300
2013
300
ACDLT_F_S
  0
DICTIONARY
  5
1FC9
102
{ACAD_REACTORS
330
1A
102
}
330
1A
100
AcDbDictionary
281
     1
  0
DICTIONARY
  5
C837
102
{ACAD_REACTORS
330
1A
102
}
330
1A
100
AcDbDictionary
281
     1
  3
Imperial24
350
C838
  0
DICTIONARY
  5
18
102
{ACAD_REACTORS
330
1A
102
}
330
1A
100
AcDbDictionary
281
     1
  0
DICTIONARY
  5
1FCC
102
{ACAD_REACTORS
330
1A
102
}
330
1A
100
AcDbDictionary
281
     1
  3
Model
350
1FCE
  3
レイアウト1
350
1FCF
  0
DICTIONARY
  5
1FC8
102
{ACAD_REACTORS
330
1A
102
}
330
1A
100
AcDbDictionary
281
     1
  3
ByBlock
350
C7F8
  3
ByLayer
350
C7F0
  3
Global
350
C800
  0
DICTIONARY
  5
C833
102
{ACAD_REACTORS
330
1A
102
}
330
1A
100
AcDbDictionary
281
     1
  3
Standard
350
C834
  0
DICTIONARY
  5
19
102
{ACAD_REACTORS
330
1A
102
}
330
1A
100
AcDbDictionary
281
     1
  3
STANDARD
350
1C
  0
DICTIONARY
  5
1FCD
102
{ACAD_REACTORS
330
1A
102
}
330
1A
100
AcDbDictionary
281
     1
  0
ACDBDICTIONARYWDFLT
  5
1FC6
102
{ACAD_REACTORS
330
1A
102
}
330
1A
100
AcDbDictionary
281
     1
  3
Normal
350
1FC7
100
AcDbDictionaryWithDefault
340
1FC7
  0
DICTIONARY
  5
C821
102
{ACAD_REACTORS
330
1A
102
}
330
1A
100
AcDbDictionary
281
     1
  3
A0
350
C822
  3
A1
350
C823
  3
A2
350
C824
  3
A3
350
C825
  3
A4
350
C826
  3
A5
350
C827
  3
A6
350
C828
  3
A7
350
C829
  3
A8
350
C82A
  3
A9
350
C82B
  3
B0
350
C82C
  3
B1
350
C82D
  3
B2
350
C82E
  3
B3
350
C82F
  3
B4
350
C830
  3
B5
350
C831
  3
B6
350
C832
  0
DICTIONARY
  5
C835
102
{ACAD_REACTORS
330
1A
102
}
330
1A
100
AcDbDictionary
281
     1
  3
Imperial24
350
C836
  0
DICTIONARY
  5
1FCA
102
{ACAD_REACTORS
330
1A
102
}
330
1A
100
AcDbDictionary
281
     1
  3
Standard
350
1FCB
  0
DICTIONARY
  5
C808
102
{ACAD_REACTORS
330
1A
102
}
330
1A
100
AcDbDictionary
281
     1
  3
2dWireframe
350
C80E
  3
Basic
350
C80D
  3
Brighten
350
C814
  3
ColorChange
350
C818
  3
Conceptual
350
C811
  3
Dim
350
C813
  3
EdgeColorOff
350
C820
  3
Facepattern
350
C817
  3
Flat
350
C809
  3
FlatWithEdges
350
C80A
  3
Gouraud
350
C80B
  3
GouraudWithEdges
350
C80C
  3
Hidden
350
C810
  3
JitterOff
350
C81E
  3
Linepattern
350
C816
  3
OverhangOff
350
C81F
  3
Realistic
350
C812
  3
Shaded
350
C81D
  3
Shaded with edges
350
C81C
  3
Shades of Gray
350
C819
  3
Sketchy
350
C81A
  3
Thicken
350
C815
  3
Wireframe
350
C80F
  3
X-Ray
350
C81B
  0
XRECORD
  5
C869
102
{ACAD_REACTORS
330
1A
102
}
330
1A
100
AcDbXrecord
280
     1
 90
        1
330
1FCB
  0
DICTIONARY
  5
1FDC
102
{ACAD_REACTORS
330
1A
102
}
330
1A
100
AcDbDictionary
281
     1
  3
CANNOSCALE
350
C864
  3
CMLEADERSTYLE
350
C861
  3
CTABLESTYLE
350
1FDD
  3
CVIEWDETAILSTYLE
350
C862
  3
CVIEWSECTIONSTYLE
350
C863
  3
DIMASSOC
350
1FDE
  3
PROJECTNAME
350
1FDF
  3
XCLIPFRAME
350
C865
  0
XRECORD
  5
C846
102
{ACAD_REACTORS
330
C845
102
}
330
C845
100
AcDbXrecord
280
     1
290
     1
  0
XRECORD
  5
C848
102
{ACAD_REACTORS
330
C847
102
}
330
C847
100
AcDbXrecord
280
     1
290
     1
  0
XRECORD
  5
C84A
102
{ACAD_REACTORS
330
C849
102
}
330
C849
100
AcDbXrecord
280
     1
290
     1
  0
XRECORD
  5
C84C
102
{ACAD_REACTORS
330
C84B
102
}
330
C84B
100
AcDbXrecord
280
     1
290
     1
  0
XRECORD
  5
C84E
102
{ACAD_REACTORS
330
C84D
102
}
330
C84D
100
AcDbXrecord
280
     1
290
     1
  0
XRECORD
  5
C850
102
{ACAD_REACTORS
330
C84F
102
}
330
C84F
100
AcDbXrecord
280
     1
290
     1
  0
XRECORD
  5
C852
102
{ACAD_REACTORS
330
C851
102
}
330
C851
100
AcDbXrecord
280
     1
290
     1
  0
XRECORD
  5
C854
102
{ACAD_REACTORS
330
C853
102
}
330
C853
100
AcDbXrecord
280
     1
290
     1
  0
XRECORD
  5
C856
102
{ACAD_REACTORS
330
C855
102
}
330
C855
100
AcDbXrecord
280
     1
290
     1
  0
XRECORD
  5
C858
102
{ACAD_REACTORS
330
C857
102
}
330
C857
100
AcDbXrecord
280
     1
290
     1
  0
XRECORD
  5
C85A
102
{ACAD_REACTORS
330
C859
102
}
330
C859
100
AcDbXrecord
280
     1
290
     1
  0
XRECORD
  5
C85C
102
{ACAD_REACTORS
330
C85B
102
}
330
C85B
100
AcDbXrecord
280
     1
290
     1
  0
XRECORD
  5
C85E
102
{ACAD_REACTORS
330
C85D
102
}
330
C85D
100
AcDbXrecord
280
     1
290
     1
  0
XRECORD
  5
C860
102
{ACAD_REACTORS
330
C85F
102
}
330
C85F
100
AcDbXrecord
280
     1
290
     1
  0
ACDBDETAILVIEWSTYLE
  5
C838
102
{ACAD_REACTORS
330
C837
102
}
330
C837
100
AcDbModelDocViewStyle
 70
     0
  3
Imperial24
290
     0
100
AcDbDetailViewStyle
 70
     0
 71
     0
 90
        3
 71
     1
340
C
 62
   256
 40
0.24
340
0
 62
   256
 40
0.24
300

 40
0.36
280
     3
 71
     2
340
5
 90
       25
 62
   256
 71
     3
340
C
 62
   256
 40
0.24
 90
        1
 40
0.75
 90
        1
300
%<\AcVar ViewType \f "%tc1">% %<\AcVar ViewDetailId>%\PSCALE %<\AcVar ViewScale \f "%sn">%
 71
     4
340
5
 90
       25
 62
   256
340
5
 90
       25
 62
   256
280
     0
  0
LAYOUT
  5
1FCE
102
{ACAD_REACTORS
330
1FCC
102
}
330
1FCC
100
AcDbPlotSettings
  1

  2
\\DBSERVER1\Canon SEIZOU
  4
A4
  6

 40
5.873749732971191
 41
5.873747825622558
 42
5.873748779296875
 43
5.873748779296875
 44
209.9733276367187
 45
296.9259948730469
 46
-5.9
 47
-5.94
 48
-5354.693592560336
 49
2800.613080426188
140
-2384.693592560336
141
4900.613080426189
142
1.0
143
26.87
 70
 11940
 72
     1
 73
     1
 74
     1
  7
monochrome.ctb
 75
     0
147
0.0372162262746558
 76
     0
 77
     2
 78
   300
148
7866.547875995133
149
-189.4022776220772
100
AcDbLayout
  1
Model
 70
     1
 71
     0
 10
0.0
 20
0.0
 11
12.0
 21
9.0
 12
0.0
 22
0.0
 32
0.0
 14
0.0
 24
0.0
 34
0.0
 15
0.0
 25
0.0
 35
0.0
146
0.0
 13
0.0
 23
0.0
 33
0.0
 16
1.0
 26
0.0
 36
0.0
 17
0.0
 27
1.0
 37
0.0
 76
     0
330
2
331
C7EE
  0
LAYOUT
  5
1FCF
102
{ACAD_REACTORS
330
1FCC
102
}
330
1FCC
100
AcDbPlotSettings
  1

  2
none_device
  4
Letter_(8.50_x_11.00_Inches)
  6

 40
6.349999904632568
 41
6.349999904632568
 42
6.350006103515625
 43
6.350006103515625
 44
215.8999938964844
 45
279.3999938964844
 46
0.0
 47
0.0
 48
0.0
 49
0.0
140
0.0
141
0.0
142
1.0
143
1.0
 70
   688
 72
     0
 73
     1
 74
     5
  7
monochrome.ctb
 75
    16
147
1.0
 76
     0
 77
     2
 78
   300
148
0.0
149
0.0
100
AcDbLayout
  1
レイアウト1
 70
     0
 71
     1
 10
-0.2500002402958907
 20
-0.2499999962453767
 11
10.74999951940821
 21
8.249999763458731
 12
0.0
 22
0.0
 32
0.0
 14
1.049999952316284
 24
0.7999999523162842
 34
0.0
 15
9.449999570846555
 25
7.199999570846556
 35
0.0
146
0.0
 13
0.0
 23
0.0
 33
0.0
 16
1.0
 26
0.0
 36
0.0
 17
0.0
 27
1.0
 37
0.0
 76
     0
330
7
331
295B
  0
MATERIAL
  5
C7F8
102
{ACAD_XDICTIONARY
360
C7F9
102
}
102
{ACAD_REACTORS
330
1FC8
102
}
330
1FC8
100
AcDbMaterial
  1
ByBlock
 72
     0
 43
0.0008202099737533
 43
0.0
 43
0.0
 43
0.0
 43
0.0
 43
0.0008202099737533
 43
0.0
 43
0.0
 43
0.0
 43
0.0
 43
1.0
 43
0.0
 43
0.0
 43
0.0
 43
0.0
 43
1.0
 77
     0
 47
0.0008202099737533
 47
0.0
 47
0.0
 47
0.0
 47
0.0
 47
0.0008202099737533
 47
0.0
 47
0.0
 47
0.0
 47
0.0
 47
1.0
 47
0.0
 47
0.0
 47
0.0
 47
0.0
 47
1.0
171
     0
 49
0.0008202099737533
 49
0.0
 49
0.0
 49
0.0
 49
0.0
 49
0.0008202099737533
 49
0.0
 49
0.0
 49
0.0
 49
0.0
 49
1.0
 49
0.0
 49
0.0
 49
0.0
 49
0.0
 49
1.0
175
     0
142
0.0008202099737533
142
0.0
142
0.0
142
0.0
142
0.0
142
0.0008202099737533
142
0.0
142
0.0
142
0.0
142
0.0
142
1.0
142
0.0
142
0.0
142
0.0
142
0.0
142
1.0
179
     0
144
0.0008202099737533
144
0.0
144
0.0
144
0.0
144
0.0
144
0.0008202099737533
144
0.0
144
0.0
144
0.0
144
0.0
144
1.0
144
0.0
144
0.0
144
0.0
144
0.0
144
1.0
147
0.0008202099737533
147
0.0
147
0.0
147
0.0
147
0.0
147
0.0008202099737533
147
0.0
147
0.0
147
0.0
147
0.0
147
1.0
147
0.0
147
0.0
147
0.0
147
0.0
147
1.0
  0
MATERIAL
  5
C7F0
102
{ACAD_XDICTIONARY
360
C7F1
102
}
102
{ACAD_REACTORS
330
1FC8
102
}
330
1FC8
100
AcDbMaterial
  1
ByLayer
 72
     0
 43
0.0008202099737533
 43
0.0
 43
0.0
 43
0.0
 43
0.0
 43
0.0008202099737533
 43
0.0
 43
0.0
 43
0.0
 43
0.0
 43
1.0
 43
0.0
 43
0.0
 43
0.0
 43
0.0
 43
1.0
 77
     0
 47
0.0008202099737533
 47
0.0
 47
0.0
 47
0.0
 47
0.0
 47
0.0008202099737533
 47
0.0
 47
0.0
 47
0.0
 47
0.0
 47
1.0
 47
0.0
 47
0.0
 47
0.0
 47
0.0
 47
1.0
171
     0
 49
0.0008202099737533
 49
0.0
 49
0.0
 49
0.0
 49
0.0
 49
0.0008202099737533
 49
0.0
 49
0.0
 49
0.0
 49
0.0
 49
1.0
 49
0.0
 49
0.0
 49
0.0
 49
0.0
 49
1.0
175
     0
142
0.0008202099737533
142
0.0
142
0.0
142
0.0
142
0.0
142
0.0008202099737533
142
0.0
142
0.0
142
0.0
142
0.0
142
1.0
142
0.0
142
0.0
142
0.0
142
0.0
142
1.0
179
     0
144
0.0008202099737533
144
0.0
144
0.0
144
0.0
144
0.0
144
0.0008202099737533
144
0.0
144
0.0
144
0.0
144
0.0
144
1.0
144
0.0
144
0.0
144
0.0
144
0.0
144
1.0
147
0.0008202099737533
147
0.0
147
0.0
147
0.0
147
0.0
147
0.0008202099737533
147
0.0
147
0.0
147
0.0
147
0.0
147
1.0
147
0.0
147
0.0
147
0.0
147
0.0
147
1.0
  0
MATERIAL
  5
C800
102
{ACAD_XDICTIONARY
360
C801
102
}
102
{ACAD_REACTORS
330
1FC8
102
}
330
1FC8
100
AcDbMaterial
  1
Global
 72
     0
 43
0.0008202099737533
 43
0.0
 43
0.0
 43
0.0
 43
0.0
 43
0.0008202099737533
 43
0.0
 43
0.0
 43
0.0
 43
0.0
 43
1.0
 43
0.0
 43
0.0
 43
0.0
 43
0.0
 43
1.0
 77
     0
 47
0.0008202099737533
 47
0.0
 47
0.0
 47
0.0
 47
0.0
 47
0.0008202099737533
 47
0.0
 47
0.0
 47
0.0
 47
0.0
 47
1.0
 47
0.0
 47
0.0
 47
0.0
 47
0.0
 47
1.0
171
     0
 49
0.0008202099737533
 49
0.0
 49
0.0
 49
0.0
 49
0.0
 49
0.0008202099737533
 49
0.0
 49
0.0
 49
0.0
 49
0.0
 49
1.0
 49
0.0
 49
0.0
 49
0.0
 49
0.0
 49
1.0
175
     0
142
0.0008202099737533
142
0.0
142
0.0
142
0.0
142
0.0
142
0.0008202099737533
142
0.0
142
0.0
142
0.0
142
0.0
142
1.0
142
0.0
142
0.0
142
0.0
142
0.0
142
1.0
179
     0
144
0.0008202099737533
144
0.0
144
0.0
144
0.0
144
0.0
144
0.0008202099737533
144
0.0
144
0.0
144
0.0
144
0.0
144
1.0
144
0.0
144
0.0
144
0.0
144
0.0
144
1.0
147
0.0008202099737533
147
0.0
147
0.0
147
0.0
147
0.0
147
0.0008202099737533
147
0.0
147
0.0
147
0.0
147
0.0
147
1.0
147
0.0
147
0.0
147
0.0
147
0.0
147
1.0
  0
MLEADERSTYLE
  5
C834
102
{ACAD_XDICTIONARY
360
C8A0
102
}
102
{ACAD_REACTORS
330
C833
102
}
330
C833
100
AcDbMLeaderStyle
170
     2
171
     1
172
     0
 90
        2
 40
0.0
 41
0.0
173
     1
 91
-1056964608
340
E
 92
       -2
290
     1
 42
0.09
291
     1
 43
0.36
  3
Standard
 44
0.18
300

342
C
174
     1
178
     6
175
     1
176
     0
 93
-1056964608
 45
0.18
292
     0
297
     0
 46
0.18
 94
-1056964608
 47
1.0
 49
1.0
140
1.0
293
     1
141
0.0
294
     1
177
     0
142
1.0
295
     0
296
     0
143
0.125
1001
ACAD_MLEADERVER
1070
     2
  0
MLINESTYLE
  5
1C
102
{ACAD_REACTORS
330
19
102
}
330
19
100
AcDbMlineStyle
  2
STANDARD
 70
     0
  3

 62
     0
 51
90.0
 52
90.0
 71
     2
 49
0.5
 62
   256
  6
BYLAYER
 49
-0.5
 62
   256
  6
BYLAYER
  0
ACDBPLACEHOLDER
  5
1FC7
102
{ACAD_REACTORS
330
1FC6
102
}
330
1FC6
  0
SCALE
  5
C822
102
{ACAD_REACTORS
330
C821
102
}
330
C821
100
AcDbScale
 70
     0
300
1:1
140
1.0
141
1.0
290
     1
  0
SCALE
  5
C823
102
{ACAD_REACTORS
330
C821
102
}
330
C821
100
AcDbScale
 70
     0
300
1/128" = 1'-0"
140
0.0078125
141
12.0
290
     0
  0
SCALE
  5
C824
102
{ACAD_REACTORS
330
C821
102
}
330
C821
100
AcDbScale
 70
     0
300
1/64" = 1'-0"
140
0.015625
141
12.0
290
     0
  0
SCALE
  5
C825
102
{ACAD_REACTORS
330
C821
102
}
330
C821
100
AcDbScale
 70
     0
300
1/32" = 1'-0"
140
0.03125
141
12.0
290
     0
  0
SCALE
  5
C826
102
{ACAD_REACTORS
330
C821
102
}
330
C821
100
AcDbScale
 70
     0
300
1/16" = 1'-0"
140
0.0625
141
12.0
290
     0
  0
SCALE
  5
C827
102
{ACAD_REACTORS
330
C821
102
}
330
C821
100
AcDbScale
 70
     0
300
3/32" = 1'-0"
140
0.09375
141
12.0
290
     0
  0
SCALE
  5
C828
102
{ACAD_REACTORS
330
C821
102
}
330
C821
100
AcDbScale
 70
     0
300
1/8" = 1'-0"
140
0.125
141
12.0
290
     0
  0
SCALE
  5
C829
102
{ACAD_REACTORS
330
C821
102
}
330
C821
100
AcDbScale
 70
     0
300
3/16" = 1'-0"
140
0.1875
141
12.0
290
     0
  0
SCALE
  5
C82A
102
{ACAD_REACTORS
330
C821
102
}
330
C821
100
AcDbScale
 70
     0
300
1/4" = 1'-0"
140
0.25
141
12.0
290
     0
  0
SCALE
  5
C82B
102
{ACAD_REACTORS
330
C821
102
}
330
C821
100
AcDbScale
 70
     0
300
3/8" = 1'-0"
140
0.375
141
12.0
290
     0
  0
SCALE
  5
C82C
102
{ACAD_REACTORS
330
C821
102
}
330
C821
100
AcDbScale
 70
     0
300
1/2" = 1'-0"
140
0.5
141
12.0
290
     0
  0
SCALE
  5
C82D
102
{ACAD_REACTORS
330
C821
102
}
330
C821
100
AcDbScale
 70
     0
300
3/4" = 1'-0"
140
0.75
141
12.0
290
     0
  0
SCALE
  5
C82E
102
{ACAD_REACTORS
330
C821
102
}
330
C821
100
AcDbScale
 70
     0
300
1" = 1'-0"
140
1.0
141
12.0
290
     0
  0
SCALE
  5
C82F
102
{ACAD_REACTORS
330
C821
102
}
330
C821
100
AcDbScale
 70
     0
300
1-1/2" = 1'-0"
140
1.5
141
12.0
290
     0
  0
SCALE
  5
C830
102
{ACAD_REACTORS
330
C821
102
}
330
C821
100
AcDbScale
 70
     0
300
3" = 1'-0"
140
3.0
141
12.0
290
     0
  0
SCALE
  5
C831
102
{ACAD_REACTORS
330
C821
102
}
330
C821
100
AcDbScale
 70
     0
300
6" = 1'-0"
140
6.0
141
12.0
290
     0
  0
SCALE
  5
C832
102
{ACAD_REACTORS
330
C821
102
}
330
C821
100
AcDbScale
 70
     0
300
1'-0" = 1'-0"
140
12.0
141
12.0
290
     0
  0
ACDBSECTIONVIEWSTYLE
  5
C836
102
{ACAD_REACTORS
330
C835
102
}
330
C835
100
AcDbModelDocViewStyle
 70
     0
  3
Imperial24
290
     0
100
AcDbSectionViewStyle
 70
     0
 71
     0
 90
       78
 71
     1
340
C
 62
   256
 40
0.24
340
0
340
0
 62
   256
 40
0.24
300
I, O, Q, S, X, Z
 40
0.48
 90
        3
 40
0.18
 90
        1
 71
     2
340
104D
 90
       25
 62
   256
340
5
 90
       50
 62
   256
 40
0.24
 40
0.0
 40
0.24
 71
     3
340
C
 62
   256
 40
0.24
 90
        1
 40
0.75
 90
        1
300
%<\AcVar ViewType \f "%tc1">% %<\AcVar ViewSectionStartId>%-%<\AcVar ViewSectionEndId>%\PSCALE %<\AcVar ViewScale \f "%sn">%
 71
     4
 62
   256
 62
   257
300
ANSI31
 40
1.0
 90
        0
290
     0
290
     0
 90
        6
 40
0.0
 40
1.570796326794896
 40
0.2617993877991494
 40
1.308996938995747
 40
-0.2617993877991494
 40
1.832595714594046
  0
TABLESTYLE
  5
1FCB
102
{ACAD_XDICTIONARY
360
C867
102
}
102
{ACAD_REACTORS
330
1FCA
102
}
330
1FCA
100
AcDbTableStyle
  3
Standard
 70
     0
 71
     0
 40
0.06
 41
0.06
280
     0
281
     0
  7
STANDARD
140
0.18
170
     2
 62
     0
 63
     7
283
     0
274
    -2
284
     1
 64
     0
275
    -2
285
     1
 65
     0
276
    -2
286
     1
 66
     0
277
    -2
287
     1
 67
     0
278
    -2
288
     1
 68
     0
279
    -2
289
     1
 69
     0
  7
STANDARD
140
0.25
170
     5
 62
     0
 63
     7
283
     0
274
    -2
284
     1
 64
     0
275
    -2
285
     1
 65
     0
276
    -2
286
     1
 66
     0
277
    -2
287
     1
 67
     0
278
    -2
288
     1
 68
     0
279
    -2
289
     1
 69
     0
  7
STANDARD
140
0.18
170
     5
 62
     0
 63
     7
283
     0
274
    -2
284
     1
 64
     0
275
    -2
285
     1
 65
     0
276
    -2
286
     1
 66
     0
277
    -2
287
     1
 67
     0
278
    -2
288
     1
 68
     0
279
    -2
289
     1
 69
     0
  0
VISUALSTYLE
  5
C80E
102
{ACAD_XDICTIONARY
360
C879
102
}
102
{ACAD_REACTORS
330
C808
102
}
330
C808
100
AcDbVisualStyle
  2
2dWireframe
 70
     4
 71
     0
 72
     2
 73
     0
 90
        0
 40
-0.6
 41
-30.0
 62
     5
 63
     7
421
 16777215
 74
     1
 91
        4
 64
     7
 65
   257
 75
     1
175
     1
 42
1.0
 92
        0
 66
   257
 43
1.0
 76
     1
 77
     6
 78
     2
 67
     7
 79
     5
170
     0
171
     0
290
     0
174
     0
 93
        1
 44
0.0
173
     0
291
     0
 45
0.0
1001
ACAD
1000
AcDbSavedByObjectVersion
1070
     0
  0
VISUALSTYLE
  5
C80D
102
{ACAD_XDICTIONARY
360
C877
102
}
102
{ACAD_REACTORS
330
C808
102
}
330
C808
100
AcDbVisualStyle
  2
Basic
 70
     7
 71
     1
 72
     0
 73
     1
 90
        0
 40
-0.6
 41
-30.0
 62
     5
 63
     7
421
 16777215
 74
     0
 91
        4
 64
     7
 65
   257
 75
     1
175
     1
 42
1.0
 92
        8
 66
     7
 43
1.0
 76
     1
 77
     6
 78
     2
 67
     7
 79
     5
170
     0
171
     0
290
     0
174
     0
 93
        1
 44
0.0
173
     0
291
     1
 45
0.0
1001
ACAD
1000
AcDbSavedByObjectVersion
1070
     0
  0
VISUALSTYLE
  5
C814
102
{ACAD_XDICTIONARY
360
C885
102
}
102
{ACAD_REACTORS
330
C808
102
}
330
C808
100
AcDbVisualStyle
  2
Brighten
 70
    12
 71
     2
 72
     2
 73
     0
 90
        0
 40
-0.6
 41
-30.0
 62
     5
 63
     7
421
 16777215
 74
     1
 91
        4
 64
     7
 65
   257
 75
     1
175
     1
 42
1.0
 92
        8
 66
     7
 43
1.0
 76
     1
 77
     6
 78
     2
 67
     7
 79
     5
170
     0
171
     0
290
     0
174
     0
 93
        1
 44
50.0
173
     0
291
     1
 45
0.0
1001
ACAD
1000
AcDbSavedByObjectVersion
1070
     0
  0
VISUALSTYLE
  5
C818
102
{ACAD_XDICTIONARY
360
C88D
102
}
102
{ACAD_REACTORS
330
C808
102
}
330
C808
100
AcDbVisualStyle
  2
ColorChange
 70
    16
 71
     2
 72
     2
 73
     3
 90
        0
 40
-0.6
 41
-30.0
 62
     5
 63
     8
421
  8421504
 74
     1
 91
        4
 64
     7
 65
   257
 75
     1
175
     1
 42
1.0
 92
        8
 66
     8
424
  8421504
 43
1.0
 76
     1
 77
     6
 78
     2
 67
     7
 79
     5
170
     0
171
     0
290
     0
174
     0
 93
        1
 44
0.0
173
     0
291
     1
 45
0.0
1001
ACAD
1000
AcDbSavedByObjectVersion
1070
     0
  0
VISUALSTYLE
  5
C811
102
{ACAD_XDICTIONARY
360
C87F
102
}
102
{ACAD_REACTORS
330
C808
102
}
330
C808
100
AcDbVisualStyle
  2
Conceptual
 70
     9
 71
     3
 72
     2
 73
     0
 90
        0
 40
-0.6
 41
-30.0
 62
     5
 63
     7
421
 16777215
 74
     2
 91
        2
 64
     7
 65
   257
 75
     1
175
     1
 42
179.0
 92
        8
 66
     7
 43
1.0
 76
     1
 77
     6
 78
     2
 67
     7
 79
     3
170
     0
171
     0
290
     0
174
     0
 93
        1
 44
0.0
173
     0
291
     0
 45
0.0
1001
ACAD
1000
AcDbSavedByObjectVersion
1070
     0
  0
VISUALSTYLE
  5
C813
102
{ACAD_XDICTIONARY
360
C883
102
}
102
{ACAD_REACTORS
330
C808
102
}
330
C808
100
AcDbVisualStyle
  2
Dim
 70
    11
 71
     2
 72
     2
 73
     0
 90
        0
 40
-0.6
 41
-30.0
 62
     5
 63
     7
421
 16777215
 74
     1
 91
        4
 64
     7
 65
   257
 75
     1
175
     1
 42
1.0
 92
        8
 66
     7
 43
1.0
 76
     1
 77
     6
 78
     2
 67
     7
 79
     5
170
     0
171
     0
290
     0
174
     0
 93
        1
 44
-50.0
173
     0
291
     1
 45
0.0
1001
ACAD
1000
AcDbSavedByObjectVersion
1070
     0
  0
VISUALSTYLE
  5
C820
102
{ACAD_XDICTIONARY
360
C89D
102
}
102
{ACAD_REACTORS
330
C808
102
}
330
C808
100
AcDbVisualStyle
  2
EdgeColorOff
 70
    22
 71
     2
 72
     2
 73
     0
 90
        0
 40
-0.6
 41
-30.0
 62
     5
 63
     7
421
 16777215
 74
     1
 91
        4
 64
     7
 65
   257
 75
     1
175
     1
 42
1.0
 92
        8
 66
     7
 43
1.0
 76
     1
 77
     6
 78
     2
 67
     7
 79
     5
170
     0
171
     0
290
     0
174
     0
 93
        1
 44
0.0
173
     0
291
     1
 45
0.0
1001
ACAD
1000
AcDbSavedByObjectVersion
1070
     0
  0
VISUALSTYLE
  5
C817
102
{ACAD_XDICTIONARY
360
C88B
102
}
102
{ACAD_REACTORS
330
C808
102
}
330
C808
100
AcDbVisualStyle
  2
Facepattern
 70
    15
 71
     2
 72
     2
 73
     0
 90
        0
 40
-0.6
 41
-30.0
 62
     5
 63
     7
421
 16777215
 74
     1
 91
        4
 64
     7
 65
   257
 75
     1
175
     1
 42
1.0
 92
        8
 66
     7
 43
1.0
 76
     1
 77
     6
 78
     2
 67
     7
 79
     5
170
     0
171
     0
290
     0
174
     0
 93
        1
 44
0.0
173
     0
291
     1
 45
0.0
1001
ACAD
1000
AcDbSavedByObjectVersion
1070
     0
  0
VISUALSTYLE
  5
C809
102
{ACAD_XDICTIONARY
360
C86F
102
}
102
{ACAD_REACTORS
330
C808
102
}
330
C808
100
AcDbVisualStyle
  2
Flat
 70
     0
 71
     2
 72
     1
 73
     1
 90
        2
 40
-0.6
 41
30.0
 62
     5
 63
     7
421
 16777215
 74
     0
 91
        0
 64
     7
 65
   257
 75
     1
175
     1
 42
1.0
 92
        8
 66
     7
 43
1.0
 76
     1
 77
     6
 78
     2
 67
     7
 79
     5
170
     0
171
     0
290
     0
174
     0
 93
       13
 44
0.0
173
     0
291
     1
 45
0.0
1001
ACAD
1000
AcDbSavedByObjectVersion
1070
     0
  0
VISUALSTYLE
  5
C80A
102
{ACAD_XDICTIONARY
360
C871
102
}
102
{ACAD_REACTORS
330
C808
102
}
330
C808
100
AcDbVisualStyle
  2
FlatWithEdges
 70
     1
 71
     2
 72
     1
 73
     1
 90
        2
 40
-0.6
 41
30.0
 62
     5
 63
     7
421
 16777215
 74
     1
 91
        0
 64
     7
 65
   257
 75
     1
175
     1
 42
1.0
 92
        0
 66
   257
 43
1.0
 76
     1
 77
     6
 78
     2
 67
     7
 79
     5
170
     0
171
     0
290
     0
174
     0
 93
       13
 44
0.0
173
     0
291
     1
 45
0.0
1001
ACAD
1000
AcDbSavedByObjectVersion
1070
     0
  0
VISUALSTYLE
  5
C80B
102
{ACAD_XDICTIONARY
360
C873
102
}
102
{ACAD_REACTORS
330
C808
102
}
330
C808
100
AcDbVisualStyle
  2
Gouraud
 70
     2
 71
     2
 72
     2
 73
     1
 90
        2
 40
-0.6
 41
30.0
 62
     5
 63
     7
421
 16777215
 74
     0
 91
        0
 64
     7
 65
   257
 75
     1
175
     1
 42
1.0
 92
        0
 66
     7
 43
1.0
 76
     1
 77
     6
 78
     2
 67
     7
 79
     5
170
     0
171
     0
290
     0
174
     0
 93
       13
 44
0.0
173
     0
291
     1
 45
0.0
1001
ACAD
1000
AcDbSavedByObjectVersion
1070
     0
  0
VISUALSTYLE
  5
C80C
102
{ACAD_XDICTIONARY
360
C875
102
}
102
{ACAD_REACTORS
330
C808
102
}
330
C808
100
AcDbVisualStyle
  2
GouraudWithEdges
 70
     3
 71
     2
 72
     2
 73
     1
 90
        2
 40
-0.6
 41
30.0
 62
     5
 63
     7
421
 16777215
 74
     1
 91
        0
 64
     7
 65
   257
 75
     1
175
     1
 42
1.0
 92
        0
 66
   257
 43
1.0
 76
     1
 77
     6
 78
     2
 67
     7
 79
     5
170
     0
171
     0
290
     0
174
     0
 93
       13
 44
0.0
173
     0
291
     1
 45
0.0
1001
ACAD
1000
AcDbSavedByObjectVersion
1070
     0
  0
VISUALSTYLE
  5
C810
102
{ACAD_XDICTIONARY
360
C87D
102
}
102
{ACAD_REACTORS
330
C808
102
}
330
C808
100
AcDbVisualStyle
  2
Hidden
 70
     6
 71
     1
 72
     2
 73
     2
 90
        0
 40
-0.6
 41
-30.0
 62
     5
 63
     7
421
 16777215
 74
     2
 91
        2
 64
     7
 65
   257
 75
     2
175
     1
 42
40.0
 92
        0
 66
   257
 43
1.0
 76
     1
 77
     6
 78
     2
 67
     7
 79
     3
170
     0
171
     0
290
     0
174
     0
 93
        1
 44
0.0
173
     0
291
     0
 45
0.0
1001
ACAD
1000
AcDbSavedByObjectVersion
1070
     0
  0
VISUALSTYLE
  5
C81E
102
{ACAD_XDICTIONARY
360
C899
102
}
102
{ACAD_REACTORS
330
C808
102
}
330
C808
100
AcDbVisualStyle
  2
JitterOff
 70
    20
 71
     2
 72
     2
 73
     0
 90
        0
 40
-0.6
 41
-30.0
 62
     5
 63
     7
421
 16777215
 74
     1
 91
        4
 64
     7
 65
   257
 75
     1
175
     1
 42
1.0
 92
       10
 66
     7
 43
1.0
 76
     1
 77
     6
 78
     2
 67
     7
 79
     5
170
     0
171
     0
290
     0
174
     0
 93
        1
 44
0.0
173
     0
291
     1
 45
0.0
1001
ACAD
1000
AcDbSavedByObjectVersion
1070
     0
  0
VISUALSTYLE
  5
C816
102
{ACAD_XDICTIONARY
360
C889
102
}
102
{ACAD_REACTORS
330
C808
102
}
330
C808
100
AcDbVisualStyle
  2
Linepattern
 70
    14
 71
     2
 72
     2
 73
     0
 90
        0
 40
-0.6
 41
-30.0
 62
     5
 63
     7
421
 16777215
 74
     1
 91
        4
 64
     7
 65
   257
 75
     7
175
     7
 42
1.0
 92
        8
 66
     7
 43
1.0
 76
     1
 77
     6
 78
     2
 67
     7
 79
     5
170
     0
171
     0
290
     0
174
     0
 93
        1
 44
0.0
173
     0
291
     1
 45
0.0
1001
ACAD
1000
AcDbSavedByObjectVersion
1070
     0
  0
VISUALSTYLE
  5
C81F
102
{ACAD_XDICTIONARY
360
C89B
102
}
102
{ACAD_REACTORS
330
C808
102
}
330
C808
100
AcDbVisualStyle
  2
OverhangOff
 70
    21
 71
     2
 72
     2
 73
     0
 90
        0
 40
-0.6
 41
-30.0
 62
     5
 63
     7
421
 16777215
 74
     1
 91
        4
 64
     7
 65
   257
 75
     1
175
     1
 42
1.0
 92
        9
 66
     7
 43
1.0
 76
     1
 77
     6
 78
     2
 67
     7
 79
     5
170
     0
171
     0
290
     0
174
     0
 93
        1
 44
0.0
173
     0
291
     1
 45
0.0
1001
ACAD
1000
AcDbSavedByObjectVersion
1070
     0
  0
VISUALSTYLE
  5
C812
102
{ACAD_XDICTIONARY
360
C881
102
}
102
{ACAD_REACTORS
330
C808
102
}
330
C808
100
AcDbVisualStyle
  2
Realistic
 70
     8
 71
     2
 72
     3
 73
     0
 90
        2
 40
-0.6
 41
30.0
 62
     5
 63
     7
421
 16777215
 74
     0
 91
        0
 64
     7
 65
   257
 75
     1
175
     1
 42
1.0
 92
        8
 66
   257
 43
1.0
 76
     1
 77
     6
 78
     2
 67
     7
 79
     3
170
     0
171
     0
290
     0
174
     0
 93
       13
 44
0.0
173
     0
291
     0
 45
0.0
1001
ACAD
1000
AcDbSavedByObjectVersion
1070
     0
  0
VISUALSTYLE
  5
C81D
102
{ACAD_XDICTIONARY
360
C897
102
}
102
{ACAD_REACTORS
330
C808
102
}
330
C808
100
AcDbVisualStyle
  2
Shaded
 70
    27
 71
     2
 72
     2
 73
     1
 90
        2
 40
-0.6
 41
30.0
 62
     5
 63
     7
421
 16777215
 74
     0
 91
        4
 64
     7
 65
   257
 75
     1
175
     1
 42
1.0
 92
        8
 66
   257
 43
1.0
 76
     1
 77
     6
 78
     2
 67
     8
425
  7895160
 79
     3
170
     0
171
     0
290
     0
174
     0
 93
        5
 44
0.0
173
     0
291
     0
 45
0.0
1001
ACAD
1000
AcDbSavedByObjectVersion
1070
     0
  0
VISUALSTYLE
  5
C81C
102
{ACAD_XDICTIONARY
360
C895
102
}
102
{ACAD_REACTORS
330
C808
102
}
330
C808
100
AcDbVisualStyle
  2
Shaded with edges
 70
    26
 71
     2
 72
     2
 73
     1
 90
        2
 40
-0.6
 41
30.0
 62
     5
 63
     7
421
 16777215
 74
     1
 91
       10
 64
     7
 65
   257
 75
     2
175
     1
 42
1.0
 92
        8
 66
   257
 43
1.0
 76
     1
 77
     6
 78
     2
 67
     7
 79
     3
170
     0
171
     0
290
     0
174
     0
 93
        5
 44
0.0
173
     0
291
     0
 45
0.0
1001
ACAD
1000
AcDbSavedByObjectVersion
1070
     0
  0
VISUALSTYLE
  5
C819
102
{ACAD_XDICTIONARY
360
C88F
102
}
102
{ACAD_REACTORS
330
C808
102
}
330
C808
100
AcDbVisualStyle
  2
Shades of Gray
 70
    23
 71
     2
 72
     2
 73
     3
 90
        0
 40
-0.6
 41
-30.0
 62
     5
 63
     7
421
 16777215
 74
     2
 91
        2
 64
     7
 65
     7
 75
     1
175
     1
 42
40.0
 92
        8
 66
     7
 43
1.0
 76
     1
 77
     6
 78
     2
 67
     7
 79
     3
170
     0
171
     0
290
     0
174
     0
 93
        1
 44
0.0
173
     0
291
     0
 45
0.0
1001
ACAD
1000
AcDbSavedByObjectVersion
1070
     0
  0
VISUALSTYLE
  5
C81A
102
{ACAD_XDICTIONARY
360
C891
102
}
102
{ACAD_REACTORS
330
C808
102
}
330
C808
100
AcDbVisualStyle
  2
Sketchy
 70
    24
 71
     1
 72
     2
 73
     2
 90
        0
 40
-0.6
 41
-30.0
 62
     5
 63
     7
421
 16777215
 74
     2
 91
        2
 64
     7
 65
     7
 75
     1
175
     1
 42
40.0
 92
       11
 66
     7
 43
1.0
 76
     1
 77
     6
 78
     2
 67
     7
 79
     6
170
     0
171
     0
290
     0
174
     0
 93
        1
 44
0.0
173
     0
291
     0
 45
0.0
1001
ACAD
1000
AcDbSavedByObjectVersion
1070
     0
  0
VISUALSTYLE
  5
C815
102
{ACAD_XDICTIONARY
360
C887
102
}
102
{ACAD_REACTORS
330
C808
102
}
330
C808
100
AcDbVisualStyle
  2
Thicken
 70
    13
 71
     2
 72
     2
 73
     0
 90
        0
 40
-0.6
 41
-30.0
 62
     5
 63
     7
421
 16777215
 74
     1
 91
        4
 64
     7
 65
   257
 75
     1
175
     1
 42
1.0
 92
       12
 66
     7
 43
1.0
 76
     1
 77
     6
 78
     2
 67
     7
 79
     5
170
     0
171
     0
290
     0
174
     0
 93
        1
 44
0.0
173
     0
291
     1
 45
0.0
1001
ACAD
1000
AcDbSavedByObjectVersion
1070
     0
  0
VISUALSTYLE
  5
C80F
102
{ACAD_XDICTIONARY
360
C87B
102
}
102
{ACAD_REACTORS
330
C808
102
}
330
C808
100
AcDbVisualStyle
  2
Wireframe
 70
     5
 71
     0
 72
     2
 73
     0
 90
        0
 40
-0.6
 41
-30.0
 62
     5
 63
     7
421
 16777215
 74
     1
 91
        4
 64
     7
 65
   257
 75
     1
175
     1
 42
1.0
 92
        0
 66
   257
 43
1.0
 76
     1
 77
     6
 78
     2
 67
     7
 79
     3
170
     0
171
     0
290
     0
174
     0
 93
        1
 44
0.0
173
     0
291
     0
 45
0.0
1001
ACAD
1000
AcDbSavedByObjectVersion
1070
     0
  0
VISUALSTYLE
  5
C81B
102
{ACAD_XDICTIONARY
360
C893
102
}
102
{ACAD_REACTORS
330
C808
102
}
330
C808
100
AcDbVisualStyle
  2
X-Ray
 70
    25
 71
     2
 72
     2
 73
     1
 90
        1
 40
0.5
 41
-30.0
 62
     5
 63
     7
421
 16777215
 74
     1
 91
        0
 64
     7
 65
   257
 75
     1
175
     1
 42
1.0
 92
        8
 66
     7
 43
1.0
 76
     1
 77
     6
 78
     2
 67
     7
 79
     3
170
     0
171
     0
290
     0
174
     0
 93
       13
 44
0.0
173
     0
291
     0
 45
0.0
1001
ACAD
1000
AcDbSavedByObjectVersion
1070
     0
  0
DICTIONARYVAR
  5
C864
102
{ACAD_REACTORS
330
1FDC
102
}
330
1FDC
100
DictionaryVariables
280
     0
  1
1:1
  0
DICTIONARYVAR
  5
C861
102
{ACAD_REACTORS
330
1FDC
102
}
330
1FDC
100
DictionaryVariables
280
     0
  1
STANDARD
  0
DICTIONARYVAR
  5
1FDD
102
{ACAD_REACTORS
330
1FDC
102
}
330
1FDC
100
DictionaryVariables
280
     0
  1
STANDARD
  0
DICTIONARYVAR
  5
C862
102
{ACAD_REACTORS
330
1FDC
102
}
330
1FDC
100
DictionaryVariables
280
     0
  1
Imperial24
  0
DICTIONARYVAR
  5
C863
102
{ACAD_REACTORS
330
1FDC
102
}
330
1FDC
100
DictionaryVariables
280
     0
  1
Imperial24
  0
DICTIONARYVAR
  5
1FDE
102
{ACAD_REACTORS
330
1FDC
102
}
330
1FDC
100
DictionaryVariables
280
     0
  1
1
  0
DICTIONARYVAR
  5
1FDF
102
{ACAD_REACTORS
330
1FDC
102
}
330
1FDC
100
DictionaryVariables
280
     0
  1

  0
DICTIONARYVAR
  5
C865
102
{ACAD_REACTORS
330
1FDC
102
}
330
1FDC
100
DictionaryVariables
280
     0
  1
2
  0
DICTIONARY
  5
C7F9
330
C7F8
100
AcDbDictionary
280
     1
281
     1
  3
ACAD_XREC_ROUNDTRIP
360
C86D
  3
BUMPTILE
360
C7FB
  3
DIFFUSETILE
360
C7FA
  3
OPACITYTILE
360
C7FE
  3
REFLECTIONTILE
360
C7FD
  3
REFRACTIONTILE
360
C7FF
  3
SPECULARTILE
360
C7FC
  0
DICTIONARY
  5
C7F1
330
C7F0
100
AcDbDictionary
280
     1
281
     1
  3
ACAD_XREC_ROUNDTRIP
360
C86C
  3
BUMPTILE
360
C7F3
  3
DIFFUSETILE
360
C7F2
  3
OPACITYTILE
360
C7F6
  3
REFLECTIONTILE
360
C7F5
  3
REFRACTIONTILE
360
C7F7
  3
SPECULARTILE
360
C7F4
  0
DICTIONARY
  5
C801
330
C800
100
AcDbDictionary
280
     1
281
     1
  3
ACAD_XREC_ROUNDTRIP
360
C86E
  3
BUMPTILE
360
C803
  3
DIFFUSETILE
360
C802
  3
OPACITYTILE
360
C806
  3
REFLECTIONTILE
360
C805
  3
REFRACTIONTILE
360
C807
  3
SPECULARTILE
360
C804
  0
DICTIONARY
  5
C8A0
330
C834
100
AcDbDictionary
280
     1
281
     1
  3
ACAD_XREC_ROUNDTRIP
360
C8A1
  0
DICTIONARY
  5
C867
330
1FCB
100
AcDbDictionary
280
     1
281
     1
  3
ACAD_ROUNDTRIP_2008_TABLESTYLE_CELLSTYLEMAP
360
C868
  3
ACAD_XREC_ROUNDTRIP
360
C86A
  0
DICTIONARY
  5
C879
330
C80E
100
AcDbDictionary
280
     1
281
     1
  3
ACAD_XREC_ROUNDTRIP
360
C87A
  0
DICTIONARY
  5
C877
330
C80D
100
AcDbDictionary
280
     1
281
     1
  3
ACAD_XREC_ROUNDTRIP
360
C878
  0
DICTIONARY
  5
C885
330
C814
100
AcDbDictionary
280
     1
281
     1
  3
ACAD_XREC_ROUNDTRIP
360
C886
  0
DICTIONARY
  5
C88D
330
C818
100
AcDbDictionary
280
     1
281
     1
  3
ACAD_XREC_ROUNDTRIP
360
C88E
  0
DICTIONARY
  5
C87F
330
C811
100
AcDbDictionary
280
     1
281
     1
  3
ACAD_XREC_ROUNDTRIP
360
C880
  0
DICTIONARY
  5
C883
330
C813
100
AcDbDictionary
280
     1
281
     1
  3
ACAD_XREC_ROUNDTRIP
360
C884
  0
DICTIONARY
  5
C89D
330
C820
100
AcDbDictionary
280
     1
281
     1
  3
ACAD_XREC_ROUNDTRIP
360
C89E
  0
DICTIONARY
  5
C88B
330
C817
100
AcDbDictionary
280
     1
281
     1
  3
ACAD_XREC_ROUNDTRIP
360
C88C
  0
DICTIONARY
  5
C86F
330
C809
100
AcDbDictionary
280
     1
281
     1
  3
ACAD_XREC_ROUNDTRIP
360
C870
  0
DICTIONARY
  5
C871
330
C80A
100
AcDbDictionary
280
     1
281
     1
  3
ACAD_XREC_ROUNDTRIP
360
C872
  0
DICTIONARY
  5
C873
330
C80B
100
AcDbDictionary
280
     1
281
     1
  3
ACAD_XREC_ROUNDTRIP
360
C874
  0
DICTIONARY
  5
C875
330
C80C
100
AcDbDictionary
280
     1
281
     1
  3
ACAD_XREC_ROUNDTRIP
360
C876
  0
DICTIONARY
  5
C87D
330
C810
100
AcDbDictionary
280
     1
281
     1
  3
ACAD_XREC_ROUNDTRIP
360
C87E
  0
DICTIONARY
  5
C899
330
C81E
100
AcDbDictionary
280
     1
281
     1
  3
ACAD_XREC_ROUNDTRIP
360
C89A
  0
DICTIONARY
  5
C889
330
C816
100
AcDbDictionary
280
     1
281
     1
  3
ACAD_XREC_ROUNDTRIP
360
C88A
  0
DICTIONARY
  5
C89B
330
C81F
100
AcDbDictionary
280
     1
281
     1
  3
ACAD_XREC_ROUNDTRIP
360
C89C
  0
DICTIONARY
  5
C881
330
C812
100
AcDbDictionary
280
     1
281
     1
  3
ACAD_XREC_ROUNDTRIP
360
C882
  0
DICTIONARY
  5
C897
330
C81D
100
AcDbDictionary
280
     1
281
     1
  3
ACAD_XREC_ROUNDTRIP
360
C898
  0
DICTIONARY
  5
C895
330
C81C
100
AcDbDictionary
280
     1
281
     1
  3
ACAD_XREC_ROUNDTRIP
360
C896
  0
DICTIONARY
  5
C88F
330
C819
100
AcDbDictionary
280
     1
281
     1
  3
ACAD_XREC_ROUNDTRIP
360
C890
  0
DICTIONARY
  5
C891
330
C81A
100
AcDbDictionary
280
     1
281
     1
  3
ACAD_XREC_ROUNDTRIP
360
C892
  0
DICTIONARY
  5
C887
330
C815
100
AcDbDictionary
280
     1
281
     1
  3
ACAD_XREC_ROUNDTRIP
360
C888
  0
DICTIONARY
  5
C87B
330
C80F
100
AcDbDictionary
280
     1
281
     1
  3
ACAD_XREC_ROUNDTRIP
360
C87C
  0
DICTIONARY
  5
C893
330
C81B
100
AcDbDictionary
280
     1
281
     1
  3
ACAD_XREC_ROUNDTRIP
360
C894
  0
XRECORD
  5
C86D
102
{ACAD_REACTORS
330
C7F9
102
}
330
C7F9
100
AcDbXrecord
280
     1
102
MATERIAL
148
0.0
149
0.0
149
0.0
 93
        0
 94
      127
282
     0
 72
     0
 77
     0
171
     0
175
     0
179
     0
273
     0
  0
XRECORD
  5
C7FB
102
{ACAD_REACTORS
330
C7F9
102
}
330
C7F9
100
AcDbXrecord
280
     1
270
     1
271
     1
  0
XRECORD
  5
C7FA
102
{ACAD_REACTORS
330
C7F9
102
}
330
C7F9
100
AcDbXrecord
280
     1
270
     1
271
     1
  0
XRECORD
  5
C7FE
102
{ACAD_REACTORS
330
C7F9
102
}
330
C7F9
100
AcDbXrecord
280
     1
270
     1
271
     1
  0
XRECORD
  5
C7FD
102
{ACAD_REACTORS
330
C7F9
102
}
330
C7F9
100
AcDbXrecord
280
     1
270
     1
271
     1
  0
XRECORD
  5
C7FF
102
{ACAD_REACTORS
330
C7F9
102
}
330
C7F9
100
AcDbXrecord
280
     1
270
     1
271
     1
  0
XRECORD
  5
C7FC
102
{ACAD_REACTORS
330
C7F9
102
}
330
C7F9
100
AcDbXrecord
280
     1
270
     1
271
     1
  0
XRECORD
  5
C86C
102
{ACAD_REACTORS
330
C7F1
102
}
330
C7F1
100
AcDbXrecord
280
     1
102
MATERIAL
148
0.0
149
0.0
149
0.0
 93
        0
 94
      127
282
     0
 72
     0
 77
     0
171
     0
175
     0
179
     0
273
     0
  0
XRECORD
  5
C7F3
102
{ACAD_REACTORS
330
C7F1
102
}
330
C7F1
100
AcDbXrecord
280
     1
270
     1
271
     1
  0
XRECORD
  5
C7F2
102
{ACAD_REACTORS
330
C7F1
102
}
330
C7F1
100
AcDbXrecord
280
     1
270
     1
271
     1
  0
XRECORD
  5
C7F6
102
{ACAD_REACTORS
330
C7F1
102
}
330
C7F1
100
AcDbXrecord
280
     1
270
     1
271
     1
  0
XRECORD
  5
C7F5
102
{ACAD_REACTORS
330
C7F1
102
}
330
C7F1
100
AcDbXrecord
280
     1
270
     1
271
     1
  0
XRECORD
  5
C7F7
102
{ACAD_REACTORS
330
C7F1
102
}
330
C7F1
100
AcDbXrecord
280
     1
270
     1
271
     1
  0
XRECORD
  5
C7F4
102
{ACAD_REACTORS
330
C7F1
102
}
330
C7F1
100
AcDbXrecord
280
     1
270
     1
271
     1
  0
XRECORD
  5
C86E
102
{ACAD_REACTORS
330
C801
102
}
330
C801
100
AcDbXrecord
280
     1
102
MATERIAL
148
0.0
149
0.0
149
0.0
 93
        0
 94
      127
282
     0
 72
     0
 77
     0
171
     0
175
     0
179
     0
273
     0
  0
XRECORD
  5
C803
102
{ACAD_REACTORS
330
C801
102
}
330
C801
100
AcDbXrecord
280
     1
270
     1
271
     1
  0
XRECORD
  5
C802
102
{ACAD_REACTORS
330
C801
102
}
330
C801
100
AcDbXrecord
280
     1
270
     1
271
     1
  0
XRECORD
  5
C806
102
{ACAD_REACTORS
330
C801
102
}
330
C801
100
AcDbXrecord
280
     1
270
     1
271
     1
  0
XRECORD
  5
C805
102
{ACAD_REACTORS
330
C801
102
}
330
C801
100
AcDbXrecord
280
     1
270
     1
271
     1
  0
XRECORD
  5
C807
102
{ACAD_REACTORS
330
C801
102
}
330
C801
100
AcDbXrecord
280
     1
270
     1
271
     1
  0
XRECORD
  5
C804
102
{ACAD_REACTORS
330
C801
102
}
330
C801
100
AcDbXrecord
280
     1
270
     1
271
     1
  0
XRECORD
  5
C8A1
102
{ACAD_REACTORS
330
C8A0
102
}
330
C8A0
100
AcDbXrecord
280
     1
102
ACAD_ROUNDTRIP_2012_MLEADER_STYLE
298
     1
  0
CELLSTYLEMAP
  5
C868
102
{ACAD_REACTORS
330
C867
102
}
330
C867
100
AcDbCellStyleMap
 90
        3
300
CELLSTYLE
  1
TABLEFORMAT_BEGIN
 90
        5
170
     1
 91
        0
 92
    32768
 62
   257
 93
        1
300
CONTENTFORMAT
  1
CONTENTFORMAT_BEGIN
 90
        0
 91
        0
 92
        4
 93
        0
300

 40
0.0
140
1.0
 94
        5
 62
     0
340
C
144
0.25
309
CONTENTFORMAT_END
171
     0
 94
        6
 95
        1
302
GRIDFORMAT
  1
GRIDFORMAT_BEGIN
 90
        0
 91
        1
 62
     0
 92
       -2
340
0
 93
        0
 40
0.045
309
GRIDFORMAT_END
 95
        2
302
GRIDFORMAT
  1
GRIDFORMAT_BEGIN
 90
        0
 91
        1
 62
     0
 92
       -2
340
0
 93
        0
 40
0.045
309
GRIDFORMAT_END
 95
        4
302
GRIDFORMAT
  1
GRIDFORMAT_BEGIN
 90
        0
 91
        1
 62
     0
 92
       -2
340
0
 93
        0
 40
0.045
309
GRIDFORMAT_END
 95
        8
302
GRIDFORMAT
  1
GRIDFORMAT_BEGIN
 90
        0
 91
        1
 62
     0
 92
       -2
340
0
 93
        0
 40
0.045
309
GRIDFORMAT_END
 95
       16
302
GRIDFORMAT
  1
GRIDFORMAT_BEGIN
 90
        0
 91
        1
 62
     0
 92
       -2
340
0
 93
        0
 40
0.045
309
GRIDFORMAT_END
 95
       32
302
GRIDFORMAT
  1
GRIDFORMAT_BEGIN
 90
        0
 91
        1
 62
     0
 92
       -2
340
0
 93
        0
 40
0.045
309
GRIDFORMAT_END
309
TABLEFORMAT_END
  1
CELLSTYLE_BEGIN
 90
        1
 91
        1
300
_TITLE
309
CELLSTYLE_END
300
CELLSTYLE
  1
TABLEFORMAT_BEGIN
 90
        5
170
     1
 91
        0
 92
        0
 62
   257
 93
        1
300
CONTENTFORMAT
  1
CONTENTFORMAT_BEGIN
 90
        0
 91
        0
 92
        4
 93
        0
300

 40
0.0
140
1.0
 94
        5
 62
     0
340
C
144
0.18
309
CONTENTFORMAT_END
171
     0
 94
        6
 95
        1
302
GRIDFORMAT
  1
GRIDFORMAT_BEGIN
 90
        0
 91
        1
 62
     0
 92
       -2
340
0
 93
        0
 40
0.045
309
GRIDFORMAT_END
 95
        2
302
GRIDFORMAT
  1
GRIDFORMAT_BEGIN
 90
        0
 91
        1
 62
     0
 92
       -2
340
0
 93
        0
 40
0.045
309
GRIDFORMAT_END
 95
        4
302
GRIDFORMAT
  1
GRIDFORMAT_BEGIN
 90
        0
 91
        1
 62
     0
 92
       -2
340
0
 93
        0
 40
0.045
309
GRIDFORMAT_END
 95
        8
302
GRIDFORMAT
  1
GRIDFORMAT_BEGIN
 90
        0
 91
        1
 62
     0
 92
       -2
340
0
 93
        0
 40
0.045
309
GRIDFORMAT_END
 95
       16
302
GRIDFORMAT
  1
GRIDFORMAT_BEGIN
 90
        0
 91
        1
 62
     0
 92
       -2
340
0
 93
        0
 40
0.045
309
GRIDFORMAT_END
 95
       32
302
GRIDFORMAT
  1
GRIDFORMAT_BEGIN
 90
        0
 91
        1
 62
     0
 92
       -2
340
0
 93
        0
 40
0.045
309
GRIDFORMAT_END
309
TABLEFORMAT_END
  1
CELLSTYLE_BEGIN
 90
        2
 91
        1
300
_HEADER
309
CELLSTYLE_END
300
CELLSTYLE
  1
TABLEFORMAT_BEGIN
 90
        5
170
     1
 91
        0
 92
        0
 62
   257
 93
        1
300
CONTENTFORMAT
  1
CONTENTFORMAT_BEGIN
 90
        0
 91
        0
 92
        4
 93
        0
300

 40
0.0
140
1.0
 94
        2
 62
     0
340
C
144
0.18
309
CONTENTFORMAT_END
171
     0
 94
        6
 95
        1
302
GRIDFORMAT
  1
GRIDFORMAT_BEGIN
 90
        0
 91
        1
 62
     0
 92
       -2
340
0
 93
        0
 40
0.045
309
GRIDFORMAT_END
 95
        2
302
GRIDFORMAT
  1
GRIDFORMAT_BEGIN
 90
        0
 91
        1
 62
     0
 92
       -2
340
0
 93
        0
 40
0.045
309
GRIDFORMAT_END
 95
        4
302
GRIDFORMAT
  1
GRIDFORMAT_BEGIN
 90
        0
 91
        1
 62
     0
 92
       -2
340
0
 93
        0
 40
0.045
309
GRIDFORMAT_END
 95
        8
302
GRIDFORMAT
  1
GRIDFORMAT_BEGIN
 90
        0
 91
        1
 62
     0
 92
       -2
340
0
 93
        0
 40
0.045
309
GRIDFORMAT_END
 95
       16
302
GRIDFORMAT
  1
GRIDFORMAT_BEGIN
 90
        0
 91
        1
 62
     0
 92
       -2
340
0
 93
        0
 40
0.045
309
GRIDFORMAT_END
 95
       32
302
GRIDFORMAT
  1
GRIDFORMAT_BEGIN
 90
        0
 91
        1
 62
     0
 92
       -2
340
0
 93
        0
 40
0.045
309
GRIDFORMAT_END
309
TABLEFORMAT_END
  1
CELLSTYLE_BEGIN
 90
        3
 91
        2
300
_DATA
309
CELLSTYLE_END
  0
XRECORD
  5
C86A
102
{ACAD_REACTORS
330
C867
102
}
330
C867
100
AcDbXrecord
280
     1
102
ACAD_ROUNDTRIP_PRE2007_TABLESTYLE
 90
        4
 91
        0
  1

 92
        4
 93
        0
  2

 94
        4
 95
        0
  3

  0
XRECORD
  5
C87A
102
{ACAD_REACTORS
330
C879
102
}
330
C879
100
AcDbXrecord
280
     1
102
RTVSPost2010Prop28
280
     1
102
RTVSPost2010PropOp28
 70
     1
102
RTVSPost2010Prop29
280
     1
102
RTVSPost2010PropOp29
 70
     1
102
RTVSPost2010Prop30
280
     0
102
RTVSPost2010PropOp30
 70
     1
102
RTVSPost2010Prop31
280
     0
102
RTVSPost2010PropOp31
 70
     1
102
RTVSPost2010Prop32
280
     0
102
RTVSPost2010PropOp32
 70
     1
102
RTVSPost2010Prop33
280
     0
102
RTVSPost2010PropOp33
 70
     1
102
RTVSPost2010Prop34
280
     0
102
RTVSPost2010PropOp34
 70
     1
102
RTVSPost2010Prop35
280
     0
102
RTVSPost2010PropOp35
 70
     1
102
RTVSPost2010Prop36
280
     0
102
RTVSPost2010PropOp36
 70
     1
102
RTVSPost2010Prop37
 90
       50
102
RTVSPost2010PropOp37
 70
     1
102
RTVSPost2010Prop38
140
0.0
102
RTVSPost2010PropOp38
 70
     1
102
RTVSPost2010Prop39
140
1.0
102
RTVSPost2010PropOp39
 70
     1
102
RTVSPost2010Prop40
 90
        0
102
RTVSPost2010PropOp40
 70
     1
102
RTVSPost2010Prop41ColorIndex
 90
       18
102
RTVSPost2010Prop41ColorRGB
 90
        0
102
RTVSPost2010PropOp41
 70
     1
102
RTVSPost2010Prop42
 90
       50
102
RTVSPost2010PropOp42
 70
     1
102
RTVSPost2010Prop43
 90
        3
102
RTVSPost2010PropOp43
 70
     1
102
RTVSPost2010Prop44ColorIndex
 90
        5
102
RTVSPost2010Prop44ColorRGB
 90
      255
102
RTVSPost2010PropOp44
 70
     1
102
RTVSPost2010Prop45
280
     0
102
RTVSPost2010PropOp45
 70
     1
102
RTVSPost2010Prop46
 90
       50
102
RTVSPost2010PropOp46
 70
     1
102
RTVSPost2010Prop47
 90
       50
102
RTVSPost2010PropOp47
 70
     1
102
RTVSPost2010Prop48
 90
       50
102
RTVSPost2010PropOp48
 70
     1
102
RTVSPost2010Prop49
280
     0
102
RTVSPost2010PropOp49
 70
     1
102
RTVSPost2010Prop50
 90
       50
102
RTVSPost2010PropOp50
 70
     1
102
RTVSPost2010Prop51ColorIndex
 90
      256
102
RTVSPost2010Prop51ColorRGB
 90
-16777216
102
RTVSPost2010PropOp51
 70
     0
102
RTVSPost2010Prop52
140
1.0
102
RTVSPost2010PropOp52
 70
     0
102
RTVSPost2010Prop53
 90
        2
102
RTVSPost2010PropOp53
 70
     1
102
RTVSPost2010Prop54
  1
strokes_ogs.tif
102
RTVSPost2010PropOp54
 70
     1
102
RTVSPost2010Prop55
280
     0
102
RTVSPost2010PropOp55
 70
     1
102
RTVSPost2010Prop56
140
1.0
102
RTVSPost2010PropOp56
 70
     1
102
RTVSPost2010Prop57
140
1.0
102
RTVSPost2010PropOp57
 70
     1
102
RTVSPropertyOp0
 70
     1
102
RTVSPropertyOp1
 70
     1
102
RTVSPropertyOp2
 70
     1
102
RTVSPropertyOp3
 70
     1
102
RTVSPropertyOp4
 70
     1
102
RTVSPropertyOp5
 70
     1
102
RTVSPropertyOp6
 70
     1
102
RTVSPropertyOp7
 70
     1
102
RTVSPropertyOp8
 70
     1
102
RTVSPropertyOp9
 70
     1
102
RTVSPropertyOp10
 70
     1
102
RTVSPropertyOp11
 70
     1
102
RTVSPropertyOp12
 70
     1
102
RTVSPropertyOp13
 70
     1
102
RTVSPropertyOp14
 70
     1
102
RTVSPropertyOp15
 70
     1
102
RTVSPropertyOp16
 70
     1
102
RTVSPropertyOp17
 70
     1
102
RTVSPropertyOp18
 70
     1
102
RTVSPropertyOp19
 70
     1
102
RTVSPropertyOp20
 70
     1
102
RTVSPropertyOp21
 70
     1
102
RTVSPropertyOp22
 70
     1
102
RTVSPropertyOp23
 70
     1
102
RTVSPropertyOp24
 70
     1
102
RTVSPropertyOp25
 70
     1
102
RTVSPropertyOp26
 70
     1
102
RTVSPropertyOp27
 70
     1
102
RTVSPropertyOp28
 70
     1
102
RTVSPropertyOp29
 70
     1
102
RTVSPropertyOp30
 70
     1
102
RTVSPropertyOp31
 70
     1
102
RTVSPropertyOp32
 70
     1
102
RTVSPropertyOp33
 70
     1
102
RTVSPropertyOp34
 70
     1
102
RTVSPropertyOp35
 70
     1
102
RTVSPropertyOp36
 70
     1
102
RTVSPropertyOp37
 70
     1
102
RTVSPropertyOp38
 70
     1
102
RTVSPropertyOp39
 70
     1
102
RTVSPropertyOp40
 70
     1
102
RTVSPropertyOp41
 70
     1
102
RTVSPropertyOp42
 70
     1
102
RTVSPropertyOp43
 70
     1
102
RTVSPropertyOp44
 70
     1
102
RTVSPropertyOp45
 70
     1
102
RTVSPropertyOp46
 70
     1
102
RTVSPropertyOp47
 70
     1
102
RTVSPropertyOp48
 70
     1
102
RTVSPropertyOp49
 70
     1
102
RTVSPropertyOp50
 70
     1
102
RTVSPropertyOp51
 70
     0
102
RTVSPropertyOp52
 70
     0
102
RTVSPropertyOp53
 70
     1
102
RTVSPropertyOp54
 70
     1
102
RTVSPropertyOp55
 70
     1
102
RTVSPropertyOp56
 70
     1
102
RTVSPropertyOp57
 70
     1
102
RTVSPropertyOp58
 70
     1
102
RTVSPropertyOp59
 70
     1
102
RTVSPropertyOp60
 70
     1
102
RTVSPropertyOp61
 70
     1
102
RTVSPropertyOp62
 70
     1
  0
XRECORD
  5
C878
102
{ACAD_REACTORS
330
C877
102
}
330
C877
100
AcDbXrecord
280
     1
102
RTVSPost2010Prop28
280
     0
102
RTVSPost2010PropOp28
 70
     1
102
RTVSPost2010Prop29
280
     1
102
RTVSPost2010PropOp29
 70
     1
102
RTVSPost2010Prop30
280
     1
102
RTVSPost2010PropOp30
 70
     1
102
RTVSPost2010Prop31
280
     0
102
RTVSPost2010PropOp31
 70
     1
102
RTVSPost2010Prop32
280
     0
102
RTVSPost2010PropOp32
 70
     1
102
RTVSPost2010Prop33
280
     0
102
RTVSPost2010PropOp33
 70
     1
102
RTVSPost2010Prop34
280
     0
102
RTVSPost2010PropOp34
 70
     1
102
RTVSPost2010Prop35
280
     0
102
RTVSPost2010PropOp35
 70
     1
102
RTVSPost2010Prop36
280
     0
102
RTVSPost2010PropOp36
 70
     1
102
RTVSPost2010Prop37
 90
       50
102
RTVSPost2010PropOp37
 70
     1
102
RTVSPost2010Prop38
140
0.0
102
RTVSPost2010PropOp38
 70
     1
102
RTVSPost2010Prop39
140
1.0
102
RTVSPost2010PropOp39
 70
     1
102
RTVSPost2010Prop40
 90
        0
102
RTVSPost2010PropOp40
 70
     1
102
RTVSPost2010Prop41ColorIndex
 90
       18
102
RTVSPost2010Prop41ColorRGB
 90
        0
102
RTVSPost2010PropOp41
 70
     1
102
RTVSPost2010Prop42
 90
       50
102
RTVSPost2010PropOp42
 70
     1
102
RTVSPost2010Prop43
 90
        3
102
RTVSPost2010PropOp43
 70
     1
102
RTVSPost2010Prop44ColorIndex
 90
        5
102
RTVSPost2010Prop44ColorRGB
 90
      255
102
RTVSPost2010PropOp44
 70
     1
102
RTVSPost2010Prop45
280
     0
102
RTVSPost2010PropOp45
 70
     1
102
RTVSPost2010Prop46
 90
       50
102
RTVSPost2010PropOp46
 70
     1
102
RTVSPost2010Prop47
 90
       50
102
RTVSPost2010PropOp47
 70
     1
102
RTVSPost2010Prop48
 90
       50
102
RTVSPost2010PropOp48
 70
     1
102
RTVSPost2010Prop49
280
     0
102
RTVSPost2010PropOp49
 70
     1
102
RTVSPost2010Prop50
 90
       50
102
RTVSPost2010PropOp50
 70
     1
102
RTVSPost2010Prop51ColorIndex
 90
      256
102
RTVSPost2010Prop51ColorRGB
 90
-16777216
102
RTVSPost2010PropOp51
 70
     0
102
RTVSPost2010Prop52
140
1.0
102
RTVSPost2010PropOp52
 70
     0
102
RTVSPost2010Prop53
 90
        2
102
RTVSPost2010PropOp53
 70
     1
102
RTVSPost2010Prop54
  1
strokes_ogs.tif
102
RTVSPost2010PropOp54
 70
     1
102
RTVSPost2010Prop55
280
     0
102
RTVSPost2010PropOp55
 70
     1
102
RTVSPost2010Prop56
140
1.0
102
RTVSPost2010PropOp56
 70
     1
102
RTVSPost2010Prop57
140
1.0
102
RTVSPost2010PropOp57
 70
     1
102
RTVSPropertyOp0
 70
     1
102
RTVSPropertyOp1
 70
     1
102
RTVSPropertyOp2
 70
     1
102
RTVSPropertyOp3
 70
     1
102
RTVSPropertyOp4
 70
     1
102
RTVSPropertyOp5
 70
     1
102
RTVSPropertyOp6
 70
     1
102
RTVSPropertyOp7
 70
     1
102
RTVSPropertyOp8
 70
     1
102
RTVSPropertyOp9
 70
     1
102
RTVSPropertyOp10
 70
     1
102
RTVSPropertyOp11
 70
     1
102
RTVSPropertyOp12
 70
     1
102
RTVSPropertyOp13
 70
     1
102
RTVSPropertyOp14
 70
     1
102
RTVSPropertyOp15
 70
     1
102
RTVSPropertyOp16
 70
     1
102
RTVSPropertyOp17
 70
     1
102
RTVSPropertyOp18
 70
     1
102
RTVSPropertyOp19
 70
     1
102
RTVSPropertyOp20
 70
     1
102
RTVSPropertyOp21
 70
     1
102
RTVSPropertyOp22
 70
     1
102
RTVSPropertyOp23
 70
     1
102
RTVSPropertyOp24
 70
     1
102
RTVSPropertyOp25
 70
     1
102
RTVSPropertyOp26
 70
     1
102
RTVSPropertyOp27
 70
     1
102
RTVSPropertyOp28
 70
     1
102
RTVSPropertyOp29
 70
     1
102
RTVSPropertyOp30
 70
     1
102
RTVSPropertyOp31
 70
     1
102
RTVSPropertyOp32
 70
     1
102
RTVSPropertyOp33
 70
     1
102
RTVSPropertyOp34
 70
     1
102
RTVSPropertyOp35
 70
     1
102
RTVSPropertyOp36
 70
     1
102
RTVSPropertyOp37
 70
     1
102
RTVSPropertyOp38
 70
     1
102
RTVSPropertyOp39
 70
     1
102
RTVSPropertyOp40
 70
     1
102
RTVSPropertyOp41
 70
     1
102
RTVSPropertyOp42
 70
     1
102
RTVSPropertyOp43
 70
     1
102
RTVSPropertyOp44
 70
     1
102
RTVSPropertyOp45
 70
     1
102
RTVSPropertyOp46
 70
     1
102
RTVSPropertyOp47
 70
     1
102
RTVSPropertyOp48
 70
     1
102
RTVSPropertyOp49
 70
     1
102
RTVSPropertyOp50
 70
     1
102
RTVSPropertyOp51
 70
     0
102
RTVSPropertyOp52
 70
     0
102
RTVSPropertyOp53
 70
     1
102
RTVSPropertyOp54
 70
     1
102
RTVSPropertyOp55
 70
     1
102
RTVSPropertyOp56
 70
     1
102
RTVSPropertyOp57
 70
     1
102
RTVSPropertyOp58
 70
     1
102
RTVSPropertyOp59
 70
     1
102
RTVSPropertyOp60
 70
     1
102
RTVSPropertyOp61
 70
     1
102
RTVSPropertyOp62
 70
     1
  0
XRECORD
  5
C886
102
{ACAD_REACTORS
330
C885
102
}
330
C885
100
AcDbXrecord
280
     1
102
RTVSPost2010Prop28
280
     0
102
RTVSPost2010PropOp28
 70
     1
102
RTVSPost2010Prop29
280
     1
102
RTVSPost2010PropOp29
 70
     1
102
RTVSPost2010Prop30
280
     1
102
RTVSPost2010PropOp30
 70
     1
102
RTVSPost2010Prop31
280
     0
102
RTVSPost2010PropOp31
 70
     1
102
RTVSPost2010Prop32
280
     0
102
RTVSPost2010PropOp32
 70
     1
102
RTVSPost2010Prop33
280
     0
102
RTVSPost2010PropOp33
 70
     1
102
RTVSPost2010Prop34
280
     0
102
RTVSPost2010PropOp34
 70
     1
102
RTVSPost2010Prop35
280
     0
102
RTVSPost2010PropOp35
 70
     1
102
RTVSPost2010Prop36
280
     0
102
RTVSPost2010PropOp36
 70
     1
102
RTVSPost2010Prop37
 90
       50
102
RTVSPost2010PropOp37
 70
     1
102
RTVSPost2010Prop38
140
0.0
102
RTVSPost2010PropOp38
 70
     1
102
RTVSPost2010Prop39
140
1.0
102
RTVSPost2010PropOp39
 70
     1
102
RTVSPost2010Prop40
 90
        0
102
RTVSPost2010PropOp40
 70
     1
102
RTVSPost2010Prop41ColorIndex
 90
       18
102
RTVSPost2010Prop41ColorRGB
 90
        0
102
RTVSPost2010PropOp41
 70
     1
102
RTVSPost2010Prop42
 90
       50
102
RTVSPost2010PropOp42
 70
     1
102
RTVSPost2010Prop43
 90
        3
102
RTVSPost2010PropOp43
 70
     1
102
RTVSPost2010Prop44ColorIndex
 90
        5
102
RTVSPost2010Prop44ColorRGB
 90
      255
102
RTVSPost2010PropOp44
 70
     1
102
RTVSPost2010Prop45
280
     0
102
RTVSPost2010PropOp45
 70
     1
102
RTVSPost2010Prop46
 90
       50
102
RTVSPost2010PropOp46
 70
     1
102
RTVSPost2010Prop47
 90
       50
102
RTVSPost2010PropOp47
 70
     1
102
RTVSPost2010Prop48
 90
       50
102
RTVSPost2010PropOp48
 70
     1
102
RTVSPost2010Prop49
280
     0
102
RTVSPost2010PropOp49
 70
     1
102
RTVSPost2010Prop50
 90
       50
102
RTVSPost2010PropOp50
 70
     1
102
RTVSPost2010Prop51ColorIndex
 90
      256
102
RTVSPost2010Prop51ColorRGB
 90
-16777216
102
RTVSPost2010PropOp51
 70
     0
102
RTVSPost2010Prop52
140
1.0
102
RTVSPost2010PropOp52
 70
     0
102
RTVSPost2010Prop53
 90
        2
102
RTVSPost2010PropOp53
 70
     1
102
RTVSPost2010Prop54
  1
strokes_ogs.tif
102
RTVSPost2010PropOp54
 70
     1
102
RTVSPost2010Prop55
280
     0
102
RTVSPost2010PropOp55
 70
     1
102
RTVSPost2010Prop56
140
1.0
102
RTVSPost2010PropOp56
 70
     1
102
RTVSPost2010Prop57
140
1.0
102
RTVSPost2010PropOp57
 70
     1
102
RTVSPropertyOp0
 70
     1
102
RTVSPropertyOp1
 70
     1
102
RTVSPropertyOp2
 70
     1
102
RTVSPropertyOp3
 70
     1
102
RTVSPropertyOp4
 70
     1
102
RTVSPropertyOp5
 70
     1
102
RTVSPropertyOp6
 70
     1
102
RTVSPropertyOp7
 70
     1
102
RTVSPropertyOp8
 70
     1
102
RTVSPropertyOp9
 70
     1
102
RTVSPropertyOp10
 70
     1
102
RTVSPropertyOp11
 70
     1
102
RTVSPropertyOp12
 70
     1
102
RTVSPropertyOp13
 70
     1
102
RTVSPropertyOp14
 70
     1
102
RTVSPropertyOp15
 70
     1
102
RTVSPropertyOp16
 70
     1
102
RTVSPropertyOp17
 70
     1
102
RTVSPropertyOp18
 70
     1
102
RTVSPropertyOp19
 70
     1
102
RTVSPropertyOp20
 70
     1
102
RTVSPropertyOp21
 70
     1
102
RTVSPropertyOp22
 70
     1
102
RTVSPropertyOp23
 70
     1
102
RTVSPropertyOp24
 70
     1
102
RTVSPropertyOp25
 70
     1
102
RTVSPropertyOp26
 70
     1
102
RTVSPropertyOp27
 70
     1
102
RTVSPropertyOp28
 70
     1
102
RTVSPropertyOp29
 70
     1
102
RTVSPropertyOp30
 70
     1
102
RTVSPropertyOp31
 70
     1
102
RTVSPropertyOp32
 70
     1
102
RTVSPropertyOp33
 70
     1
102
RTVSPropertyOp34
 70
     1
102
RTVSPropertyOp35
 70
     1
102
RTVSPropertyOp36
 70
     1
102
RTVSPropertyOp37
 70
     1
102
RTVSPropertyOp38
 70
     1
102
RTVSPropertyOp39
 70
     1
102
RTVSPropertyOp40
 70
     1
102
RTVSPropertyOp41
 70
     1
102
RTVSPropertyOp42
 70
     1
102
RTVSPropertyOp43
 70
     1
102
RTVSPropertyOp44
 70
     1
102
RTVSPropertyOp45
 70
     1
102
RTVSPropertyOp46
 70
     1
102
RTVSPropertyOp47
 70
     1
102
RTVSPropertyOp48
 70
     1
102
RTVSPropertyOp49
 70
     1
102
RTVSPropertyOp50
 70
     1
102
RTVSPropertyOp51
 70
     0
102
RTVSPropertyOp52
 70
     0
102
RTVSPropertyOp53
 70
     1
102
RTVSPropertyOp54
 70
     1
102
RTVSPropertyOp55
 70
     1
102
RTVSPropertyOp56
 70
     1
102
RTVSPropertyOp57
 70
     1
102
RTVSPropertyOp58
 70
     1
102
RTVSPropertyOp59
 70
     1
102
RTVSPropertyOp60
 70
     1
102
RTVSPropertyOp61
 70
     1
102
RTVSPropertyOp62
 70
     1
  0
XRECORD
  5
C88E
102
{ACAD_REACTORS
330
C88D
102
}
330
C88D
100
AcDbXrecord
280
     1
102
RTVSPost2010Prop28
280
     0
102
RTVSPost2010PropOp28
 70
     1
102
RTVSPost2010Prop29
280
     1
102
RTVSPost2010PropOp29
 70
     1
102
RTVSPost2010Prop30
280
     1
102
RTVSPost2010PropOp30
 70
     1
102
RTVSPost2010Prop31
280
     0
102
RTVSPost2010PropOp31
 70
     1
102
RTVSPost2010Prop32
280
     0
102
RTVSPost2010PropOp32
 70
     1
102
RTVSPost2010Prop33
280
     0
102
RTVSPost2010PropOp33
 70
     1
102
RTVSPost2010Prop34
280
     0
102
RTVSPost2010PropOp34
 70
     1
102
RTVSPost2010Prop35
280
     0
102
RTVSPost2010PropOp35
 70
     1
102
RTVSPost2010Prop36
280
     0
102
RTVSPost2010PropOp36
 70
     1
102
RTVSPost2010Prop37
 90
       50
102
RTVSPost2010PropOp37
 70
     1
102
RTVSPost2010Prop38
140
0.0
102
RTVSPost2010PropOp38
 70
     1
102
RTVSPost2010Prop39
140
1.0
102
RTVSPost2010PropOp39
 70
     1
102
RTVSPost2010Prop40
 90
        0
102
RTVSPost2010PropOp40
 70
     1
102
RTVSPost2010Prop41ColorIndex
 90
       18
102
RTVSPost2010Prop41ColorRGB
 90
        0
102
RTVSPost2010PropOp41
 70
     1
102
RTVSPost2010Prop42
 90
       50
102
RTVSPost2010PropOp42
 70
     1
102
RTVSPost2010Prop43
 90
        3
102
RTVSPost2010PropOp43
 70
     1
102
RTVSPost2010Prop44ColorIndex
 90
        5
102
RTVSPost2010Prop44ColorRGB
 90
      255
102
RTVSPost2010PropOp44
 70
     1
102
RTVSPost2010Prop45
280
     0
102
RTVSPost2010PropOp45
 70
     1
102
RTVSPost2010Prop46
 90
       50
102
RTVSPost2010PropOp46
 70
     1
102
RTVSPost2010Prop47
 90
       50
102
RTVSPost2010PropOp47
 70
     1
102
RTVSPost2010Prop48
 90
       50
102
RTVSPost2010PropOp48
 70
     1
102
RTVSPost2010Prop49
280
     0
102
RTVSPost2010PropOp49
 70
     1
102
RTVSPost2010Prop50
 90
       50
102
RTVSPost2010PropOp50
 70
     1
102
RTVSPost2010Prop51ColorIndex
 90
      256
102
RTVSPost2010Prop51ColorRGB
 90
-16777216
102
RTVSPost2010PropOp51
 70
     0
102
RTVSPost2010Prop52
140
1.0
102
RTVSPost2010PropOp52
 70
     0
102
RTVSPost2010Prop53
 90
        2
102
RTVSPost2010PropOp53
 70
     1
102
RTVSPost2010Prop54
  1
strokes_ogs.tif
102
RTVSPost2010PropOp54
 70
     1
102
RTVSPost2010Prop55
280
     0
102
RTVSPost2010PropOp55
 70
     1
102
RTVSPost2010Prop56
140
1.0
102
RTVSPost2010PropOp56
 70
     1
102
RTVSPost2010Prop57
140
1.0
102
RTVSPost2010PropOp57
 70
     1
102
RTVSPropertyOp0
 70
     1
102
RTVSPropertyOp1
 70
     1
102
RTVSPropertyOp2
 70
     1
102
RTVSPropertyOp3
 70
     1
102
RTVSPropertyOp4
 70
     1
102
RTVSPropertyOp5
 70
     1
102
RTVSPropertyOp6
 70
     1
102
RTVSPropertyOp7
 70
     1
102
RTVSPropertyOp8
 70
     1
102
RTVSPropertyOp9
 70
     1
102
RTVSPropertyOp10
 70
     1
102
RTVSPropertyOp11
 70
     1
102
RTVSPropertyOp12
 70
     1
102
RTVSPropertyOp13
 70
     1
102
RTVSPropertyOp14
 70
     1
102
RTVSPropertyOp15
 70
     1
102
RTVSPropertyOp16
 70
     1
102
RTVSPropertyOp17
 70
     1
102
RTVSPropertyOp18
 70
     1
102
RTVSPropertyOp19
 70
     1
102
RTVSPropertyOp20
 70
     1
102
RTVSPropertyOp21
 70
     1
102
RTVSPropertyOp22
 70
     1
102
RTVSPropertyOp23
 70
     1
102
RTVSPropertyOp24
 70
     1
102
RTVSPropertyOp25
 70
     1
102
RTVSPropertyOp26
 70
     1
102
RTVSPropertyOp27
 70
     1
102
RTVSPropertyOp28
 70
     1
102
RTVSPropertyOp29
 70
     1
102
RTVSPropertyOp30
 70
     1
102
RTVSPropertyOp31
 70
     1
102
RTVSPropertyOp32
 70
     1
102
RTVSPropertyOp33
 70
     1
102
RTVSPropertyOp34
 70
     1
102
RTVSPropertyOp35
 70
     1
102
RTVSPropertyOp36
 70
     1
102
RTVSPropertyOp37
 70
     1
102
RTVSPropertyOp38
 70
     1
102
RTVSPropertyOp39
 70
     1
102
RTVSPropertyOp40
 70
     1
102
RTVSPropertyOp41
 70
     1
102
RTVSPropertyOp42
 70
     1
102
RTVSPropertyOp43
 70
     1
102
RTVSPropertyOp44
 70
     1
102
RTVSPropertyOp45
 70
     1
102
RTVSPropertyOp46
 70
     1
102
RTVSPropertyOp47
 70
     1
102
RTVSPropertyOp48
 70
     1
102
RTVSPropertyOp49
 70
     1
102
RTVSPropertyOp50
 70
     1
102
RTVSPropertyOp51
 70
     0
102
RTVSPropertyOp52
 70
     0
102
RTVSPropertyOp53
 70
     1
102
RTVSPropertyOp54
 70
     1
102
RTVSPropertyOp55
 70
     1
102
RTVSPropertyOp56
 70
     1
102
RTVSPropertyOp57
 70
     1
102
RTVSPropertyOp58
 70
     1
102
RTVSPropertyOp59
 70
     1
102
RTVSPropertyOp60
 70
     1
102
RTVSPropertyOp61
 70
     1
102
RTVSPropertyOp62
 70
     1
  0
XRECORD
  5
C880
102
{ACAD_REACTORS
330
C87F
102
}
330
C87F
100
AcDbXrecord
280
     1
102
RTVSPost2010Prop28
280
     0
102
RTVSPost2010PropOp28
 70
     1
102
RTVSPost2010Prop29
280
     1
102
RTVSPost2010PropOp29
 70
     1
102
RTVSPost2010Prop30
280
     1
102
RTVSPost2010PropOp30
 70
     1
102
RTVSPost2010Prop31
280
     0
102
RTVSPost2010PropOp31
 70
     1
102
RTVSPost2010Prop32
280
     0
102
RTVSPost2010PropOp32
 70
     1
102
RTVSPost2010Prop33
280
     0
102
RTVSPost2010PropOp33
 70
     1
102
RTVSPost2010Prop34
280
     0
102
RTVSPost2010PropOp34
 70
     1
102
RTVSPost2010Prop35
280
     0
102
RTVSPost2010PropOp35
 70
     1
102
RTVSPost2010Prop36
280
     0
102
RTVSPost2010PropOp36
 70
     1
102
RTVSPost2010Prop37
 90
       50
102
RTVSPost2010PropOp37
 70
     1
102
RTVSPost2010Prop38
140
0.0
102
RTVSPost2010PropOp38
 70
     1
102
RTVSPost2010Prop39
140
1.0
102
RTVSPost2010PropOp39
 70
     1
102
RTVSPost2010Prop40
 90
        0
102
RTVSPost2010PropOp40
 70
     1
102
RTVSPost2010Prop41ColorIndex
 90
       18
102
RTVSPost2010Prop41ColorRGB
 90
        0
102
RTVSPost2010PropOp41
 70
     1
102
RTVSPost2010Prop42
 90
       50
102
RTVSPost2010PropOp42
 70
     1
102
RTVSPost2010Prop43
 90
        3
102
RTVSPost2010PropOp43
 70
     1
102
RTVSPost2010Prop44ColorIndex
 90
        5
102
RTVSPost2010Prop44ColorRGB
 90
      255
102
RTVSPost2010PropOp44
 70
     1
102
RTVSPost2010Prop45
280
     0
102
RTVSPost2010PropOp45
 70
     1
102
RTVSPost2010Prop46
 90
       50
102
RTVSPost2010PropOp46
 70
     1
102
RTVSPost2010Prop47
 90
       50
102
RTVSPost2010PropOp47
 70
     1
102
RTVSPost2010Prop48
 90
       50
102
RTVSPost2010PropOp48
 70
     1
102
RTVSPost2010Prop49
280
     0
102
RTVSPost2010PropOp49
 70
     1
102
RTVSPost2010Prop50
 90
       50
102
RTVSPost2010PropOp50
 70
     1
102
RTVSPost2010Prop51ColorIndex
 90
      256
102
RTVSPost2010Prop51ColorRGB
 90
-16777216
102
RTVSPost2010PropOp51
 70
     0
102
RTVSPost2010Prop52
140
1.0
102
RTVSPost2010PropOp52
 70
     0
102
RTVSPost2010Prop53
 90
        2
102
RTVSPost2010PropOp53
 70
     1
102
RTVSPost2010Prop54
  1
strokes_ogs.tif
102
RTVSPost2010PropOp54
 70
     1
102
RTVSPost2010Prop55
280
     0
102
RTVSPost2010PropOp55
 70
     1
102
RTVSPost2010Prop56
140
1.0
102
RTVSPost2010PropOp56
 70
     1
102
RTVSPost2010Prop57
140
1.0
102
RTVSPost2010PropOp57
 70
     1
102
RTVSPropertyOp0
 70
     1
102
RTVSPropertyOp1
 70
     1
102
RTVSPropertyOp2
 70
     1
102
RTVSPropertyOp3
 70
     1
102
RTVSPropertyOp4
 70
     1
102
RTVSPropertyOp5
 70
     1
102
RTVSPropertyOp6
 70
     1
102
RTVSPropertyOp7
 70
     1
102
RTVSPropertyOp8
 70
     1
102
RTVSPropertyOp9
 70
     1
102
RTVSPropertyOp10
 70
     1
102
RTVSPropertyOp11
 70
     1
102
RTVSPropertyOp12
 70
     1
102
RTVSPropertyOp13
 70
     1
102
RTVSPropertyOp14
 70
     1
102
RTVSPropertyOp15
 70
     1
102
RTVSPropertyOp16
 70
     1
102
RTVSPropertyOp17
 70
     1
102
RTVSPropertyOp18
 70
     1
102
RTVSPropertyOp19
 70
     1
102
RTVSPropertyOp20
 70
     1
102
RTVSPropertyOp21
 70
     1
102
RTVSPropertyOp22
 70
     1
102
RTVSPropertyOp23
 70
     1
102
RTVSPropertyOp24
 70
     1
102
RTVSPropertyOp25
 70
     1
102
RTVSPropertyOp26
 70
     1
102
RTVSPropertyOp27
 70
     1
102
RTVSPropertyOp28
 70
     1
102
RTVSPropertyOp29
 70
     1
102
RTVSPropertyOp30
 70
     1
102
RTVSPropertyOp31
 70
     1
102
RTVSPropertyOp32
 70
     1
102
RTVSPropertyOp33
 70
     1
102
RTVSPropertyOp34
 70
     1
102
RTVSPropertyOp35
 70
     1
102
RTVSPropertyOp36
 70
     1
102
RTVSPropertyOp37
 70
     1
102
RTVSPropertyOp38
 70
     1
102
RTVSPropertyOp39
 70
     1
102
RTVSPropertyOp40
 70
     1
102
RTVSPropertyOp41
 70
     1
102
RTVSPropertyOp42
 70
     1
102
RTVSPropertyOp43
 70
     1
102
RTVSPropertyOp44
 70
     1
102
RTVSPropertyOp45
 70
     1
102
RTVSPropertyOp46
 70
     1
102
RTVSPropertyOp47
 70
     1
102
RTVSPropertyOp48
 70
     1
102
RTVSPropertyOp49
 70
     1
102
RTVSPropertyOp50
 70
     1
102
RTVSPropertyOp51
 70
     0
102
RTVSPropertyOp52
 70
     0
102
RTVSPropertyOp53
 70
     1
102
RTVSPropertyOp54
 70
     1
102
RTVSPropertyOp55
 70
     1
102
RTVSPropertyOp56
 70
     1
102
RTVSPropertyOp57
 70
     1
102
RTVSPropertyOp58
 70
     1
102
RTVSPropertyOp59
 70
     1
102
RTVSPropertyOp60
 70
     1
102
RTVSPropertyOp61
 70
     1
102
RTVSPropertyOp62
 70
     1
  0
XRECORD
  5
C884
102
{ACAD_REACTORS
330
C883
102
}
330
C883
100
AcDbXrecord
280
     1
102
RTVSPost2010Prop28
280
     0
102
RTVSPost2010PropOp28
 70
     1
102
RTVSPost2010Prop29
280
     1
102
RTVSPost2010PropOp29
 70
     1
102
RTVSPost2010Prop30
280
     1
102
RTVSPost2010PropOp30
 70
     1
102
RTVSPost2010Prop31
280
     0
102
RTVSPost2010PropOp31
 70
     1
102
RTVSPost2010Prop32
280
     0
102
RTVSPost2010PropOp32
 70
     1
102
RTVSPost2010Prop33
280
     0
102
RTVSPost2010PropOp33
 70
     1
102
RTVSPost2010Prop34
280
     0
102
RTVSPost2010PropOp34
 70
     1
102
RTVSPost2010Prop35
280
     0
102
RTVSPost2010PropOp35
 70
     1
102
RTVSPost2010Prop36
280
     0
102
RTVSPost2010PropOp36
 70
     1
102
RTVSPost2010Prop37
 90
       50
102
RTVSPost2010PropOp37
 70
     1
102
RTVSPost2010Prop38
140
0.0
102
RTVSPost2010PropOp38
 70
     1
102
RTVSPost2010Prop39
140
1.0
102
RTVSPost2010PropOp39
 70
     1
102
RTVSPost2010Prop40
 90
        0
102
RTVSPost2010PropOp40
 70
     1
102
RTVSPost2010Prop41ColorIndex
 90
       18
102
RTVSPost2010Prop41ColorRGB
 90
        0
102
RTVSPost2010PropOp41
 70
     1
102
RTVSPost2010Prop42
 90
       50
102
RTVSPost2010PropOp42
 70
     1
102
RTVSPost2010Prop43
 90
        3
102
RTVSPost2010PropOp43
 70
     1
102
RTVSPost2010Prop44ColorIndex
 90
        5
102
RTVSPost2010Prop44ColorRGB
 90
      255
102
RTVSPost2010PropOp44
 70
     1
102
RTVSPost2010Prop45
280
     0
102
RTVSPost2010PropOp45
 70
     1
102
RTVSPost2010Prop46
 90
       50
102
RTVSPost2010PropOp46
 70
     1
102
RTVSPost2010Prop47
 90
       50
102
RTVSPost2010PropOp47
 70
     1
102
RTVSPost2010Prop48
 90
       50
102
RTVSPost2010PropOp48
 70
     1
102
RTVSPost2010Prop49
280
     0
102
RTVSPost2010PropOp49
 70
     1
102
RTVSPost2010Prop50
 90
       50
102
RTVSPost2010PropOp50
 70
     1
102
RTVSPost2010Prop51ColorIndex
 90
      256
102
RTVSPost2010Prop51ColorRGB
 90
-16777216
102
RTVSPost2010PropOp51
 70
     0
102
RTVSPost2010Prop52
140
1.0
102
RTVSPost2010PropOp52
 70
     0
102
RTVSPost2010Prop53
 90
        2
102
RTVSPost2010PropOp53
 70
     1
102
RTVSPost2010Prop54
  1
strokes_ogs.tif
102
RTVSPost2010PropOp54
 70
     1
102
RTVSPost2010Prop55
280
     0
102
RTVSPost2010PropOp55
 70
     1
102
RTVSPost2010Prop56
140
1.0
102
RTVSPost2010PropOp56
 70
     1
102
RTVSPost2010Prop57
140
1.0
102
RTVSPost2010PropOp57
 70
     1
102
RTVSPropertyOp0
 70
     1
102
RTVSPropertyOp1
 70
     1
102
RTVSPropertyOp2
 70
     1
102
RTVSPropertyOp3
 70
     1
102
RTVSPropertyOp4
 70
     1
102
RTVSPropertyOp5
 70
     1
102
RTVSPropertyOp6
 70
     1
102
RTVSPropertyOp7
 70
     1
102
RTVSPropertyOp8
 70
     1
102
RTVSPropertyOp9
 70
     1
102
RTVSPropertyOp10
 70
     1
102
RTVSPropertyOp11
 70
     1
102
RTVSPropertyOp12
 70
     1
102
RTVSPropertyOp13
 70
     1
102
RTVSPropertyOp14
 70
     1
102
RTVSPropertyOp15
 70
     1
102
RTVSPropertyOp16
 70
     1
102
RTVSPropertyOp17
 70
     1
102
RTVSPropertyOp18
 70
     1
102
RTVSPropertyOp19
 70
     1
102
RTVSPropertyOp20
 70
     1
102
RTVSPropertyOp21
 70
     1
102
RTVSPropertyOp22
 70
     1
102
RTVSPropertyOp23
 70
     1
102
RTVSPropertyOp24
 70
     1
102
RTVSPropertyOp25
 70
     1
102
RTVSPropertyOp26
 70
     1
102
RTVSPropertyOp27
 70
     1
102
RTVSPropertyOp28
 70
     1
102
RTVSPropertyOp29
 70
     1
102
RTVSPropertyOp30
 70
     1
102
RTVSPropertyOp31
 70
     1
102
RTVSPropertyOp32
 70
     1
102
RTVSPropertyOp33
 70
     1
102
RTVSPropertyOp34
 70
     1
102
RTVSPropertyOp35
 70
     1
102
RTVSPropertyOp36
 70
     1
102
RTVSPropertyOp37
 70
     1
102
RTVSPropertyOp38
 70
     1
102
RTVSPropertyOp39
 70
     1
102
RTVSPropertyOp40
 70
     1
102
RTVSPropertyOp41
 70
     1
102
RTVSPropertyOp42
 70
     1
102
RTVSPropertyOp43
 70
     1
102
RTVSPropertyOp44
 70
     1
102
RTVSPropertyOp45
 70
     1
102
RTVSPropertyOp46
 70
     1
102
RTVSPropertyOp47
 70
     1
102
RTVSPropertyOp48
 70
     1
102
RTVSPropertyOp49
 70
     1
102
RTVSPropertyOp50
 70
     1
102
RTVSPropertyOp51
 70
     0
102
RTVSPropertyOp52
 70
     0
102
RTVSPropertyOp53
 70
     1
102
RTVSPropertyOp54
 70
     1
102
RTVSPropertyOp55
 70
     1
102
RTVSPropertyOp56
 70
     1
102
RTVSPropertyOp57
 70
     1
102
RTVSPropertyOp58
 70
     1
102
RTVSPropertyOp59
 70
     1
102
RTVSPropertyOp60
 70
     1
102
RTVSPropertyOp61
 70
     1
102
RTVSPropertyOp62
 70
     1
  0
XRECORD
  5
C89E
102
{ACAD_REACTORS
330
C89D
102
}
330
C89D
100
AcDbXrecord
280
     1
102
RTVSPost2010Prop28
280
     0
102
RTVSPost2010PropOp28
 70
     0
102
RTVSPost2010Prop29
280
     1
102
RTVSPost2010PropOp29
 70
     0
102
RTVSPost2010Prop30
280
     1
102
RTVSPost2010PropOp30
 70
     0
102
RTVSPost2010Prop31
280
     0
102
RTVSPost2010PropOp31
 70
     0
102
RTVSPost2010Prop32
280
     0
102
RTVSPost2010PropOp32
 70
     0
102
RTVSPost2010Prop33
280
     0
102
RTVSPost2010PropOp33
 70
     0
102
RTVSPost2010Prop34
280
     0
102
RTVSPost2010PropOp34
 70
     0
102
RTVSPost2010Prop35
280
     0
102
RTVSPost2010PropOp35
 70
     0
102
RTVSPost2010Prop36
280
     0
102
RTVSPost2010PropOp36
 70
     0
102
RTVSPost2010Prop37
 90
       50
102
RTVSPost2010PropOp37
 70
     0
102
RTVSPost2010Prop38
140
0.0
102
RTVSPost2010PropOp38
 70
     0
102
RTVSPost2010Prop39
140
1.0
102
RTVSPost2010PropOp39
 70
     0
102
RTVSPost2010Prop40
 90
        0
102
RTVSPost2010PropOp40
 70
     0
102
RTVSPost2010Prop41ColorIndex
 90
       18
102
RTVSPost2010Prop41ColorRGB
 90
        0
102
RTVSPost2010PropOp41
 70
     0
102
RTVSPost2010Prop42
 90
       50
102
RTVSPost2010PropOp42
 70
     0
102
RTVSPost2010Prop43
 90
        3
102
RTVSPost2010PropOp43
 70
     0
102
RTVSPost2010Prop44ColorIndex
 90
        5
102
RTVSPost2010Prop44ColorRGB
 90
      255
102
RTVSPost2010PropOp44
 70
     0
102
RTVSPost2010Prop45
280
     0
102
RTVSPost2010PropOp45
 70
     0
102
RTVSPost2010Prop46
 90
       50
102
RTVSPost2010PropOp46
 70
     0
102
RTVSPost2010Prop47
 90
       50
102
RTVSPost2010PropOp47
 70
     0
102
RTVSPost2010Prop48
 90
       50
102
RTVSPost2010PropOp48
 70
     0
102
RTVSPost2010Prop49
280
     0
102
RTVSPost2010PropOp49
 70
     0
102
RTVSPost2010Prop50
 90
       50
102
RTVSPost2010PropOp50
 70
     0
102
RTVSPost2010Prop51ColorIndex
 90
      256
102
RTVSPost2010Prop51ColorRGB
 90
-16777216
102
RTVSPost2010PropOp51
 70
     0
102
RTVSPost2010Prop52
140
1.0
102
RTVSPost2010PropOp52
 70
     0
102
RTVSPost2010Prop53
 90
        2
102
RTVSPost2010PropOp53
 70
     0
102
RTVSPost2010Prop54
  1
strokes_ogs.tif
102
RTVSPost2010PropOp54
 70
     0
102
RTVSPost2010Prop55
280
     0
102
RTVSPost2010PropOp55
 70
     0
102
RTVSPost2010Prop56
140
1.0
102
RTVSPost2010PropOp56
 70
     0
102
RTVSPost2010Prop57
140
1.0
102
RTVSPost2010PropOp57
 70
     0
102
RTVSPropertyOp0
 70
     0
102
RTVSPropertyOp1
 70
     0
102
RTVSPropertyOp2
 70
     0
102
RTVSPropertyOp3
 70
     0
102
RTVSPropertyOp4
 70
     0
102
RTVSPropertyOp5
 70
     0
102
RTVSPropertyOp6
 70
     0
102
RTVSPropertyOp7
 70
     0
102
RTVSPropertyOp8
 70
     0
102
RTVSPropertyOp9
 70
     0
102
RTVSPropertyOp10
 70
     0
102
RTVSPropertyOp11
 70
     0
102
RTVSPropertyOp12
 70
     0
102
RTVSPropertyOp13
 70
     0
102
RTVSPropertyOp14
 70
     2
102
RTVSPropertyOp15
 70
     0
102
RTVSPropertyOp16
 70
     0
102
RTVSPropertyOp17
 70
     0
102
RTVSPropertyOp18
 70
     0
102
RTVSPropertyOp19
 70
     0
102
RTVSPropertyOp20
 70
     0
102
RTVSPropertyOp21
 70
     0
102
RTVSPropertyOp22
 70
     0
102
RTVSPropertyOp23
 70
     0
102
RTVSPropertyOp24
 70
     0
102
RTVSPropertyOp25
 70
     0
102
RTVSPropertyOp26
 70
     0
102
RTVSPropertyOp27
 70
     0
102
RTVSPropertyOp28
 70
     0
102
RTVSPropertyOp29
 70
     0
102
RTVSPropertyOp30
 70
     0
102
RTVSPropertyOp31
 70
     0
102
RTVSPropertyOp32
 70
     0
102
RTVSPropertyOp33
 70
     0
102
RTVSPropertyOp34
 70
     0
102
RTVSPropertyOp35
 70
     0
102
RTVSPropertyOp36
 70
     0
102
RTVSPropertyOp37
 70
     0
102
RTVSPropertyOp38
 70
     0
102
RTVSPropertyOp39
 70
     0
102
RTVSPropertyOp40
 70
     0
102
RTVSPropertyOp41
 70
     0
102
RTVSPropertyOp42
 70
     0
102
RTVSPropertyOp43
 70
     0
102
RTVSPropertyOp44
 70
     0
102
RTVSPropertyOp45
 70
     0
102
RTVSPropertyOp46
 70
     0
102
RTVSPropertyOp47
 70
     0
102
RTVSPropertyOp48
 70
     0
102
RTVSPropertyOp49
 70
     0
102
RTVSPropertyOp50
 70
     0
102
RTVSPropertyOp51
 70
     0
102
RTVSPropertyOp52
 70
     0
102
RTVSPropertyOp53
 70
     0
102
RTVSPropertyOp54
 70
     0
102
RTVSPropertyOp55
 70
     0
102
RTVSPropertyOp56
 70
     0
102
RTVSPropertyOp57
 70
     0
102
RTVSPropertyOp58
 70
     0
102
RTVSPropertyOp59
 70
     0
102
RTVSPropertyOp60
 70
     0
102
RTVSPropertyOp61
 70
     0
102
RTVSPropertyOp62
 70
     0
  0
XRECORD
  5
C88C
102
{ACAD_REACTORS
330
C88B
102
}
330
C88B
100
AcDbXrecord
280
     1
102
RTVSPost2010Prop28
280
     0
102
RTVSPost2010PropOp28
 70
     1
102
RTVSPost2010Prop29
280
     1
102
RTVSPost2010PropOp29
 70
     1
102
RTVSPost2010Prop30
280
     1
102
RTVSPost2010PropOp30
 70
     1
102
RTVSPost2010Prop31
280
     0
102
RTVSPost2010PropOp31
 70
     1
102
RTVSPost2010Prop32
280
     0
102
RTVSPost2010PropOp32
 70
     1
102
RTVSPost2010Prop33
280
     0
102
RTVSPost2010PropOp33
 70
     1
102
RTVSPost2010Prop34
280
     0
102
RTVSPost2010PropOp34
 70
     1
102
RTVSPost2010Prop35
280
     0
102
RTVSPost2010PropOp35
 70
     1
102
RTVSPost2010Prop36
280
     0
102
RTVSPost2010PropOp36
 70
     1
102
RTVSPost2010Prop37
 90
       50
102
RTVSPost2010PropOp37
 70
     1
102
RTVSPost2010Prop38
140
0.0
102
RTVSPost2010PropOp38
 70
     1
102
RTVSPost2010Prop39
140
1.0
102
RTVSPost2010PropOp39
 70
     1
102
RTVSPost2010Prop40
 90
        0
102
RTVSPost2010PropOp40
 70
     1
102
RTVSPost2010Prop41ColorIndex
 90
       18
102
RTVSPost2010Prop41ColorRGB
 90
        0
102
RTVSPost2010PropOp41
 70
     1
102
RTVSPost2010Prop42
 90
       50
102
RTVSPost2010PropOp42
 70
     1
102
RTVSPost2010Prop43
 90
        3
102
RTVSPost2010PropOp43
 70
     1
102
RTVSPost2010Prop44ColorIndex
 90
        5
102
RTVSPost2010Prop44ColorRGB
 90
      255
102
RTVSPost2010PropOp44
 70
     1
102
RTVSPost2010Prop45
280
     0
102
RTVSPost2010PropOp45
 70
     1
102
RTVSPost2010Prop46
 90
       50
102
RTVSPost2010PropOp46
 70
     1
102
RTVSPost2010Prop47
 90
       50
102
RTVSPost2010PropOp47
 70
     1
102
RTVSPost2010Prop48
 90
       50
102
RTVSPost2010PropOp48
 70
     1
102
RTVSPost2010Prop49
280
     0
102
RTVSPost2010PropOp49
 70
     1
102
RTVSPost2010Prop50
 90
       50
102
RTVSPost2010PropOp50
 70
     1
102
RTVSPost2010Prop51ColorIndex
 90
      256
102
RTVSPost2010Prop51ColorRGB
 90
-16777216
102
RTVSPost2010PropOp51
 70
     0
102
RTVSPost2010Prop52
140
1.0
102
RTVSPost2010PropOp52
 70
     0
102
RTVSPost2010Prop53
 90
        2
102
RTVSPost2010PropOp53
 70
     1
102
RTVSPost2010Prop54
  1
strokes_ogs.tif
102
RTVSPost2010PropOp54
 70
     1
102
RTVSPost2010Prop55
280
     0
102
RTVSPost2010PropOp55
 70
     1
102
RTVSPost2010Prop56
140
1.0
102
RTVSPost2010PropOp56
 70
     1
102
RTVSPost2010Prop57
140
1.0
102
RTVSPost2010PropOp57
 70
     1
102
RTVSPropertyOp0
 70
     1
102
RTVSPropertyOp1
 70
     1
102
RTVSPropertyOp2
 70
     1
102
RTVSPropertyOp3
 70
     1
102
RTVSPropertyOp4
 70
     1
102
RTVSPropertyOp5
 70
     1
102
RTVSPropertyOp6
 70
     1
102
RTVSPropertyOp7
 70
     1
102
RTVSPropertyOp8
 70
     1
102
RTVSPropertyOp9
 70
     1
102
RTVSPropertyOp10
 70
     1
102
RTVSPropertyOp11
 70
     1
102
RTVSPropertyOp12
 70
     1
102
RTVSPropertyOp13
 70
     1
102
RTVSPropertyOp14
 70
     1
102
RTVSPropertyOp15
 70
     1
102
RTVSPropertyOp16
 70
     1
102
RTVSPropertyOp17
 70
     1
102
RTVSPropertyOp18
 70
     1
102
RTVSPropertyOp19
 70
     1
102
RTVSPropertyOp20
 70
     1
102
RTVSPropertyOp21
 70
     1
102
RTVSPropertyOp22
 70
     1
102
RTVSPropertyOp23
 70
     1
102
RTVSPropertyOp24
 70
     1
102
RTVSPropertyOp25
 70
     1
102
RTVSPropertyOp26
 70
     1
102
RTVSPropertyOp27
 70
     1
102
RTVSPropertyOp28
 70
     1
102
RTVSPropertyOp29
 70
     1
102
RTVSPropertyOp30
 70
     1
102
RTVSPropertyOp31
 70
     1
102
RTVSPropertyOp32
 70
     1
102
RTVSPropertyOp33
 70
     1
102
RTVSPropertyOp34
 70
     1
102
RTVSPropertyOp35
 70
     1
102
RTVSPropertyOp36
 70
     1
102
RTVSPropertyOp37
 70
     1
102
RTVSPropertyOp38
 70
     1
102
RTVSPropertyOp39
 70
     1
102
RTVSPropertyOp40
 70
     1
102
RTVSPropertyOp41
 70
     1
102
RTVSPropertyOp42
 70
     1
102
RTVSPropertyOp43
 70
     1
102
RTVSPropertyOp44
 70
     1
102
RTVSPropertyOp45
 70
     1
102
RTVSPropertyOp46
 70
     1
102
RTVSPropertyOp47
 70
     1
102
RTVSPropertyOp48
 70
     1
102
RTVSPropertyOp49
 70
     1
102
RTVSPropertyOp50
 70
     1
102
RTVSPropertyOp51
 70
     0
102
RTVSPropertyOp52
 70
     0
102
RTVSPropertyOp53
 70
     1
102
RTVSPropertyOp54
 70
     1
102
RTVSPropertyOp55
 70
     1
102
RTVSPropertyOp56
 70
     1
102
RTVSPropertyOp57
 70
     1
102
RTVSPropertyOp58
 70
     1
102
RTVSPropertyOp59
 70
     1
102
RTVSPropertyOp60
 70
     1
102
RTVSPropertyOp61
 70
     1
102
RTVSPropertyOp62
 70
     1
  0
XRECORD
  5
C870
102
{ACAD_REACTORS
330
C86F
102
}
330
C86F
100
AcDbXrecord
280
     1
102
RTVSPost2010Prop28
280
     0
102
RTVSPost2010PropOp28
 70
     1
102
RTVSPost2010Prop29
280
     1
102
RTVSPost2010PropOp29
 70
     1
102
RTVSPost2010Prop30
280
     1
102
RTVSPost2010PropOp30
 70
     1
102
RTVSPost2010Prop31
280
     0
102
RTVSPost2010PropOp31
 70
     1
102
RTVSPost2010Prop32
280
     0
102
RTVSPost2010PropOp32
 70
     1
102
RTVSPost2010Prop33
280
     0
102
RTVSPost2010PropOp33
 70
     1
102
RTVSPost2010Prop34
280
     0
102
RTVSPost2010PropOp34
 70
     1
102
RTVSPost2010Prop35
280
     0
102
RTVSPost2010PropOp35
 70
     1
102
RTVSPost2010Prop36
280
     0
102
RTVSPost2010PropOp36
 70
     1
102
RTVSPost2010Prop37
 90
       50
102
RTVSPost2010PropOp37
 70
     1
102
RTVSPost2010Prop38
140
0.0
102
RTVSPost2010PropOp38
 70
     1
102
RTVSPost2010Prop39
140
1.0
102
RTVSPost2010PropOp39
 70
     1
102
RTVSPost2010Prop40
 90
        0
102
RTVSPost2010PropOp40
 70
     1
102
RTVSPost2010Prop41ColorIndex
 90
       18
102
RTVSPost2010Prop41ColorRGB
 90
        0
102
RTVSPost2010PropOp41
 70
     1
102
RTVSPost2010Prop42
 90
       50
102
RTVSPost2010PropOp42
 70
     1
102
RTVSPost2010Prop43
 90
        3
102
RTVSPost2010PropOp43
 70
     1
102
RTVSPost2010Prop44ColorIndex
 90
        5
102
RTVSPost2010Prop44ColorRGB
 90
      255
102
RTVSPost2010PropOp44
 70
     1
102
RTVSPost2010Prop45
280
     0
102
RTVSPost2010PropOp45
 70
     1
102
RTVSPost2010Prop46
 90
       50
102
RTVSPost2010PropOp46
 70
     1
102
RTVSPost2010Prop47
 90
       50
102
RTVSPost2010PropOp47
 70
     1
102
RTVSPost2010Prop48
 90
       50
102
RTVSPost2010PropOp48
 70
     1
102
RTVSPost2010Prop49
280
     0
102
RTVSPost2010PropOp49
 70
     1
102
RTVSPost2010Prop50
 90
       50
102
RTVSPost2010PropOp50
 70
     1
102
RTVSPost2010Prop51ColorIndex
 90
      256
102
RTVSPost2010Prop51ColorRGB
 90
-16777216
102
RTVSPost2010PropOp51
 70
     0
102
RTVSPost2010Prop52
140
1.0
102
RTVSPost2010PropOp52
 70
     0
102
RTVSPost2010Prop53
 90
        2
102
RTVSPost2010PropOp53
 70
     1
102
RTVSPost2010Prop54
  1
strokes_ogs.tif
102
RTVSPost2010PropOp54
 70
     1
102
RTVSPost2010Prop55
280
     0
102
RTVSPost2010PropOp55
 70
     1
102
RTVSPost2010Prop56
140
1.0
102
RTVSPost2010PropOp56
 70
     1
102
RTVSPost2010Prop57
140
1.0
102
RTVSPost2010PropOp57
 70
     1
102
RTVSPropertyOp0
 70
     1
102
RTVSPropertyOp1
 70
     1
102
RTVSPropertyOp2
 70
     1
102
RTVSPropertyOp3
 70
     1
102
RTVSPropertyOp4
 70
     1
102
RTVSPropertyOp5
 70
     1
102
RTVSPropertyOp6
 70
     1
102
RTVSPropertyOp7
 70
     1
102
RTVSPropertyOp8
 70
     1
102
RTVSPropertyOp9
 70
     1
102
RTVSPropertyOp10
 70
     1
102
RTVSPropertyOp11
 70
     1
102
RTVSPropertyOp12
 70
     1
102
RTVSPropertyOp13
 70
     1
102
RTVSPropertyOp14
 70
     1
102
RTVSPropertyOp15
 70
     1
102
RTVSPropertyOp16
 70
     1
102
RTVSPropertyOp17
 70
     1
102
RTVSPropertyOp18
 70
     1
102
RTVSPropertyOp19
 70
     1
102
RTVSPropertyOp20
 70
     1
102
RTVSPropertyOp21
 70
     1
102
RTVSPropertyOp22
 70
     1
102
RTVSPropertyOp23
 70
     1
102
RTVSPropertyOp24
 70
     1
102
RTVSPropertyOp25
 70
     1
102
RTVSPropertyOp26
 70
     1
102
RTVSPropertyOp27
 70
     1
102
RTVSPropertyOp28
 70
     1
102
RTVSPropertyOp29
 70
     1
102
RTVSPropertyOp30
 70
     1
102
RTVSPropertyOp31
 70
     1
102
RTVSPropertyOp32
 70
     1
102
RTVSPropertyOp33
 70
     1
102
RTVSPropertyOp34
 70
     1
102
RTVSPropertyOp35
 70
     1
102
RTVSPropertyOp36
 70
     1
102
RTVSPropertyOp37
 70
     1
102
RTVSPropertyOp38
 70
     1
102
RTVSPropertyOp39
 70
     1
102
RTVSPropertyOp40
 70
     1
102
RTVSPropertyOp41
 70
     1
102
RTVSPropertyOp42
 70
     1
102
RTVSPropertyOp43
 70
     1
102
RTVSPropertyOp44
 70
     1
102
RTVSPropertyOp45
 70
     1
102
RTVSPropertyOp46
 70
     1
102
RTVSPropertyOp47
 70
     1
102
RTVSPropertyOp48
 70
     1
102
RTVSPropertyOp49
 70
     1
102
RTVSPropertyOp50
 70
     1
102
RTVSPropertyOp51
 70
     0
102
RTVSPropertyOp52
 70
     0
102
RTVSPropertyOp53
 70
     1
102
RTVSPropertyOp54
 70
     1
102
RTVSPropertyOp55
 70
     1
102
RTVSPropertyOp56
 70
     1
102
RTVSPropertyOp57
 70
     1
102
RTVSPropertyOp58
 70
     1
102
RTVSPropertyOp59
 70
     1
102
RTVSPropertyOp60
 70
     1
102
RTVSPropertyOp61
 70
     1
102
RTVSPropertyOp62
 70
     1
  0
XRECORD
  5
C872
102
{ACAD_REACTORS
330
C871
102
}
330
C871
100
AcDbXrecord
280
     1
102
RTVSPost2010Prop28
280
     0
102
RTVSPost2010PropOp28
 70
     1
102
RTVSPost2010Prop29
280
     1
102
RTVSPost2010PropOp29
 70
     1
102
RTVSPost2010Prop30
280
     1
102
RTVSPost2010PropOp30
 70
     1
102
RTVSPost2010Prop31
280
     0
102
RTVSPost2010PropOp31
 70
     1
102
RTVSPost2010Prop32
280
     0
102
RTVSPost2010PropOp32
 70
     1
102
RTVSPost2010Prop33
280
     0
102
RTVSPost2010PropOp33
 70
     1
102
RTVSPost2010Prop34
280
     0
102
RTVSPost2010PropOp34
 70
     1
102
RTVSPost2010Prop35
280
     0
102
RTVSPost2010PropOp35
 70
     1
102
RTVSPost2010Prop36
280
     0
102
RTVSPost2010PropOp36
 70
     1
102
RTVSPost2010Prop37
 90
       50
102
RTVSPost2010PropOp37
 70
     1
102
RTVSPost2010Prop38
140
0.0
102
RTVSPost2010PropOp38
 70
     1
102
RTVSPost2010Prop39
140
1.0
102
RTVSPost2010PropOp39
 70
     1
102
RTVSPost2010Prop40
 90
        0
102
RTVSPost2010PropOp40
 70
     1
102
RTVSPost2010Prop41ColorIndex
 90
       18
102
RTVSPost2010Prop41ColorRGB
 90
        0
102
RTVSPost2010PropOp41
 70
     1
102
RTVSPost2010Prop42
 90
       50
102
RTVSPost2010PropOp42
 70
     1
102
RTVSPost2010Prop43
 90
        3
102
RTVSPost2010PropOp43
 70
     1
102
RTVSPost2010Prop44ColorIndex
 90
        5
102
RTVSPost2010Prop44ColorRGB
 90
      255
102
RTVSPost2010PropOp44
 70
     1
102
RTVSPost2010Prop45
280
     0
102
RTVSPost2010PropOp45
 70
     1
102
RTVSPost2010Prop46
 90
       50
102
RTVSPost2010PropOp46
 70
     1
102
RTVSPost2010Prop47
 90
       50
102
RTVSPost2010PropOp47
 70
     1
102
RTVSPost2010Prop48
 90
       50
102
RTVSPost2010PropOp48
 70
     1
102
RTVSPost2010Prop49
280
     0
102
RTVSPost2010PropOp49
 70
     1
102
RTVSPost2010Prop50
 90
       50
102
RTVSPost2010PropOp50
 70
     1
102
RTVSPost2010Prop51ColorIndex
 90
      256
102
RTVSPost2010Prop51ColorRGB
 90
-16777216
102
RTVSPost2010PropOp51
 70
     0
102
RTVSPost2010Prop52
140
1.0
102
RTVSPost2010PropOp52
 70
     0
102
RTVSPost2010Prop53
 90
        2
102
RTVSPost2010PropOp53
 70
     1
102
RTVSPost2010Prop54
  1
strokes_ogs.tif
102
RTVSPost2010PropOp54
 70
     1
102
RTVSPost2010Prop55
280
     0
102
RTVSPost2010PropOp55
 70
     1
102
RTVSPost2010Prop56
140
1.0
102
RTVSPost2010PropOp56
 70
     1
102
RTVSPost2010Prop57
140
1.0
102
RTVSPost2010PropOp57
 70
     1
102
RTVSPropertyOp0
 70
     1
102
RTVSPropertyOp1
 70
     1
102
RTVSPropertyOp2
 70
     1
102
RTVSPropertyOp3
 70
     1
102
RTVSPropertyOp4
 70
     1
102
RTVSPropertyOp5
 70
     1
102
RTVSPropertyOp6
 70
     1
102
RTVSPropertyOp7
 70
     1
102
RTVSPropertyOp8
 70
     1
102
RTVSPropertyOp9
 70
     1
102
RTVSPropertyOp10
 70
     1
102
RTVSPropertyOp11
 70
     1
102
RTVSPropertyOp12
 70
     1
102
RTVSPropertyOp13
 70
     1
102
RTVSPropertyOp14
 70
     1
102
RTVSPropertyOp15
 70
     1
102
RTVSPropertyOp16
 70
     1
102
RTVSPropertyOp17
 70
     1
102
RTVSPropertyOp18
 70
     1
102
RTVSPropertyOp19
 70
     1
102
RTVSPropertyOp20
 70
     1
102
RTVSPropertyOp21
 70
     1
102
RTVSPropertyOp22
 70
     1
102
RTVSPropertyOp23
 70
     1
102
RTVSPropertyOp24
 70
     1
102
RTVSPropertyOp25
 70
     1
102
RTVSPropertyOp26
 70
     1
102
RTVSPropertyOp27
 70
     1
102
RTVSPropertyOp28
 70
     1
102
RTVSPropertyOp29
 70
     1
102
RTVSPropertyOp30
 70
     1
102
RTVSPropertyOp31
 70
     1
102
RTVSPropertyOp32
 70
     1
102
RTVSPropertyOp33
 70
     1
102
RTVSPropertyOp34
 70
     1
102
RTVSPropertyOp35
 70
     1
102
RTVSPropertyOp36
 70
     1
102
RTVSPropertyOp37
 70
     1
102
RTVSPropertyOp38
 70
     1
102
RTVSPropertyOp39
 70
     1
102
RTVSPropertyOp40
 70
     1
102
RTVSPropertyOp41
 70
     1
102
RTVSPropertyOp42
 70
     1
102
RTVSPropertyOp43
 70
     1
102
RTVSPropertyOp44
 70
     1
102
RTVSPropertyOp45
 70
     1
102
RTVSPropertyOp46
 70
     1
102
RTVSPropertyOp47
 70
     1
102
RTVSPropertyOp48
 70
     1
102
RTVSPropertyOp49
 70
     1
102
RTVSPropertyOp50
 70
     1
102
RTVSPropertyOp51
 70
     0
102
RTVSPropertyOp52
 70
     0
102
RTVSPropertyOp53
 70
     1
102
RTVSPropertyOp54
 70
     1
102
RTVSPropertyOp55
 70
     1
102
RTVSPropertyOp56
 70
     1
102
RTVSPropertyOp57
 70
     1
102
RTVSPropertyOp58
 70
     1
102
RTVSPropertyOp59
 70
     1
102
RTVSPropertyOp60
 70
     1
102
RTVSPropertyOp61
 70
     1
102
RTVSPropertyOp62
 70
     1
  0
XRECORD
  5
C874
102
{ACAD_REACTORS
330
C873
102
}
330
C873
100
AcDbXrecord
280
     1
102
RTVSPost2010Prop28
280
     0
102
RTVSPost2010PropOp28
 70
     1
102
RTVSPost2010Prop29
280
     1
102
RTVSPost2010PropOp29
 70
     1
102
RTVSPost2010Prop30
280
     1
102
RTVSPost2010PropOp30
 70
     1
102
RTVSPost2010Prop31
280
     0
102
RTVSPost2010PropOp31
 70
     1
102
RTVSPost2010Prop32
280
     0
102
RTVSPost2010PropOp32
 70
     1
102
RTVSPost2010Prop33
280
     0
102
RTVSPost2010PropOp33
 70
     1
102
RTVSPost2010Prop34
280
     0
102
RTVSPost2010PropOp34
 70
     1
102
RTVSPost2010Prop35
280
     0
102
RTVSPost2010PropOp35
 70
     1
102
RTVSPost2010Prop36
280
     0
102
RTVSPost2010PropOp36
 70
     1
102
RTVSPost2010Prop37
 90
       50
102
RTVSPost2010PropOp37
 70
     1
102
RTVSPost2010Prop38
140
0.0
102
RTVSPost2010PropOp38
 70
     1
102
RTVSPost2010Prop39
140
1.0
102
RTVSPost2010PropOp39
 70
     1
102
RTVSPost2010Prop40
 90
        0
102
RTVSPost2010PropOp40
 70
     1
102
RTVSPost2010Prop41ColorIndex
 90
       18
102
RTVSPost2010Prop41ColorRGB
 90
        0
102
RTVSPost2010PropOp41
 70
     1
102
RTVSPost2010Prop42
 90
       50
102
RTVSPost2010PropOp42
 70
     1
102
RTVSPost2010Prop43
 90
        3
102
RTVSPost2010PropOp43
 70
     1
102
RTVSPost2010Prop44ColorIndex
 90
        5
102
RTVSPost2010Prop44ColorRGB
 90
      255
102
RTVSPost2010PropOp44
 70
     1
102
RTVSPost2010Prop45
280
     0
102
RTVSPost2010PropOp45
 70
     1
102
RTVSPost2010Prop46
 90
       50
102
RTVSPost2010PropOp46
 70
     1
102
RTVSPost2010Prop47
 90
       50
102
RTVSPost2010PropOp47
 70
     1
102
RTVSPost2010Prop48
 90
       50
102
RTVSPost2010PropOp48
 70
     1
102
RTVSPost2010Prop49
280
     0
102
RTVSPost2010PropOp49
 70
     1
102
RTVSPost2010Prop50
 90
       50
102
RTVSPost2010PropOp50
 70
     1
102
RTVSPost2010Prop51ColorIndex
 90
      256
102
RTVSPost2010Prop51ColorRGB
 90
-16777216
102
RTVSPost2010PropOp51
 70
     0
102
RTVSPost2010Prop52
140
1.0
102
RTVSPost2010PropOp52
 70
     0
102
RTVSPost2010Prop53
 90
        2
102
RTVSPost2010PropOp53
 70
     1
102
RTVSPost2010Prop54
  1
strokes_ogs.tif
102
RTVSPost2010PropOp54
 70
     1
102
RTVSPost2010Prop55
280
     0
102
RTVSPost2010PropOp55
 70
     1
102
RTVSPost2010Prop56
140
1.0
102
RTVSPost2010PropOp56
 70
     1
102
RTVSPost2010Prop57
140
1.0
102
RTVSPost2010PropOp57
 70
     1
102
RTVSPropertyOp0
 70
     1
102
RTVSPropertyOp1
 70
     1
102
RTVSPropertyOp2
 70
     1
102
RTVSPropertyOp3
 70
     1
102
RTVSPropertyOp4
 70
     1
102
RTVSPropertyOp5
 70
     1
102
RTVSPropertyOp6
 70
     1
102
RTVSPropertyOp7
 70
     1
102
RTVSPropertyOp8
 70
     1
102
RTVSPropertyOp9
 70
     1
102
RTVSPropertyOp10
 70
     1
102
RTVSPropertyOp11
 70
     1
102
RTVSPropertyOp12
 70
     1
102
RTVSPropertyOp13
 70
     1
102
RTVSPropertyOp14
 70
     1
102
RTVSPropertyOp15
 70
     1
102
RTVSPropertyOp16
 70
     1
102
RTVSPropertyOp17
 70
     1
102
RTVSPropertyOp18
 70
     1
102
RTVSPropertyOp19
 70
     1
102
RTVSPropertyOp20
 70
     1
102
RTVSPropertyOp21
 70
     1
102
RTVSPropertyOp22
 70
     1
102
RTVSPropertyOp23
 70
     1
102
RTVSPropertyOp24
 70
     1
102
RTVSPropertyOp25
 70
     1
102
RTVSPropertyOp26
 70
     1
102
RTVSPropertyOp27
 70
     1
102
RTVSPropertyOp28
 70
     1
102
RTVSPropertyOp29
 70
     1
102
RTVSPropertyOp30
 70
     1
102
RTVSPropertyOp31
 70
     1
102
RTVSPropertyOp32
 70
     1
102
RTVSPropertyOp33
 70
     1
102
RTVSPropertyOp34
 70
     1
102
RTVSPropertyOp35
 70
     1
102
RTVSPropertyOp36
 70
     1
102
RTVSPropertyOp37
 70
     1
102
RTVSPropertyOp38
 70
     1
102
RTVSPropertyOp39
 70
     1
102
RTVSPropertyOp40
 70
     1
102
RTVSPropertyOp41
 70
     1
102
RTVSPropertyOp42
 70
     1
102
RTVSPropertyOp43
 70
     1
102
RTVSPropertyOp44
 70
     1
102
RTVSPropertyOp45
 70
     1
102
RTVSPropertyOp46
 70
     1
102
RTVSPropertyOp47
 70
     1
102
RTVSPropertyOp48
 70
     1
102
RTVSPropertyOp49
 70
     1
102
RTVSPropertyOp50
 70
     1
102
RTVSPropertyOp51
 70
     0
102
RTVSPropertyOp52
 70
     0
102
RTVSPropertyOp53
 70
     1
102
RTVSPropertyOp54
 70
     1
102
RTVSPropertyOp55
 70
     1
102
RTVSPropertyOp56
 70
     1
102
RTVSPropertyOp57
 70
     1
102
RTVSPropertyOp58
 70
     1
102
RTVSPropertyOp59
 70
     1
102
RTVSPropertyOp60
 70
     1
102
RTVSPropertyOp61
 70
     1
102
RTVSPropertyOp62
 70
     1
  0
XRECORD
  5
C876
102
{ACAD_REACTORS
330
C875
102
}
330
C875
100
AcDbXrecord
280
     1
102
RTVSPost2010Prop28
280
     0
102
RTVSPost2010PropOp28
 70
     1
102
RTVSPost2010Prop29
280
     1
102
RTVSPost2010PropOp29
 70
     1
102
RTVSPost2010Prop30
280
     1
102
RTVSPost2010PropOp30
 70
     1
102
RTVSPost2010Prop31
280
     0
102
RTVSPost2010PropOp31
 70
     1
102
RTVSPost2010Prop32
280
     0
102
RTVSPost2010PropOp32
 70
     1
102
RTVSPost2010Prop33
280
     0
102
RTVSPost2010PropOp33
 70
     1
102
RTVSPost2010Prop34
280
     0
102
RTVSPost2010PropOp34
 70
     1
102
RTVSPost2010Prop35
280
     0
102
RTVSPost2010PropOp35
 70
     1
102
RTVSPost2010Prop36
280
     0
102
RTVSPost2010PropOp36
 70
     1
102
RTVSPost2010Prop37
 90
       50
102
RTVSPost2010PropOp37
 70
     1
102
RTVSPost2010Prop38
140
0.0
102
RTVSPost2010PropOp38
 70
     1
102
RTVSPost2010Prop39
140
1.0
102
RTVSPost2010PropOp39
 70
     1
102
RTVSPost2010Prop40
 90
        0
102
RTVSPost2010PropOp40
 70
     1
102
RTVSPost2010Prop41ColorIndex
 90
       18
102
RTVSPost2010Prop41ColorRGB
 90
        0
102
RTVSPost2010PropOp41
 70
     1
102
RTVSPost2010Prop42
 90
       50
102
RTVSPost2010PropOp42
 70
     1
102
RTVSPost2010Prop43
 90
        3
102
RTVSPost2010PropOp43
 70
     1
102
RTVSPost2010Prop44ColorIndex
 90
        5
102
RTVSPost2010Prop44ColorRGB
 90
      255
102
RTVSPost2010PropOp44
 70
     1
102
RTVSPost2010Prop45
280
     0
102
RTVSPost2010PropOp45
 70
     1
102
RTVSPost2010Prop46
 90
       50
102
RTVSPost2010PropOp46
 70
     1
102
RTVSPost2010Prop47
 90
       50
102
RTVSPost2010PropOp47
 70
     1
102
RTVSPost2010Prop48
 90
       50
102
RTVSPost2010PropOp48
 70
     1
102
RTVSPost2010Prop49
280
     0
102
RTVSPost2010PropOp49
 70
     1
102
RTVSPost2010Prop50
 90
       50
102
RTVSPost2010PropOp50
 70
     1
102
RTVSPost2010Prop51ColorIndex
 90
      256
102
RTVSPost2010Prop51ColorRGB
 90
-16777216
102
RTVSPost2010PropOp51
 70
     0
102
RTVSPost2010Prop52
140
1.0
102
RTVSPost2010PropOp52
 70
     0
102
RTVSPost2010Prop53
 90
        2
102
RTVSPost2010PropOp53
 70
     1
102
RTVSPost2010Prop54
  1
strokes_ogs.tif
102
RTVSPost2010PropOp54
 70
     1
102
RTVSPost2010Prop55
280
     0
102
RTVSPost2010PropOp55
 70
     1
102
RTVSPost2010Prop56
140
1.0
102
RTVSPost2010PropOp56
 70
     1
102
RTVSPost2010Prop57
140
1.0
102
RTVSPost2010PropOp57
 70
     1
102
RTVSPropertyOp0
 70
     1
102
RTVSPropertyOp1
 70
     1
102
RTVSPropertyOp2
 70
     1
102
RTVSPropertyOp3
 70
     1
102
RTVSPropertyOp4
 70
     1
102
RTVSPropertyOp5
 70
     1
102
RTVSPropertyOp6
 70
     1
102
RTVSPropertyOp7
 70
     1
102
RTVSPropertyOp8
 70
     1
102
RTVSPropertyOp9
 70
     1
102
RTVSPropertyOp10
 70
     1
102
RTVSPropertyOp11
 70
     1
102
RTVSPropertyOp12
 70
     1
102
RTVSPropertyOp13
 70
     1
102
RTVSPropertyOp14
 70
     1
102
RTVSPropertyOp15
 70
     1
102
RTVSPropertyOp16
 70
     1
102
RTVSPropertyOp17
 70
     1
102
RTVSPropertyOp18
 70
     1
102
RTVSPropertyOp19
 70
     1
102
RTVSPropertyOp20
 70
     1
102
RTVSPropertyOp21
 70
     1
102
RTVSPropertyOp22
 70
     1
102
RTVSPropertyOp23
 70
     1
102
RTVSPropertyOp24
 70
     1
102
RTVSPropertyOp25
 70
     1
102
RTVSPropertyOp26
 70
     1
102
RTVSPropertyOp27
 70
     1
102
RTVSPropertyOp28
 70
     1
102
RTVSPropertyOp29
 70
     1
102
RTVSPropertyOp30
 70
     1
102
RTVSPropertyOp31
 70
     1
102
RTVSPropertyOp32
 70
     1
102
RTVSPropertyOp33
 70
     1
102
RTVSPropertyOp34
 70
     1
102
RTVSPropertyOp35
 70
     1
102
RTVSPropertyOp36
 70
     1
102
RTVSPropertyOp37
 70
     1
102
RTVSPropertyOp38
 70
     1
102
RTVSPropertyOp39
 70
     1
102
RTVSPropertyOp40
 70
     1
102
RTVSPropertyOp41
 70
     1
102
RTVSPropertyOp42
 70
     1
102
RTVSPropertyOp43
 70
     1
102
RTVSPropertyOp44
 70
     1
102
RTVSPropertyOp45
 70
     1
102
RTVSPropertyOp46
 70
     1
102
RTVSPropertyOp47
 70
     1
102
RTVSPropertyOp48
 70
     1
102
RTVSPropertyOp49
 70
     1
102
RTVSPropertyOp50
 70
     1
102
RTVSPropertyOp51
 70
     0
102
RTVSPropertyOp52
 70
     0
102
RTVSPropertyOp53
 70
     1
102
RTVSPropertyOp54
 70
     1
102
RTVSPropertyOp55
 70
     1
102
RTVSPropertyOp56
 70
     1
102
RTVSPropertyOp57
 70
     1
102
RTVSPropertyOp58
 70
     1
102
RTVSPropertyOp59
 70
     1
102
RTVSPropertyOp60
 70
     1
102
RTVSPropertyOp61
 70
     1
102
RTVSPropertyOp62
 70
     1
  0
XRECORD
  5
C87E
102
{ACAD_REACTORS
330
C87D
102
}
330
C87D
100
AcDbXrecord
280
     1
102
RTVSPost2010Prop28
280
     0
102
RTVSPost2010PropOp28
 70
     1
102
RTVSPost2010Prop29
280
     1
102
RTVSPost2010PropOp29
 70
     1
102
RTVSPost2010Prop30
280
     1
102
RTVSPost2010PropOp30
 70
     1
102
RTVSPost2010Prop31
280
     0
102
RTVSPost2010PropOp31
 70
     1
102
RTVSPost2010Prop32
280
     0
102
RTVSPost2010PropOp32
 70
     1
102
RTVSPost2010Prop33
280
     0
102
RTVSPost2010PropOp33
 70
     1
102
RTVSPost2010Prop34
280
     0
102
RTVSPost2010PropOp34
 70
     1
102
RTVSPost2010Prop35
280
     0
102
RTVSPost2010PropOp35
 70
     1
102
RTVSPost2010Prop36
280
     0
102
RTVSPost2010PropOp36
 70
     1
102
RTVSPost2010Prop37
 90
       50
102
RTVSPost2010PropOp37
 70
     1
102
RTVSPost2010Prop38
140
0.0
102
RTVSPost2010PropOp38
 70
     1
102
RTVSPost2010Prop39
140
1.0
102
RTVSPost2010PropOp39
 70
     1
102
RTVSPost2010Prop40
 90
        0
102
RTVSPost2010PropOp40
 70
     1
102
RTVSPost2010Prop41ColorIndex
 90
       18
102
RTVSPost2010Prop41ColorRGB
 90
        0
102
RTVSPost2010PropOp41
 70
     1
102
RTVSPost2010Prop42
 90
       50
102
RTVSPost2010PropOp42
 70
     1
102
RTVSPost2010Prop43
 90
        3
102
RTVSPost2010PropOp43
 70
     1
102
RTVSPost2010Prop44ColorIndex
 90
        5
102
RTVSPost2010Prop44ColorRGB
 90
      255
102
RTVSPost2010PropOp44
 70
     1
102
RTVSPost2010Prop45
280
     0
102
RTVSPost2010PropOp45
 70
     1
102
RTVSPost2010Prop46
 90
       50
102
RTVSPost2010PropOp46
 70
     1
102
RTVSPost2010Prop47
 90
       50
102
RTVSPost2010PropOp47
 70
     1
102
RTVSPost2010Prop48
 90
       50
102
RTVSPost2010PropOp48
 70
     1
102
RTVSPost2010Prop49
280
     0
102
RTVSPost2010PropOp49
 70
     1
102
RTVSPost2010Prop50
 90
       50
102
RTVSPost2010PropOp50
 70
     1
102
RTVSPost2010Prop51ColorIndex
 90
      256
102
RTVSPost2010Prop51ColorRGB
 90
-16777216
102
RTVSPost2010PropOp51
 70
     0
102
RTVSPost2010Prop52
140
1.0
102
RTVSPost2010PropOp52
 70
     0
102
RTVSPost2010Prop53
 90
        2
102
RTVSPost2010PropOp53
 70
     1
102
RTVSPost2010Prop54
  1
strokes_ogs.tif
102
RTVSPost2010PropOp54
 70
     1
102
RTVSPost2010Prop55
280
     0
102
RTVSPost2010PropOp55
 70
     1
102
RTVSPost2010Prop56
140
1.0
102
RTVSPost2010PropOp56
 70
     1
102
RTVSPost2010Prop57
140
1.0
102
RTVSPost2010PropOp57
 70
     1
102
RTVSPropertyOp0
 70
     1
102
RTVSPropertyOp1
 70
     1
102
RTVSPropertyOp2
 70
     1
102
RTVSPropertyOp3
 70
     1
102
RTVSPropertyOp4
 70
     1
102
RTVSPropertyOp5
 70
     1
102
RTVSPropertyOp6
 70
     1
102
RTVSPropertyOp7
 70
     1
102
RTVSPropertyOp8
 70
     1
102
RTVSPropertyOp9
 70
     1
102
RTVSPropertyOp10
 70
     1
102
RTVSPropertyOp11
 70
     1
102
RTVSPropertyOp12
 70
     1
102
RTVSPropertyOp13
 70
     1
102
RTVSPropertyOp14
 70
     1
102
RTVSPropertyOp15
 70
     1
102
RTVSPropertyOp16
 70
     1
102
RTVSPropertyOp17
 70
     1
102
RTVSPropertyOp18
 70
     1
102
RTVSPropertyOp19
 70
     1
102
RTVSPropertyOp20
 70
     1
102
RTVSPropertyOp21
 70
     1
102
RTVSPropertyOp22
 70
     1
102
RTVSPropertyOp23
 70
     1
102
RTVSPropertyOp24
 70
     1
102
RTVSPropertyOp25
 70
     1
102
RTVSPropertyOp26
 70
     1
102
RTVSPropertyOp27
 70
     1
102
RTVSPropertyOp28
 70
     1
102
RTVSPropertyOp29
 70
     1
102
RTVSPropertyOp30
 70
     1
102
RTVSPropertyOp31
 70
     1
102
RTVSPropertyOp32
 70
     1
102
RTVSPropertyOp33
 70
     1
102
RTVSPropertyOp34
 70
     1
102
RTVSPropertyOp35
 70
     1
102
RTVSPropertyOp36
 70
     1
102
RTVSPropertyOp37
 70
     1
102
RTVSPropertyOp38
 70
     1
102
RTVSPropertyOp39
 70
     1
102
RTVSPropertyOp40
 70
     1
102
RTVSPropertyOp41
 70
     1
102
RTVSPropertyOp42
 70
     1
102
RTVSPropertyOp43
 70
     1
102
RTVSPropertyOp44
 70
     1
102
RTVSPropertyOp45
 70
     1
102
RTVSPropertyOp46
 70
     1
102
RTVSPropertyOp47
 70
     1
102
RTVSPropertyOp48
 70
     1
102
RTVSPropertyOp49
 70
     1
102
RTVSPropertyOp50
 70
     1
102
RTVSPropertyOp51
 70
     0
102
RTVSPropertyOp52
 70
     0
102
RTVSPropertyOp53
 70
     1
102
RTVSPropertyOp54
 70
     1
102
RTVSPropertyOp55
 70
     1
102
RTVSPropertyOp56
 70
     1
102
RTVSPropertyOp57
 70
     1
102
RTVSPropertyOp58
 70
     1
102
RTVSPropertyOp59
 70
     1
102
RTVSPropertyOp60
 70
     1
102
RTVSPropertyOp61
 70
     1
102
RTVSPropertyOp62
 70
     1
  0
XRECORD
  5
C89A
102
{ACAD_REACTORS
330
C899
102
}
330
C899
100
AcDbXrecord
280
     1
102
RTVSPost2010Prop28
280
     0
102
RTVSPost2010PropOp28
 70
     0
102
RTVSPost2010Prop29
280
     1
102
RTVSPost2010PropOp29
 70
     0
102
RTVSPost2010Prop30
280
     1
102
RTVSPost2010PropOp30
 70
     0
102
RTVSPost2010Prop31
280
     0
102
RTVSPost2010PropOp31
 70
     0
102
RTVSPost2010Prop32
280
     0
102
RTVSPost2010PropOp32
 70
     0
102
RTVSPost2010Prop33
280
     0
102
RTVSPost2010PropOp33
 70
     0
102
RTVSPost2010Prop34
280
     0
102
RTVSPost2010PropOp34
 70
     0
102
RTVSPost2010Prop35
280
     0
102
RTVSPost2010PropOp35
 70
     0
102
RTVSPost2010Prop36
280
     0
102
RTVSPost2010PropOp36
 70
     0
102
RTVSPost2010Prop37
 90
       50
102
RTVSPost2010PropOp37
 70
     0
102
RTVSPost2010Prop38
140
0.0
102
RTVSPost2010PropOp38
 70
     0
102
RTVSPost2010Prop39
140
1.0
102
RTVSPost2010PropOp39
 70
     0
102
RTVSPost2010Prop40
 90
        0
102
RTVSPost2010PropOp40
 70
     0
102
RTVSPost2010Prop41ColorIndex
 90
       18
102
RTVSPost2010Prop41ColorRGB
 90
        0
102
RTVSPost2010PropOp41
 70
     0
102
RTVSPost2010Prop42
 90
       50
102
RTVSPost2010PropOp42
 70
     0
102
RTVSPost2010Prop43
 90
        3
102
RTVSPost2010PropOp43
 70
     0
102
RTVSPost2010Prop44ColorIndex
 90
        5
102
RTVSPost2010Prop44ColorRGB
 90
      255
102
RTVSPost2010PropOp44
 70
     0
102
RTVSPost2010Prop45
280
     0
102
RTVSPost2010PropOp45
 70
     0
102
RTVSPost2010Prop46
 90
       50
102
RTVSPost2010PropOp46
 70
     0
102
RTVSPost2010Prop47
 90
       50
102
RTVSPost2010PropOp47
 70
     0
102
RTVSPost2010Prop48
 90
       50
102
RTVSPost2010PropOp48
 70
     0
102
RTVSPost2010Prop49
280
     0
102
RTVSPost2010PropOp49
 70
     0
102
RTVSPost2010Prop50
 90
       50
102
RTVSPost2010PropOp50
 70
     0
102
RTVSPost2010Prop51ColorIndex
 90
      256
102
RTVSPost2010Prop51ColorRGB
 90
-16777216
102
RTVSPost2010PropOp51
 70
     0
102
RTVSPost2010Prop52
140
1.0
102
RTVSPost2010PropOp52
 70
     0
102
RTVSPost2010Prop53
 90
        2
102
RTVSPost2010PropOp53
 70
     0
102
RTVSPost2010Prop54
  1
strokes_ogs.tif
102
RTVSPost2010PropOp54
 70
     0
102
RTVSPost2010Prop55
280
     0
102
RTVSPost2010PropOp55
 70
     0
102
RTVSPost2010Prop56
140
1.0
102
RTVSPost2010PropOp56
 70
     0
102
RTVSPost2010Prop57
140
1.0
102
RTVSPost2010PropOp57
 70
     0
102
RTVSPropertyOp0
 70
     0
102
RTVSPropertyOp1
 70
     0
102
RTVSPropertyOp2
 70
     0
102
RTVSPropertyOp3
 70
     0
102
RTVSPropertyOp4
 70
     0
102
RTVSPropertyOp5
 70
     0
102
RTVSPropertyOp6
 70
     0
102
RTVSPropertyOp7
 70
     0
102
RTVSPropertyOp8
 70
     0
102
RTVSPropertyOp9
 70
     0
102
RTVSPropertyOp10
 70
     0
102
RTVSPropertyOp11
 70
     0
102
RTVSPropertyOp12
 70
     0
102
RTVSPropertyOp13
 70
     0
102
RTVSPropertyOp14
 70
     2
102
RTVSPropertyOp15
 70
     0
102
RTVSPropertyOp16
 70
     0
102
RTVSPropertyOp17
 70
     0
102
RTVSPropertyOp18
 70
     0
102
RTVSPropertyOp19
 70
     0
102
RTVSPropertyOp20
 70
     0
102
RTVSPropertyOp21
 70
     0
102
RTVSPropertyOp22
 70
     0
102
RTVSPropertyOp23
 70
     0
102
RTVSPropertyOp24
 70
     0
102
RTVSPropertyOp25
 70
     0
102
RTVSPropertyOp26
 70
     0
102
RTVSPropertyOp27
 70
     0
102
RTVSPropertyOp28
 70
     0
102
RTVSPropertyOp29
 70
     0
102
RTVSPropertyOp30
 70
     0
102
RTVSPropertyOp31
 70
     0
102
RTVSPropertyOp32
 70
     0
102
RTVSPropertyOp33
 70
     0
102
RTVSPropertyOp34
 70
     0
102
RTVSPropertyOp35
 70
     0
102
RTVSPropertyOp36
 70
     0
102
RTVSPropertyOp37
 70
     0
102
RTVSPropertyOp38
 70
     0
102
RTVSPropertyOp39
 70
     0
102
RTVSPropertyOp40
 70
     0
102
RTVSPropertyOp41
 70
     0
102
RTVSPropertyOp42
 70
     0
102
RTVSPropertyOp43
 70
     0
102
RTVSPropertyOp44
 70
     0
102
RTVSPropertyOp45
 70
     0
102
RTVSPropertyOp46
 70
     0
102
RTVSPropertyOp47
 70
     0
102
RTVSPropertyOp48
 70
     0
102
RTVSPropertyOp49
 70
     0
102
RTVSPropertyOp50
 70
     0
102
RTVSPropertyOp51
 70
     0
102
RTVSPropertyOp52
 70
     0
102
RTVSPropertyOp53
 70
     0
102
RTVSPropertyOp54
 70
     0
102
RTVSPropertyOp55
 70
     0
102
RTVSPropertyOp56
 70
     0
102
RTVSPropertyOp57
 70
     0
102
RTVSPropertyOp58
 70
     0
102
RTVSPropertyOp59
 70
     0
102
RTVSPropertyOp60
 70
     0
102
RTVSPropertyOp61
 70
     0
102
RTVSPropertyOp62
 70
     0
  0
XRECORD
  5
C88A
102
{ACAD_REACTORS
330
C889
102
}
330
C889
100
AcDbXrecord
280
     1
102
RTVSPost2010Prop28
280
     0
102
RTVSPost2010PropOp28
 70
     1
102
RTVSPost2010Prop29
280
     1
102
RTVSPost2010PropOp29
 70
     1
102
RTVSPost2010Prop30
280
     1
102
RTVSPost2010PropOp30
 70
     1
102
RTVSPost2010Prop31
280
     0
102
RTVSPost2010PropOp31
 70
     1
102
RTVSPost2010Prop32
280
     0
102
RTVSPost2010PropOp32
 70
     1
102
RTVSPost2010Prop33
280
     0
102
RTVSPost2010PropOp33
 70
     1
102
RTVSPost2010Prop34
280
     0
102
RTVSPost2010PropOp34
 70
     1
102
RTVSPost2010Prop35
280
     0
102
RTVSPost2010PropOp35
 70
     1
102
RTVSPost2010Prop36
280
     0
102
RTVSPost2010PropOp36
 70
     1
102
RTVSPost2010Prop37
 90
       50
102
RTVSPost2010PropOp37
 70
     1
102
RTVSPost2010Prop38
140
0.0
102
RTVSPost2010PropOp38
 70
     1
102
RTVSPost2010Prop39
140
1.0
102
RTVSPost2010PropOp39
 70
     1
102
RTVSPost2010Prop40
 90
        0
102
RTVSPost2010PropOp40
 70
     1
102
RTVSPost2010Prop41ColorIndex
 90
       18
102
RTVSPost2010Prop41ColorRGB
 90
        0
102
RTVSPost2010PropOp41
 70
     1
102
RTVSPost2010Prop42
 90
       50
102
RTVSPost2010PropOp42
 70
     1
102
RTVSPost2010Prop43
 90
        3
102
RTVSPost2010PropOp43
 70
     1
102
RTVSPost2010Prop44ColorIndex
 90
        5
102
RTVSPost2010Prop44ColorRGB
 90
      255
102
RTVSPost2010PropOp44
 70
     1
102
RTVSPost2010Prop45
280
     0
102
RTVSPost2010PropOp45
 70
     1
102
RTVSPost2010Prop46
 90
       50
102
RTVSPost2010PropOp46
 70
     1
102
RTVSPost2010Prop47
 90
       50
102
RTVSPost2010PropOp47
 70
     1
102
RTVSPost2010Prop48
 90
       50
102
RTVSPost2010PropOp48
 70
     1
102
RTVSPost2010Prop49
280
     0
102
RTVSPost2010PropOp49
 70
     1
102
RTVSPost2010Prop50
 90
       50
102
RTVSPost2010PropOp50
 70
     1
102
RTVSPost2010Prop51ColorIndex
 90
      256
102
RTVSPost2010Prop51ColorRGB
 90
-16777216
102
RTVSPost2010PropOp51
 70
     0
102
RTVSPost2010Prop52
140
1.0
102
RTVSPost2010PropOp52
 70
     0
102
RTVSPost2010Prop53
 90
        2
102
RTVSPost2010PropOp53
 70
     1
102
RTVSPost2010Prop54
  1
strokes_ogs.tif
102
RTVSPost2010PropOp54
 70
     1
102
RTVSPost2010Prop55
280
     0
102
RTVSPost2010PropOp55
 70
     1
102
RTVSPost2010Prop56
140
1.0
102
RTVSPost2010PropOp56
 70
     1
102
RTVSPost2010Prop57
140
1.0
102
RTVSPost2010PropOp57
 70
     1
102
RTVSPropertyOp0
 70
     1
102
RTVSPropertyOp1
 70
     1
102
RTVSPropertyOp2
 70
     1
102
RTVSPropertyOp3
 70
     1
102
RTVSPropertyOp4
 70
     1
102
RTVSPropertyOp5
 70
     1
102
RTVSPropertyOp6
 70
     1
102
RTVSPropertyOp7
 70
     1
102
RTVSPropertyOp8
 70
     1
102
RTVSPropertyOp9
 70
     1
102
RTVSPropertyOp10
 70
     1
102
RTVSPropertyOp11
 70
     1
102
RTVSPropertyOp12
 70
     1
102
RTVSPropertyOp13
 70
     1
102
RTVSPropertyOp14
 70
     1
102
RTVSPropertyOp15
 70
     1
102
RTVSPropertyOp16
 70
     1
102
RTVSPropertyOp17
 70
     1
102
RTVSPropertyOp18
 70
     1
102
RTVSPropertyOp19
 70
     1
102
RTVSPropertyOp20
 70
     1
102
RTVSPropertyOp21
 70
     1
102
RTVSPropertyOp22
 70
     1
102
RTVSPropertyOp23
 70
     1
102
RTVSPropertyOp24
 70
     1
102
RTVSPropertyOp25
 70
     1
102
RTVSPropertyOp26
 70
     1
102
RTVSPropertyOp27
 70
     1
102
RTVSPropertyOp28
 70
     1
102
RTVSPropertyOp29
 70
     1
102
RTVSPropertyOp30
 70
     1
102
RTVSPropertyOp31
 70
     1
102
RTVSPropertyOp32
 70
     1
102
RTVSPropertyOp33
 70
     1
102
RTVSPropertyOp34
 70
     1
102
RTVSPropertyOp35
 70
     1
102
RTVSPropertyOp36
 70
     1
102
RTVSPropertyOp37
 70
     1
102
RTVSPropertyOp38
 70
     1
102
RTVSPropertyOp39
 70
     1
102
RTVSPropertyOp40
 70
     1
102
RTVSPropertyOp41
 70
     1
102
RTVSPropertyOp42
 70
     1
102
RTVSPropertyOp43
 70
     1
102
RTVSPropertyOp44
 70
     1
102
RTVSPropertyOp45
 70
     1
102
RTVSPropertyOp46
 70
     1
102
RTVSPropertyOp47
 70
     1
102
RTVSPropertyOp48
 70
     1
102
RTVSPropertyOp49
 70
     1
102
RTVSPropertyOp50
 70
     1
102
RTVSPropertyOp51
 70
     0
102
RTVSPropertyOp52
 70
     0
102
RTVSPropertyOp53
 70
     1
102
RTVSPropertyOp54
 70
     1
102
RTVSPropertyOp55
 70
     1
102
RTVSPropertyOp56
 70
     1
102
RTVSPropertyOp57
 70
     1
102
RTVSPropertyOp58
 70
     1
102
RTVSPropertyOp59
 70
     1
102
RTVSPropertyOp60
 70
     1
102
RTVSPropertyOp61
 70
     1
102
RTVSPropertyOp62
 70
     1
  0
XRECORD
  5
C89C
102
{ACAD_REACTORS
330
C89B
102
}
330
C89B
100
AcDbXrecord
280
     1
102
RTVSPost2010Prop28
280
     0
102
RTVSPost2010PropOp28
 70
     0
102
RTVSPost2010Prop29
280
     1
102
RTVSPost2010PropOp29
 70
     0
102
RTVSPost2010Prop30
280
     1
102
RTVSPost2010PropOp30
 70
     0
102
RTVSPost2010Prop31
280
     0
102
RTVSPost2010PropOp31
 70
     0
102
RTVSPost2010Prop32
280
     0
102
RTVSPost2010PropOp32
 70
     0
102
RTVSPost2010Prop33
280
     0
102
RTVSPost2010PropOp33
 70
     0
102
RTVSPost2010Prop34
280
     0
102
RTVSPost2010PropOp34
 70
     0
102
RTVSPost2010Prop35
280
     0
102
RTVSPost2010PropOp35
 70
     0
102
RTVSPost2010Prop36
280
     0
102
RTVSPost2010PropOp36
 70
     0
102
RTVSPost2010Prop37
 90
       50
102
RTVSPost2010PropOp37
 70
     0
102
RTVSPost2010Prop38
140
0.0
102
RTVSPost2010PropOp38
 70
     0
102
RTVSPost2010Prop39
140
1.0
102
RTVSPost2010PropOp39
 70
     0
102
RTVSPost2010Prop40
 90
        0
102
RTVSPost2010PropOp40
 70
     0
102
RTVSPost2010Prop41ColorIndex
 90
       18
102
RTVSPost2010Prop41ColorRGB
 90
        0
102
RTVSPost2010PropOp41
 70
     0
102
RTVSPost2010Prop42
 90
       50
102
RTVSPost2010PropOp42
 70
     0
102
RTVSPost2010Prop43
 90
        3
102
RTVSPost2010PropOp43
 70
     0
102
RTVSPost2010Prop44ColorIndex
 90
        5
102
RTVSPost2010Prop44ColorRGB
 90
      255
102
RTVSPost2010PropOp44
 70
     0
102
RTVSPost2010Prop45
280
     0
102
RTVSPost2010PropOp45
 70
     0
102
RTVSPost2010Prop46
 90
       50
102
RTVSPost2010PropOp46
 70
     0
102
RTVSPost2010Prop47
 90
       50
102
RTVSPost2010PropOp47
 70
     0
102
RTVSPost2010Prop48
 90
       50
102
RTVSPost2010PropOp48
 70
     0
102
RTVSPost2010Prop49
280
     0
102
RTVSPost2010PropOp49
 70
     0
102
RTVSPost2010Prop50
 90
       50
102
RTVSPost2010PropOp50
 70
     0
102
RTVSPost2010Prop51ColorIndex
 90
      256
102
RTVSPost2010Prop51ColorRGB
 90
-16777216
102
RTVSPost2010PropOp51
 70
     0
102
RTVSPost2010Prop52
140
1.0
102
RTVSPost2010PropOp52
 70
     0
102
RTVSPost2010Prop53
 90
        2
102
RTVSPost2010PropOp53
 70
     0
102
RTVSPost2010Prop54
  1
strokes_ogs.tif
102
RTVSPost2010PropOp54
 70
     0
102
RTVSPost2010Prop55
280
     0
102
RTVSPost2010PropOp55
 70
     0
102
RTVSPost2010Prop56
140
1.0
102
RTVSPost2010PropOp56
 70
     0
102
RTVSPost2010Prop57
140
1.0
102
RTVSPost2010PropOp57
 70
     0
102
RTVSPropertyOp0
 70
     0
102
RTVSPropertyOp1
 70
     0
102
RTVSPropertyOp2
 70
     0
102
RTVSPropertyOp3
 70
     0
102
RTVSPropertyOp4
 70
     0
102
RTVSPropertyOp5
 70
     0
102
RTVSPropertyOp6
 70
     0
102
RTVSPropertyOp7
 70
     0
102
RTVSPropertyOp8
 70
     0
102
RTVSPropertyOp9
 70
     0
102
RTVSPropertyOp10
 70
     0
102
RTVSPropertyOp11
 70
     0
102
RTVSPropertyOp12
 70
     0
102
RTVSPropertyOp13
 70
     0
102
RTVSPropertyOp14
 70
     2
102
RTVSPropertyOp15
 70
     0
102
RTVSPropertyOp16
 70
     0
102
RTVSPropertyOp17
 70
     0
102
RTVSPropertyOp18
 70
     0
102
RTVSPropertyOp19
 70
     0
102
RTVSPropertyOp20
 70
     0
102
RTVSPropertyOp21
 70
     0
102
RTVSPropertyOp22
 70
     0
102
RTVSPropertyOp23
 70
     0
102
RTVSPropertyOp24
 70
     0
102
RTVSPropertyOp25
 70
     0
102
RTVSPropertyOp26
 70
     0
102
RTVSPropertyOp27
 70
     0
102
RTVSPropertyOp28
 70
     0
102
RTVSPropertyOp29
 70
     0
102
RTVSPropertyOp30
 70
     0
102
RTVSPropertyOp31
 70
     0
102
RTVSPropertyOp32
 70
     0
102
RTVSPropertyOp33
 70
     0
102
RTVSPropertyOp34
 70
     0
102
RTVSPropertyOp35
 70
     0
102
RTVSPropertyOp36
 70
     0
102
RTVSPropertyOp37
 70
     0
102
RTVSPropertyOp38
 70
     0
102
RTVSPropertyOp39
 70
     0
102
RTVSPropertyOp40
 70
     0
102
RTVSPropertyOp41
 70
     0
102
RTVSPropertyOp42
 70
     0
102
RTVSPropertyOp43
 70
     0
102
RTVSPropertyOp44
 70
     0
102
RTVSPropertyOp45
 70
     0
102
RTVSPropertyOp46
 70
     0
102
RTVSPropertyOp47
 70
     0
102
RTVSPropertyOp48
 70
     0
102
RTVSPropertyOp49
 70
     0
102
RTVSPropertyOp50
 70
     0
102
RTVSPropertyOp51
 70
     0
102
RTVSPropertyOp52
 70
     0
102
RTVSPropertyOp53
 70
     0
102
RTVSPropertyOp54
 70
     0
102
RTVSPropertyOp55
 70
     0
102
RTVSPropertyOp56
 70
     0
102
RTVSPropertyOp57
 70
     0
102
RTVSPropertyOp58
 70
     0
102
RTVSPropertyOp59
 70
     0
102
RTVSPropertyOp60
 70
     0
102
RTVSPropertyOp61
 70
     0
102
RTVSPropertyOp62
 70
     0
  0
XRECORD
  5
C882
102
{ACAD_REACTORS
330
C881
102
}
330
C881
100
AcDbXrecord
280
     1
102
RTVSPost2010Prop28
280
     0
102
RTVSPost2010PropOp28
 70
     1
102
RTVSPost2010Prop29
280
     1
102
RTVSPost2010PropOp29
 70
     1
102
RTVSPost2010Prop30
280
     1
102
RTVSPost2010PropOp30
 70
     1
102
RTVSPost2010Prop31
280
     0
102
RTVSPost2010PropOp31
 70
     1
102
RTVSPost2010Prop32
280
     0
102
RTVSPost2010PropOp32
 70
     1
102
RTVSPost2010Prop33
280
     0
102
RTVSPost2010PropOp33
 70
     1
102
RTVSPost2010Prop34
280
     0
102
RTVSPost2010PropOp34
 70
     1
102
RTVSPost2010Prop35
280
     0
102
RTVSPost2010PropOp35
 70
     1
102
RTVSPost2010Prop36
280
     0
102
RTVSPost2010PropOp36
 70
     1
102
RTVSPost2010Prop37
 90
       50
102
RTVSPost2010PropOp37
 70
     1
102
RTVSPost2010Prop38
140
0.0
102
RTVSPost2010PropOp38
 70
     1
102
RTVSPost2010Prop39
140
1.0
102
RTVSPost2010PropOp39
 70
     1
102
RTVSPost2010Prop40
 90
        0
102
RTVSPost2010PropOp40
 70
     1
102
RTVSPost2010Prop41ColorIndex
 90
       18
102
RTVSPost2010Prop41ColorRGB
 90
        0
102
RTVSPost2010PropOp41
 70
     1
102
RTVSPost2010Prop42
 90
       50
102
RTVSPost2010PropOp42
 70
     1
102
RTVSPost2010Prop43
 90
        3
102
RTVSPost2010PropOp43
 70
     1
102
RTVSPost2010Prop44ColorIndex
 90
        5
102
RTVSPost2010Prop44ColorRGB
 90
      255
102
RTVSPost2010PropOp44
 70
     1
102
RTVSPost2010Prop45
280
     0
102
RTVSPost2010PropOp45
 70
     1
102
RTVSPost2010Prop46
 90
       50
102
RTVSPost2010PropOp46
 70
     1
102
RTVSPost2010Prop47
 90
       50
102
RTVSPost2010PropOp47
 70
     1
102
RTVSPost2010Prop48
 90
       50
102
RTVSPost2010PropOp48
 70
     1
102
RTVSPost2010Prop49
280
     0
102
RTVSPost2010PropOp49
 70
     1
102
RTVSPost2010Prop50
 90
       50
102
RTVSPost2010PropOp50
 70
     1
102
RTVSPost2010Prop51ColorIndex
 90
      256
102
RTVSPost2010Prop51ColorRGB
 90
-16777216
102
RTVSPost2010PropOp51
 70
     0
102
RTVSPost2010Prop52
140
1.0
102
RTVSPost2010PropOp52
 70
     0
102
RTVSPost2010Prop53
 90
        2
102
RTVSPost2010PropOp53
 70
     1
102
RTVSPost2010Prop54
  1
strokes_ogs.tif
102
RTVSPost2010PropOp54
 70
     1
102
RTVSPost2010Prop55
280
     0
102
RTVSPost2010PropOp55
 70
     1
102
RTVSPost2010Prop56
140
1.0
102
RTVSPost2010PropOp56
 70
     1
102
RTVSPost2010Prop57
140
1.0
102
RTVSPost2010PropOp57
 70
     1
102
RTVSPropertyOp0
 70
     1
102
RTVSPropertyOp1
 70
     1
102
RTVSPropertyOp2
 70
     1
102
RTVSPropertyOp3
 70
     1
102
RTVSPropertyOp4
 70
     1
102
RTVSPropertyOp5
 70
     1
102
RTVSPropertyOp6
 70
     1
102
RTVSPropertyOp7
 70
     1
102
RTVSPropertyOp8
 70
     1
102
RTVSPropertyOp9
 70
     1
102
RTVSPropertyOp10
 70
     1
102
RTVSPropertyOp11
 70
     1
102
RTVSPropertyOp12
 70
     1
102
RTVSPropertyOp13
 70
     1
102
RTVSPropertyOp14
 70
     1
102
RTVSPropertyOp15
 70
     1
102
RTVSPropertyOp16
 70
     1
102
RTVSPropertyOp17
 70
     1
102
RTVSPropertyOp18
 70
     1
102
RTVSPropertyOp19
 70
     1
102
RTVSPropertyOp20
 70
     1
102
RTVSPropertyOp21
 70
     1
102
RTVSPropertyOp22
 70
     1
102
RTVSPropertyOp23
 70
     1
102
RTVSPropertyOp24
 70
     1
102
RTVSPropertyOp25
 70
     1
102
RTVSPropertyOp26
 70
     1
102
RTVSPropertyOp27
 70
     1
102
RTVSPropertyOp28
 70
     1
102
RTVSPropertyOp29
 70
     1
102
RTVSPropertyOp30
 70
     1
102
RTVSPropertyOp31
 70
     1
102
RTVSPropertyOp32
 70
     1
102
RTVSPropertyOp33
 70
     1
102
RTVSPropertyOp34
 70
     1
102
RTVSPropertyOp35
 70
     1
102
RTVSPropertyOp36
 70
     1
102
RTVSPropertyOp37
 70
     1
102
RTVSPropertyOp38
 70
     1
102
RTVSPropertyOp39
 70
     1
102
RTVSPropertyOp40
 70
     1
102
RTVSPropertyOp41
 70
     1
102
RTVSPropertyOp42
 70
     1
102
RTVSPropertyOp43
 70
     1
102
RTVSPropertyOp44
 70
     1
102
RTVSPropertyOp45
 70
     1
102
RTVSPropertyOp46
 70
     1
102
RTVSPropertyOp47
 70
     1
102
RTVSPropertyOp48
 70
     1
102
RTVSPropertyOp49
 70
     1
102
RTVSPropertyOp50
 70
     1
102
RTVSPropertyOp51
 70
     0
102
RTVSPropertyOp52
 70
     0
102
RTVSPropertyOp53
 70
     1
102
RTVSPropertyOp54
 70
     1
102
RTVSPropertyOp55
 70
     1
102
RTVSPropertyOp56
 70
     1
102
RTVSPropertyOp57
 70
     1
102
RTVSPropertyOp58
 70
     1
102
RTVSPropertyOp59
 70
     1
102
RTVSPropertyOp60
 70
     1
102
RTVSPropertyOp61
 70
     1
102
RTVSPropertyOp62
 70
     1
  0
XRECORD
  5
C898
102
{ACAD_REACTORS
330
C897
102
}
330
C897
100
AcDbXrecord
280
     1
102
RTVSPost2010Prop28
280
     0
102
RTVSPost2010PropOp28
 70
     1
102
RTVSPost2010Prop29
280
     1
102
RTVSPost2010PropOp29
 70
     1
102
RTVSPost2010Prop30
280
     1
102
RTVSPost2010PropOp30
 70
     1
102
RTVSPost2010Prop31
280
     0
102
RTVSPost2010PropOp31
 70
     1
102
RTVSPost2010Prop32
280
     0
102
RTVSPost2010PropOp32
 70
     1
102
RTVSPost2010Prop33
280
     0
102
RTVSPost2010PropOp33
 70
     1
102
RTVSPost2010Prop34
280
     0
102
RTVSPost2010PropOp34
 70
     1
102
RTVSPost2010Prop35
280
     0
102
RTVSPost2010PropOp35
 70
     1
102
RTVSPost2010Prop36
280
     0
102
RTVSPost2010PropOp36
 70
     1
102
RTVSPost2010Prop37
 90
       50
102
RTVSPost2010PropOp37
 70
     1
102
RTVSPost2010Prop38
140
0.0
102
RTVSPost2010PropOp38
 70
     1
102
RTVSPost2010Prop39
140
1.0
102
RTVSPost2010PropOp39
 70
     1
102
RTVSPost2010Prop40
 90
        0
102
RTVSPost2010PropOp40
 70
     1
102
RTVSPost2010Prop41ColorIndex
 90
       18
102
RTVSPost2010Prop41ColorRGB
 90
        0
102
RTVSPost2010PropOp41
 70
     1
102
RTVSPost2010Prop42
 90
       50
102
RTVSPost2010PropOp42
 70
     1
102
RTVSPost2010Prop43
 90
        3
102
RTVSPost2010PropOp43
 70
     1
102
RTVSPost2010Prop44ColorIndex
 90
        5
102
RTVSPost2010Prop44ColorRGB
 90
      255
102
RTVSPost2010PropOp44
 70
     1
102
RTVSPost2010Prop45
280
     0
102
RTVSPost2010PropOp45
 70
     1
102
RTVSPost2010Prop46
 90
       50
102
RTVSPost2010PropOp46
 70
     1
102
RTVSPost2010Prop47
 90
       50
102
RTVSPost2010PropOp47
 70
     1
102
RTVSPost2010Prop48
 90
       50
102
RTVSPost2010PropOp48
 70
     1
102
RTVSPost2010Prop49
280
     0
102
RTVSPost2010PropOp49
 70
     1
102
RTVSPost2010Prop50
 90
       50
102
RTVSPost2010PropOp50
 70
     1
102
RTVSPost2010Prop51ColorIndex
 90
      256
102
RTVSPost2010Prop51ColorRGB
 90
-16777216
102
RTVSPost2010PropOp51
 70
     0
102
RTVSPost2010Prop52
140
1.0
102
RTVSPost2010PropOp52
 70
     0
102
RTVSPost2010Prop53
 90
        2
102
RTVSPost2010PropOp53
 70
     1
102
RTVSPost2010Prop54
  1
strokes_ogs.tif
102
RTVSPost2010PropOp54
 70
     1
102
RTVSPost2010Prop55
280
     0
102
RTVSPost2010PropOp55
 70
     1
102
RTVSPost2010Prop56
140
1.0
102
RTVSPost2010PropOp56
 70
     1
102
RTVSPost2010Prop57
140
1.0
102
RTVSPost2010PropOp57
 70
     1
102
RTVSPropertyOp0
 70
     1
102
RTVSPropertyOp1
 70
     1
102
RTVSPropertyOp2
 70
     1
102
RTVSPropertyOp3
 70
     1
102
RTVSPropertyOp4
 70
     1
102
RTVSPropertyOp5
 70
     1
102
RTVSPropertyOp6
 70
     1
102
RTVSPropertyOp7
 70
     1
102
RTVSPropertyOp8
 70
     1
102
RTVSPropertyOp9
 70
     1
102
RTVSPropertyOp10
 70
     1
102
RTVSPropertyOp11
 70
     1
102
RTVSPropertyOp12
 70
     1
102
RTVSPropertyOp13
 70
     1
102
RTVSPropertyOp14
 70
     1
102
RTVSPropertyOp15
 70
     1
102
RTVSPropertyOp16
 70
     1
102
RTVSPropertyOp17
 70
     1
102
RTVSPropertyOp18
 70
     1
102
RTVSPropertyOp19
 70
     1
102
RTVSPropertyOp20
 70
     1
102
RTVSPropertyOp21
 70
     1
102
RTVSPropertyOp22
 70
     1
102
RTVSPropertyOp23
 70
     1
102
RTVSPropertyOp24
 70
     1
102
RTVSPropertyOp25
 70
     1
102
RTVSPropertyOp26
 70
     1
102
RTVSPropertyOp27
 70
     1
102
RTVSPropertyOp28
 70
     1
102
RTVSPropertyOp29
 70
     1
102
RTVSPropertyOp30
 70
     1
102
RTVSPropertyOp31
 70
     1
102
RTVSPropertyOp32
 70
     1
102
RTVSPropertyOp33
 70
     1
102
RTVSPropertyOp34
 70
     1
102
RTVSPropertyOp35
 70
     1
102
RTVSPropertyOp36
 70
     1
102
RTVSPropertyOp37
 70
     1
102
RTVSPropertyOp38
 70
     1
102
RTVSPropertyOp39
 70
     1
102
RTVSPropertyOp40
 70
     1
102
RTVSPropertyOp41
 70
     1
102
RTVSPropertyOp42
 70
     1
102
RTVSPropertyOp43
 70
     1
102
RTVSPropertyOp44
 70
     1
102
RTVSPropertyOp45
 70
     1
102
RTVSPropertyOp46
 70
     1
102
RTVSPropertyOp47
 70
     1
102
RTVSPropertyOp48
 70
     1
102
RTVSPropertyOp49
 70
     1
102
RTVSPropertyOp50
 70
     1
102
RTVSPropertyOp51
 70
     0
102
RTVSPropertyOp52
 70
     0
102
RTVSPropertyOp53
 70
     1
102
RTVSPropertyOp54
 70
     1
102
RTVSPropertyOp55
 70
     1
102
RTVSPropertyOp56
 70
     1
102
RTVSPropertyOp57
 70
     1
102
RTVSPropertyOp58
 70
     1
102
RTVSPropertyOp59
 70
     1
102
RTVSPropertyOp60
 70
     1
102
RTVSPropertyOp61
 70
     1
102
RTVSPropertyOp62
 70
     1
  0
XRECORD
  5
C896
102
{ACAD_REACTORS
330
C895
102
}
330
C895
100
AcDbXrecord
280
     1
102
RTVSPost2010Prop28
280
     0
102
RTVSPost2010PropOp28
 70
     1
102
RTVSPost2010Prop29
280
     1
102
RTVSPost2010PropOp29
 70
     1
102
RTVSPost2010Prop30
280
     1
102
RTVSPost2010PropOp30
 70
     1
102
RTVSPost2010Prop31
280
     0
102
RTVSPost2010PropOp31
 70
     1
102
RTVSPost2010Prop32
280
     0
102
RTVSPost2010PropOp32
 70
     1
102
RTVSPost2010Prop33
280
     0
102
RTVSPost2010PropOp33
 70
     1
102
RTVSPost2010Prop34
280
     0
102
RTVSPost2010PropOp34
 70
     1
102
RTVSPost2010Prop35
280
     0
102
RTVSPost2010PropOp35
 70
     1
102
RTVSPost2010Prop36
280
     0
102
RTVSPost2010PropOp36
 70
     1
102
RTVSPost2010Prop37
 90
       50
102
RTVSPost2010PropOp37
 70
     1
102
RTVSPost2010Prop38
140
0.0
102
RTVSPost2010PropOp38
 70
     1
102
RTVSPost2010Prop39
140
1.0
102
RTVSPost2010PropOp39
 70
     1
102
RTVSPost2010Prop40
 90
        0
102
RTVSPost2010PropOp40
 70
     1
102
RTVSPost2010Prop41ColorIndex
 90
       18
102
RTVSPost2010Prop41ColorRGB
 90
        0
102
RTVSPost2010PropOp41
 70
     1
102
RTVSPost2010Prop42
 90
       50
102
RTVSPost2010PropOp42
 70
     1
102
RTVSPost2010Prop43
 90
        3
102
RTVSPost2010PropOp43
 70
     1
102
RTVSPost2010Prop44ColorIndex
 90
        5
102
RTVSPost2010Prop44ColorRGB
 90
      255
102
RTVSPost2010PropOp44
 70
     1
102
RTVSPost2010Prop45
280
     0
102
RTVSPost2010PropOp45
 70
     1
102
RTVSPost2010Prop46
 90
       50
102
RTVSPost2010PropOp46
 70
     1
102
RTVSPost2010Prop47
 90
       50
102
RTVSPost2010PropOp47
 70
     1
102
RTVSPost2010Prop48
 90
       50
102
RTVSPost2010PropOp48
 70
     1
102
RTVSPost2010Prop49
280
     0
102
RTVSPost2010PropOp49
 70
     1
102
RTVSPost2010Prop50
 90
       50
102
RTVSPost2010PropOp50
 70
     1
102
RTVSPost2010Prop51ColorIndex
 90
      256
102
RTVSPost2010Prop51ColorRGB
 90
-16777216
102
RTVSPost2010PropOp51
 70
     0
102
RTVSPost2010Prop52
140
1.0
102
RTVSPost2010PropOp52
 70
     0
102
RTVSPost2010Prop53
 90
        2
102
RTVSPost2010PropOp53
 70
     1
102
RTVSPost2010Prop54
  1
strokes_ogs.tif
102
RTVSPost2010PropOp54
 70
     1
102
RTVSPost2010Prop55
280
     0
102
RTVSPost2010PropOp55
 70
     1
102
RTVSPost2010Prop56
140
1.0
102
RTVSPost2010PropOp56
 70
     1
102
RTVSPost2010Prop57
140
1.0
102
RTVSPost2010PropOp57
 70
     1
102
RTVSPropertyOp0
 70
     1
102
RTVSPropertyOp1
 70
     1
102
RTVSPropertyOp2
 70
     1
102
RTVSPropertyOp3
 70
     1
102
RTVSPropertyOp4
 70
     1
102
RTVSPropertyOp5
 70
     1
102
RTVSPropertyOp6
 70
     1
102
RTVSPropertyOp7
 70
     1
102
RTVSPropertyOp8
 70
     1
102
RTVSPropertyOp9
 70
     1
102
RTVSPropertyOp10
 70
     1
102
RTVSPropertyOp11
 70
     1
102
RTVSPropertyOp12
 70
     1
102
RTVSPropertyOp13
 70
     1
102
RTVSPropertyOp14
 70
     1
102
RTVSPropertyOp15
 70
     1
102
RTVSPropertyOp16
 70
     1
102
RTVSPropertyOp17
 70
     1
102
RTVSPropertyOp18
 70
     1
102
RTVSPropertyOp19
 70
     1
102
RTVSPropertyOp20
 70
     1
102
RTVSPropertyOp21
 70
     1
102
RTVSPropertyOp22
 70
     1
102
RTVSPropertyOp23
 70
     1
102
RTVSPropertyOp24
 70
     1
102
RTVSPropertyOp25
 70
     1
102
RTVSPropertyOp26
 70
     1
102
RTVSPropertyOp27
 70
     1
102
RTVSPropertyOp28
 70
     1
102
RTVSPropertyOp29
 70
     1
102
RTVSPropertyOp30
 70
     1
102
RTVSPropertyOp31
 70
     1
102
RTVSPropertyOp32
 70
     1
102
RTVSPropertyOp33
 70
     1
102
RTVSPropertyOp34
 70
     1
102
RTVSPropertyOp35
 70
     1
102
RTVSPropertyOp36
 70
     1
102
RTVSPropertyOp37
 70
     1
102
RTVSPropertyOp38
 70
     1
102
RTVSPropertyOp39
 70
     1
102
RTVSPropertyOp40
 70
     1
102
RTVSPropertyOp41
 70
     1
102
RTVSPropertyOp42
 70
     1
102
RTVSPropertyOp43
 70
     1
102
RTVSPropertyOp44
 70
     1
102
RTVSPropertyOp45
 70
     1
102
RTVSPropertyOp46
 70
     1
102
RTVSPropertyOp47
 70
     1
102
RTVSPropertyOp48
 70
     1
102
RTVSPropertyOp49
 70
     1
102
RTVSPropertyOp50
 70
     1
102
RTVSPropertyOp51
 70
     0
102
RTVSPropertyOp52
 70
     0
102
RTVSPropertyOp53
 70
     1
102
RTVSPropertyOp54
 70
     1
102
RTVSPropertyOp55
 70
     1
102
RTVSPropertyOp56
 70
     1
102
RTVSPropertyOp57
 70
     1
102
RTVSPropertyOp58
 70
     1
102
RTVSPropertyOp59
 70
     1
102
RTVSPropertyOp60
 70
     1
102
RTVSPropertyOp61
 70
     1
102
RTVSPropertyOp62
 70
     1
  0
XRECORD
  5
C890
102
{ACAD_REACTORS
330
C88F
102
}
330
C88F
100
AcDbXrecord
280
     1
102
RTVSPost2010Prop28
280
     0
102
RTVSPost2010PropOp28
 70
     1
102
RTVSPost2010Prop29
280
     1
102
RTVSPost2010PropOp29
 70
     1
102
RTVSPost2010Prop30
280
     1
102
RTVSPost2010PropOp30
 70
     1
102
RTVSPost2010Prop31
280
     0
102
RTVSPost2010PropOp31
 70
     1
102
RTVSPost2010Prop32
280
     0
102
RTVSPost2010PropOp32
 70
     1
102
RTVSPost2010Prop33
280
     0
102
RTVSPost2010PropOp33
 70
     1
102
RTVSPost2010Prop34
280
     0
102
RTVSPost2010PropOp34
 70
     1
102
RTVSPost2010Prop35
280
     0
102
RTVSPost2010PropOp35
 70
     1
102
RTVSPost2010Prop36
280
     0
102
RTVSPost2010PropOp36
 70
     1
102
RTVSPost2010Prop37
 90
       50
102
RTVSPost2010PropOp37
 70
     1
102
RTVSPost2010Prop38
140
0.0
102
RTVSPost2010PropOp38
 70
     1
102
RTVSPost2010Prop39
140
1.0
102
RTVSPost2010PropOp39
 70
     1
102
RTVSPost2010Prop40
 90
        0
102
RTVSPost2010PropOp40
 70
     1
102
RTVSPost2010Prop41ColorIndex
 90
       18
102
RTVSPost2010Prop41ColorRGB
 90
        0
102
RTVSPost2010PropOp41
 70
     1
102
RTVSPost2010Prop42
 90
       50
102
RTVSPost2010PropOp42
 70
     1
102
RTVSPost2010Prop43
 90
        3
102
RTVSPost2010PropOp43
 70
     1
102
RTVSPost2010Prop44ColorIndex
 90
        5
102
RTVSPost2010Prop44ColorRGB
 90
      255
102
RTVSPost2010PropOp44
 70
     1
102
RTVSPost2010Prop45
280
     0
102
RTVSPost2010PropOp45
 70
     1
102
RTVSPost2010Prop46
 90
       50
102
RTVSPost2010PropOp46
 70
     1
102
RTVSPost2010Prop47
 90
       50
102
RTVSPost2010PropOp47
 70
     1
102
RTVSPost2010Prop48
 90
       50
102
RTVSPost2010PropOp48
 70
     1
102
RTVSPost2010Prop49
280
     0
102
RTVSPost2010PropOp49
 70
     1
102
RTVSPost2010Prop50
 90
       50
102
RTVSPost2010PropOp50
 70
     1
102
RTVSPost2010Prop51ColorIndex
 90
      256
102
RTVSPost2010Prop51ColorRGB
 90
-16777216
102
RTVSPost2010PropOp51
 70
     0
102
RTVSPost2010Prop52
140
1.0
102
RTVSPost2010PropOp52
 70
     0
102
RTVSPost2010Prop53
 90
        2
102
RTVSPost2010PropOp53
 70
     1
102
RTVSPost2010Prop54
  1
strokes_ogs.tif
102
RTVSPost2010PropOp54
 70
     1
102
RTVSPost2010Prop55
280
     0
102
RTVSPost2010PropOp55
 70
     1
102
RTVSPost2010Prop56
140
1.0
102
RTVSPost2010PropOp56
 70
     1
102
RTVSPost2010Prop57
140
1.0
102
RTVSPost2010PropOp57
 70
     1
102
RTVSPropertyOp0
 70
     1
102
RTVSPropertyOp1
 70
     1
102
RTVSPropertyOp2
 70
     1
102
RTVSPropertyOp3
 70
     1
102
RTVSPropertyOp4
 70
     1
102
RTVSPropertyOp5
 70
     1
102
RTVSPropertyOp6
 70
     1
102
RTVSPropertyOp7
 70
     1
102
RTVSPropertyOp8
 70
     1
102
RTVSPropertyOp9
 70
     1
102
RTVSPropertyOp10
 70
     1
102
RTVSPropertyOp11
 70
     1
102
RTVSPropertyOp12
 70
     1
102
RTVSPropertyOp13
 70
     1
102
RTVSPropertyOp14
 70
     1
102
RTVSPropertyOp15
 70
     1
102
RTVSPropertyOp16
 70
     1
102
RTVSPropertyOp17
 70
     1
102
RTVSPropertyOp18
 70
     1
102
RTVSPropertyOp19
 70
     1
102
RTVSPropertyOp20
 70
     1
102
RTVSPropertyOp21
 70
     1
102
RTVSPropertyOp22
 70
     1
102
RTVSPropertyOp23
 70
     1
102
RTVSPropertyOp24
 70
     1
102
RTVSPropertyOp25
 70
     1
102
RTVSPropertyOp26
 70
     1
102
RTVSPropertyOp27
 70
     1
102
RTVSPropertyOp28
 70
     1
102
RTVSPropertyOp29
 70
     1
102
RTVSPropertyOp30
 70
     1
102
RTVSPropertyOp31
 70
     1
102
RTVSPropertyOp32
 70
     1
102
RTVSPropertyOp33
 70
     1
102
RTVSPropertyOp34
 70
     1
102
RTVSPropertyOp35
 70
     1
102
RTVSPropertyOp36
 70
     1
102
RTVSPropertyOp37
 70
     1
102
RTVSPropertyOp38
 70
     1
102
RTVSPropertyOp39
 70
     1
102
RTVSPropertyOp40
 70
     1
102
RTVSPropertyOp41
 70
     1
102
RTVSPropertyOp42
 70
     1
102
RTVSPropertyOp43
 70
     1
102
RTVSPropertyOp44
 70
     1
102
RTVSPropertyOp45
 70
     1
102
RTVSPropertyOp46
 70
     1
102
RTVSPropertyOp47
 70
     1
102
RTVSPropertyOp48
 70
     1
102
RTVSPropertyOp49
 70
     1
102
RTVSPropertyOp50
 70
     1
102
RTVSPropertyOp51
 70
     0
102
RTVSPropertyOp52
 70
     0
102
RTVSPropertyOp53
 70
     1
102
RTVSPropertyOp54
 70
     1
102
RTVSPropertyOp55
 70
     1
102
RTVSPropertyOp56
 70
     1
102
RTVSPropertyOp57
 70
     1
102
RTVSPropertyOp58
 70
     1
102
RTVSPropertyOp59
 70
     1
102
RTVSPropertyOp60
 70
     1
102
RTVSPropertyOp61
 70
     1
102
RTVSPropertyOp62
 70
     1
  0
XRECORD
  5
C892
102
{ACAD_REACTORS
330
C891
102
}
330
C891
100
AcDbXrecord
280
     1
102
RTVSPost2010Prop28
280
     0
102
RTVSPost2010PropOp28
 70
     1
102
RTVSPost2010Prop29
280
     1
102
RTVSPost2010PropOp29
 70
     1
102
RTVSPost2010Prop30
280
     1
102
RTVSPost2010PropOp30
 70
     1
102
RTVSPost2010Prop31
280
     0
102
RTVSPost2010PropOp31
 70
     1
102
RTVSPost2010Prop32
280
     0
102
RTVSPost2010PropOp32
 70
     1
102
RTVSPost2010Prop33
280
     0
102
RTVSPost2010PropOp33
 70
     1
102
RTVSPost2010Prop34
280
     0
102
RTVSPost2010PropOp34
 70
     1
102
RTVSPost2010Prop35
280
     0
102
RTVSPost2010PropOp35
 70
     1
102
RTVSPost2010Prop36
280
     0
102
RTVSPost2010PropOp36
 70
     1
102
RTVSPost2010Prop37
 90
       50
102
RTVSPost2010PropOp37
 70
     1
102
RTVSPost2010Prop38
140
0.0
102
RTVSPost2010PropOp38
 70
     1
102
RTVSPost2010Prop39
140
1.0
102
RTVSPost2010PropOp39
 70
     1
102
RTVSPost2010Prop40
 90
        0
102
RTVSPost2010PropOp40
 70
     1
102
RTVSPost2010Prop41ColorIndex
 90
       18
102
RTVSPost2010Prop41ColorRGB
 90
        0
102
RTVSPost2010PropOp41
 70
     1
102
RTVSPost2010Prop42
 90
       50
102
RTVSPost2010PropOp42
 70
     1
102
RTVSPost2010Prop43
 90
        3
102
RTVSPost2010PropOp43
 70
     1
102
RTVSPost2010Prop44ColorIndex
 90
        5
102
RTVSPost2010Prop44ColorRGB
 90
      255
102
RTVSPost2010PropOp44
 70
     1
102
RTVSPost2010Prop45
280
     0
102
RTVSPost2010PropOp45
 70
     1
102
RTVSPost2010Prop46
 90
       50
102
RTVSPost2010PropOp46
 70
     1
102
RTVSPost2010Prop47
 90
       50
102
RTVSPost2010PropOp47
 70
     1
102
RTVSPost2010Prop48
 90
       50
102
RTVSPost2010PropOp48
 70
     1
102
RTVSPost2010Prop49
280
     0
102
RTVSPost2010PropOp49
 70
     1
102
RTVSPost2010Prop50
 90
       50
102
RTVSPost2010PropOp50
 70
     1
102
RTVSPost2010Prop51ColorIndex
 90
      256
102
RTVSPost2010Prop51ColorRGB
 90
-16777216
102
RTVSPost2010PropOp51
 70
     0
102
RTVSPost2010Prop52
140
1.0
102
RTVSPost2010PropOp52
 70
     0
102
RTVSPost2010Prop53
 90
        2
102
RTVSPost2010PropOp53
 70
     1
102
RTVSPost2010Prop54
  1
strokes_ogs.tif
102
RTVSPost2010PropOp54
 70
     1
102
RTVSPost2010Prop55
280
     0
102
RTVSPost2010PropOp55
 70
     1
102
RTVSPost2010Prop56
140
1.0
102
RTVSPost2010PropOp56
 70
     1
102
RTVSPost2010Prop57
140
1.0
102
RTVSPost2010PropOp57
 70
     1
102
RTVSPropertyOp0
 70
     1
102
RTVSPropertyOp1
 70
     1
102
RTVSPropertyOp2
 70
     1
102
RTVSPropertyOp3
 70
     1
102
RTVSPropertyOp4
 70
     1
102
RTVSPropertyOp5
 70
     1
102
RTVSPropertyOp6
 70
     1
102
RTVSPropertyOp7
 70
     1
102
RTVSPropertyOp8
 70
     1
102
RTVSPropertyOp9
 70
     1
102
RTVSPropertyOp10
 70
     1
102
RTVSPropertyOp11
 70
     1
102
RTVSPropertyOp12
 70
     1
102
RTVSPropertyOp13
 70
     1
102
RTVSPropertyOp14
 70
     1
102
RTVSPropertyOp15
 70
     1
102
RTVSPropertyOp16
 70
     1
102
RTVSPropertyOp17
 70
     1
102
RTVSPropertyOp18
 70
     1
102
RTVSPropertyOp19
 70
     1
102
RTVSPropertyOp20
 70
     1
102
RTVSPropertyOp21
 70
     1
102
RTVSPropertyOp22
 70
     1
102
RTVSPropertyOp23
 70
     1
102
RTVSPropertyOp24
 70
     1
102
RTVSPropertyOp25
 70
     1
102
RTVSPropertyOp26
 70
     1
102
RTVSPropertyOp27
 70
     1
102
RTVSPropertyOp28
 70
     1
102
RTVSPropertyOp29
 70
     1
102
RTVSPropertyOp30
 70
     1
102
RTVSPropertyOp31
 70
     1
102
RTVSPropertyOp32
 70
     1
102
RTVSPropertyOp33
 70
     1
102
RTVSPropertyOp34
 70
     1
102
RTVSPropertyOp35
 70
     1
102
RTVSPropertyOp36
 70
     1
102
RTVSPropertyOp37
 70
     1
102
RTVSPropertyOp38
 70
     1
102
RTVSPropertyOp39
 70
     1
102
RTVSPropertyOp40
 70
     1
102
RTVSPropertyOp41
 70
     1
102
RTVSPropertyOp42
 70
     1
102
RTVSPropertyOp43
 70
     1
102
RTVSPropertyOp44
 70
     1
102
RTVSPropertyOp45
 70
     1
102
RTVSPropertyOp46
 70
     1
102
RTVSPropertyOp47
 70
     1
102
RTVSPropertyOp48
 70
     1
102
RTVSPropertyOp49
 70
     1
102
RTVSPropertyOp50
 70
     1
102
RTVSPropertyOp51
 70
     0
102
RTVSPropertyOp52
 70
     0
102
RTVSPropertyOp53
 70
     1
102
RTVSPropertyOp54
 70
     1
102
RTVSPropertyOp55
 70
     1
102
RTVSPropertyOp56
 70
     1
102
RTVSPropertyOp57
 70
     1
102
RTVSPropertyOp58
 70
     1
102
RTVSPropertyOp59
 70
     1
102
RTVSPropertyOp60
 70
     1
102
RTVSPropertyOp61
 70
     1
102
RTVSPropertyOp62
 70
     1
  0
XRECORD
  5
C888
102
{ACAD_REACTORS
330
C887
102
}
330
C887
100
AcDbXrecord
280
     1
102
RTVSPost2010Prop28
280
     0
102
RTVSPost2010PropOp28
 70
     1
102
RTVSPost2010Prop29
280
     1
102
RTVSPost2010PropOp29
 70
     1
102
RTVSPost2010Prop30
280
     1
102
RTVSPost2010PropOp30
 70
     1
102
RTVSPost2010Prop31
280
     0
102
RTVSPost2010PropOp31
 70
     1
102
RTVSPost2010Prop32
280
     0
102
RTVSPost2010PropOp32
 70
     1
102
RTVSPost2010Prop33
280
     0
102
RTVSPost2010PropOp33
 70
     1
102
RTVSPost2010Prop34
280
     0
102
RTVSPost2010PropOp34
 70
     1
102
RTVSPost2010Prop35
280
     0
102
RTVSPost2010PropOp35
 70
     1
102
RTVSPost2010Prop36
280
     0
102
RTVSPost2010PropOp36
 70
     1
102
RTVSPost2010Prop37
 90
       50
102
RTVSPost2010PropOp37
 70
     1
102
RTVSPost2010Prop38
140
0.0
102
RTVSPost2010PropOp38
 70
     1
102
RTVSPost2010Prop39
140
1.0
102
RTVSPost2010PropOp39
 70
     1
102
RTVSPost2010Prop40
 90
        0
102
RTVSPost2010PropOp40
 70
     1
102
RTVSPost2010Prop41ColorIndex
 90
       18
102
RTVSPost2010Prop41ColorRGB
 90
        0
102
RTVSPost2010PropOp41
 70
     1
102
RTVSPost2010Prop42
 90
       50
102
RTVSPost2010PropOp42
 70
     1
102
RTVSPost2010Prop43
 90
        3
102
RTVSPost2010PropOp43
 70
     1
102
RTVSPost2010Prop44ColorIndex
 90
        5
102
RTVSPost2010Prop44ColorRGB
 90
      255
102
RTVSPost2010PropOp44
 70
     1
102
RTVSPost2010Prop45
280
     0
102
RTVSPost2010PropOp45
 70
     1
102
RTVSPost2010Prop46
 90
       50
102
RTVSPost2010PropOp46
 70
     1
102
RTVSPost2010Prop47
 90
       50
102
RTVSPost2010PropOp47
 70
     1
102
RTVSPost2010Prop48
 90
       50
102
RTVSPost2010PropOp48
 70
     1
102
RTVSPost2010Prop49
280
     0
102
RTVSPost2010PropOp49
 70
     1
102
RTVSPost2010Prop50
 90
       50
102
RTVSPost2010PropOp50
 70
     1
102
RTVSPost2010Prop51ColorIndex
 90
      256
102
RTVSPost2010Prop51ColorRGB
 90
-16777216
102
RTVSPost2010PropOp51
 70
     0
102
RTVSPost2010Prop52
140
1.0
102
RTVSPost2010PropOp52
 70
     0
102
RTVSPost2010Prop53
 90
        2
102
RTVSPost2010PropOp53
 70
     1
102
RTVSPost2010Prop54
  1
strokes_ogs.tif
102
RTVSPost2010PropOp54
 70
     1
102
RTVSPost2010Prop55
280
     0
102
RTVSPost2010PropOp55
 70
     1
102
RTVSPost2010Prop56
140
1.0
102
RTVSPost2010PropOp56
 70
     1
102
RTVSPost2010Prop57
140
1.0
102
RTVSPost2010PropOp57
 70
     1
102
RTVSPropertyOp0
 70
     1
102
RTVSPropertyOp1
 70
     1
102
RTVSPropertyOp2
 70
     1
102
RTVSPropertyOp3
 70
     1
102
RTVSPropertyOp4
 70
     1
102
RTVSPropertyOp5
 70
     1
102
RTVSPropertyOp6
 70
     1
102
RTVSPropertyOp7
 70
     1
102
RTVSPropertyOp8
 70
     1
102
RTVSPropertyOp9
 70
     1
102
RTVSPropertyOp10
 70
     1
102
RTVSPropertyOp11
 70
     1
102
RTVSPropertyOp12
 70
     1
102
RTVSPropertyOp13
 70
     1
102
RTVSPropertyOp14
 70
     1
102
RTVSPropertyOp15
 70
     1
102
RTVSPropertyOp16
 70
     1
102
RTVSPropertyOp17
 70
     1
102
RTVSPropertyOp18
 70
     1
102
RTVSPropertyOp19
 70
     1
102
RTVSPropertyOp20
 70
     1
102
RTVSPropertyOp21
 70
     1
102
RTVSPropertyOp22
 70
     1
102
RTVSPropertyOp23
 70
     1
102
RTVSPropertyOp24
 70
     1
102
RTVSPropertyOp25
 70
     1
102
RTVSPropertyOp26
 70
     1
102
RTVSPropertyOp27
 70
     1
102
RTVSPropertyOp28
 70
     1
102
RTVSPropertyOp29
 70
     1
102
RTVSPropertyOp30
 70
     1
102
RTVSPropertyOp31
 70
     1
102
RTVSPropertyOp32
 70
     1
102
RTVSPropertyOp33
 70
     1
102
RTVSPropertyOp34
 70
     1
102
RTVSPropertyOp35
 70
     1
102
RTVSPropertyOp36
 70
     1
102
RTVSPropertyOp37
 70
     1
102
RTVSPropertyOp38
 70
     1
102
RTVSPropertyOp39
 70
     1
102
RTVSPropertyOp40
 70
     1
102
RTVSPropertyOp41
 70
     1
102
RTVSPropertyOp42
 70
     1
102
RTVSPropertyOp43
 70
     1
102
RTVSPropertyOp44
 70
     1
102
RTVSPropertyOp45
 70
     1
102
RTVSPropertyOp46
 70
     1
102
RTVSPropertyOp47
 70
     1
102
RTVSPropertyOp48
 70
     1
102
RTVSPropertyOp49
 70
     1
102
RTVSPropertyOp50
 70
     1
102
RTVSPropertyOp51
 70
     0
102
RTVSPropertyOp52
 70
     0
102
RTVSPropertyOp53
 70
     1
102
RTVSPropertyOp54
 70
     1
102
RTVSPropertyOp55
 70
     1
102
RTVSPropertyOp56
 70
     1
102
RTVSPropertyOp57
 70
     1
102
RTVSPropertyOp58
 70
     1
102
RTVSPropertyOp59
 70
     1
102
RTVSPropertyOp60
 70
     1
102
RTVSPropertyOp61
 70
     1
102
RTVSPropertyOp62
 70
     1
  0
XRECORD
  5
C87C
102
{ACAD_REACTORS
330
C87B
102
}
330
C87B
100
AcDbXrecord
280
     1
102
RTVSPost2010Prop28
280
     0
102
RTVSPost2010PropOp28
 70
     1
102
RTVSPost2010Prop29
280
     1
102
RTVSPost2010PropOp29
 70
     1
102
RTVSPost2010Prop30
280
     1
102
RTVSPost2010PropOp30
 70
     1
102
RTVSPost2010Prop31
280
     0
102
RTVSPost2010PropOp31
 70
     1
102
RTVSPost2010Prop32
280
     0
102
RTVSPost2010PropOp32
 70
     1
102
RTVSPost2010Prop33
280
     0
102
RTVSPost2010PropOp33
 70
     1
102
RTVSPost2010Prop34
280
     0
102
RTVSPost2010PropOp34
 70
     1
102
RTVSPost2010Prop35
280
     0
102
RTVSPost2010PropOp35
 70
     1
102
RTVSPost2010Prop36
280
     0
102
RTVSPost2010PropOp36
 70
     1
102
RTVSPost2010Prop37
 90
       50
102
RTVSPost2010PropOp37
 70
     1
102
RTVSPost2010Prop38
140
0.0
102
RTVSPost2010PropOp38
 70
     1
102
RTVSPost2010Prop39
140
1.0
102
RTVSPost2010PropOp39
 70
     1
102
RTVSPost2010Prop40
 90
        0
102
RTVSPost2010PropOp40
 70
     1
102
RTVSPost2010Prop41ColorIndex
 90
       18
102
RTVSPost2010Prop41ColorRGB
 90
        0
102
RTVSPost2010PropOp41
 70
     1
102
RTVSPost2010Prop42
 90
       50
102
RTVSPost2010PropOp42
 70
     1
102
RTVSPost2010Prop43
 90
        3
102
RTVSPost2010PropOp43
 70
     1
102
RTVSPost2010Prop44ColorIndex
 90
        5
102
RTVSPost2010Prop44ColorRGB
 90
      255
102
RTVSPost2010PropOp44
 70
     1
102
RTVSPost2010Prop45
280
     0
102
RTVSPost2010PropOp45
 70
     1
102
RTVSPost2010Prop46
 90
       50
102
RTVSPost2010PropOp46
 70
     1
102
RTVSPost2010Prop47
 90
       50
102
RTVSPost2010PropOp47
 70
     1
102
RTVSPost2010Prop48
 90
       50
102
RTVSPost2010PropOp48
 70
     1
102
RTVSPost2010Prop49
280
     0
102
RTVSPost2010PropOp49
 70
     1
102
RTVSPost2010Prop50
 90
       50
102
RTVSPost2010PropOp50
 70
     1
102
RTVSPost2010Prop51ColorIndex
 90
      256
102
RTVSPost2010Prop51ColorRGB
 90
-16777216
102
RTVSPost2010PropOp51
 70
     0
102
RTVSPost2010Prop52
140
1.0
102
RTVSPost2010PropOp52
 70
     0
102
RTVSPost2010Prop53
 90
        2
102
RTVSPost2010PropOp53
 70
     1
102
RTVSPost2010Prop54
  1
strokes_ogs.tif
102
RTVSPost2010PropOp54
 70
     1
102
RTVSPost2010Prop55
280
     0
102
RTVSPost2010PropOp55
 70
     1
102
RTVSPost2010Prop56
140
1.0
102
RTVSPost2010PropOp56
 70
     1
102
RTVSPost2010Prop57
140
1.0
102
RTVSPost2010PropOp57
 70
     1
102
RTVSPropertyOp0
 70
     1
102
RTVSPropertyOp1
 70
     1
102
RTVSPropertyOp2
 70
     1
102
RTVSPropertyOp3
 70
     1
102
RTVSPropertyOp4
 70
     1
102
RTVSPropertyOp5
 70
     1
102
RTVSPropertyOp6
 70
     1
102
RTVSPropertyOp7
 70
     1
102
RTVSPropertyOp8
 70
     1
102
RTVSPropertyOp9
 70
     1
102
RTVSPropertyOp10
 70
     1
102
RTVSPropertyOp11
 70
     1
102
RTVSPropertyOp12
 70
     1
102
RTVSPropertyOp13
 70
     1
102
RTVSPropertyOp14
 70
     1
102
RTVSPropertyOp15
 70
     1
102
RTVSPropertyOp16
 70
     1
102
RTVSPropertyOp17
 70
     1
102
RTVSPropertyOp18
 70
     1
102
RTVSPropertyOp19
 70
     1
102
RTVSPropertyOp20
 70
     1
102
RTVSPropertyOp21
 70
     1
102
RTVSPropertyOp22
 70
     1
102
RTVSPropertyOp23
 70
     1
102
RTVSPropertyOp24
 70
     1
102
RTVSPropertyOp25
 70
     1
102
RTVSPropertyOp26
 70
     1
102
RTVSPropertyOp27
 70
     1
102
RTVSPropertyOp28
 70
     1
102
RTVSPropertyOp29
 70
     1
102
RTVSPropertyOp30
 70
     1
102
RTVSPropertyOp31
 70
     1
102
RTVSPropertyOp32
 70
     1
102
RTVSPropertyOp33
 70
     1
102
RTVSPropertyOp34
 70
     1
102
RTVSPropertyOp35
 70
     1
102
RTVSPropertyOp36
 70
     1
102
RTVSPropertyOp37
 70
     1
102
RTVSPropertyOp38
 70
     1
102
RTVSPropertyOp39
 70
     1
102
RTVSPropertyOp40
 70
     1
102
RTVSPropertyOp41
 70
     1
102
RTVSPropertyOp42
 70
     1
102
RTVSPropertyOp43
 70
     1
102
RTVSPropertyOp44
 70
     1
102
RTVSPropertyOp45
 70
     1
102
RTVSPropertyOp46
 70
     1
102
RTVSPropertyOp47
 70
     1
102
RTVSPropertyOp48
 70
     1
102
RTVSPropertyOp49
 70
     1
102
RTVSPropertyOp50
 70
     1
102
RTVSPropertyOp51
 70
     0
102
RTVSPropertyOp52
 70
     0
102
RTVSPropertyOp53
 70
     1
102
RTVSPropertyOp54
 70
     1
102
RTVSPropertyOp55
 70
     1
102
RTVSPropertyOp56
 70
     1
102
RTVSPropertyOp57
 70
     1
102
RTVSPropertyOp58
 70
     1
102
RTVSPropertyOp59
 70
     1
102
RTVSPropertyOp60
 70
     1
102
RTVSPropertyOp61
 70
     1
102
RTVSPropertyOp62
 70
     1
  0
XRECORD
  5
C894
102
{ACAD_REACTORS
330
C893
102
}
330
C893
100
AcDbXrecord
280
     1
102
RTVSPost2010Prop28
280
     0
102
RTVSPost2010PropOp28
 70
     1
102
RTVSPost2010Prop29
280
     1
102
RTVSPost2010PropOp29
 70
     1
102
RTVSPost2010Prop30
280
     1
102
RTVSPost2010PropOp30
 70
     1
102
RTVSPost2010Prop31
280
     0
102
RTVSPost2010PropOp31
 70
     1
102
RTVSPost2010Prop32
280
     0
102
RTVSPost2010PropOp32
 70
     1
102
RTVSPost2010Prop33
280
     0
102
RTVSPost2010PropOp33
 70
     1
102
RTVSPost2010Prop34
280
     0
102
RTVSPost2010PropOp34
 70
     1
102
RTVSPost2010Prop35
280
     0
102
RTVSPost2010PropOp35
 70
     1
102
RTVSPost2010Prop36
280
     0
102
RTVSPost2010PropOp36
 70
     1
102
RTVSPost2010Prop37
 90
       50
102
RTVSPost2010PropOp37
 70
     1
102
RTVSPost2010Prop38
140
0.0
102
RTVSPost2010PropOp38
 70
     1
102
RTVSPost2010Prop39
140
1.0
102
RTVSPost2010PropOp39
 70
     1
102
RTVSPost2010Prop40
 90
        0
102
RTVSPost2010PropOp40
 70
     1
102
RTVSPost2010Prop41ColorIndex
 90
       18
102
RTVSPost2010Prop41ColorRGB
 90
        0
102
RTVSPost2010PropOp41
 70
     1
102
RTVSPost2010Prop42
 90
       50
102
RTVSPost2010PropOp42
 70
     1
102
RTVSPost2010Prop43
 90
        3
102
RTVSPost2010PropOp43
 70
     1
102
RTVSPost2010Prop44ColorIndex
 90
        5
102
RTVSPost2010Prop44ColorRGB
 90
      255
102
RTVSPost2010PropOp44
 70
     1
102
RTVSPost2010Prop45
280
     0
102
RTVSPost2010PropOp45
 70
     1
102
RTVSPost2010Prop46
 90
       50
102
RTVSPost2010PropOp46
 70
     1
102
RTVSPost2010Prop47
 90
       50
102
RTVSPost2010PropOp47
 70
     1
102
RTVSPost2010Prop48
 90
       50
102
RTVSPost2010PropOp48
 70
     1
102
RTVSPost2010Prop49
280
     0
102
RTVSPost2010PropOp49
 70
     1
102
RTVSPost2010Prop50
 90
       50
102
RTVSPost2010PropOp50
 70
     1
102
RTVSPost2010Prop51ColorIndex
 90
      256
102
RTVSPost2010Prop51ColorRGB
 90
-16777216
102
RTVSPost2010PropOp51
 70
     0
102
RTVSPost2010Prop52
140
1.0
102
RTVSPost2010PropOp52
 70
     0
102
RTVSPost2010Prop53
 90
        2
102
RTVSPost2010PropOp53
 70
     1
102
RTVSPost2010Prop54
  1
strokes_ogs.tif
102
RTVSPost2010PropOp54
 70
     1
102
RTVSPost2010Prop55
280
     0
102
RTVSPost2010PropOp55
 70
     1
102
RTVSPost2010Prop56
140
1.0
102
RTVSPost2010PropOp56
 70
     1
102
RTVSPost2010Prop57
140
1.0
102
RTVSPost2010PropOp57
 70
     1
102
RTVSPropertyOp0
 70
     1
102
RTVSPropertyOp1
 70
     1
102
RTVSPropertyOp2
 70
     1
102
RTVSPropertyOp3
 70
     1
102
RTVSPropertyOp4
 70
     1
102
RTVSPropertyOp5
 70
     1
102
RTVSPropertyOp6
 70
     1
102
RTVSPropertyOp7
 70
     1
102
RTVSPropertyOp8
 70
     1
102
RTVSPropertyOp9
 70
     1
102
RTVSPropertyOp10
 70
     1
102
RTVSPropertyOp11
 70
     1
102
RTVSPropertyOp12
 70
     1
102
RTVSPropertyOp13
 70
     1
102
RTVSPropertyOp14
 70
     1
102
RTVSPropertyOp15
 70
     1
102
RTVSPropertyOp16
 70
     1
102
RTVSPropertyOp17
 70
     1
102
RTVSPropertyOp18
 70
     1
102
RTVSPropertyOp19
 70
     1
102
RTVSPropertyOp20
 70
     1
102
RTVSPropertyOp21
 70
     1
102
RTVSPropertyOp22
 70
     1
102
RTVSPropertyOp23
 70
     1
102
RTVSPropertyOp24
 70
     1
102
RTVSPropertyOp25
 70
     1
102
RTVSPropertyOp26
 70
     1
102
RTVSPropertyOp27
 70
     1
102
RTVSPropertyOp28
 70
     1
102
RTVSPropertyOp29
 70
     1
102
RTVSPropertyOp30
 70
     1
102
RTVSPropertyOp31
 70
     1
102
RTVSPropertyOp32
 70
     1
102
RTVSPropertyOp33
 70
     1
102
RTVSPropertyOp34
 70
     1
102
RTVSPropertyOp35
 70
     1
102
RTVSPropertyOp36
 70
     1
102
RTVSPropertyOp37
 70
     1
102
RTVSPropertyOp38
 70
     1
102
RTVSPropertyOp39
 70
     1
102
RTVSPropertyOp40
 70
     1
102
RTVSPropertyOp41
 70
     1
102
RTVSPropertyOp42
 70
     1
102
RTVSPropertyOp43
 70
     1
102
RTVSPropertyOp44
 70
     1
102
RTVSPropertyOp45
 70
     1
102
RTVSPropertyOp46
 70
     1
102
RTVSPropertyOp47
 70
     1
102
RTVSPropertyOp48
 70
     1
102
RTVSPropertyOp49
 70
     1
102
RTVSPropertyOp50
 70
     1
102
RTVSPropertyOp51
 70
     0
102
RTVSPropertyOp52
 70
     0
102
RTVSPropertyOp53
 70
     1
102
RTVSPropertyOp54
 70
     1
102
RTVSPropertyOp55
 70
     1
102
RTVSPropertyOp56
 70
     1
102
RTVSPropertyOp57
 70
     1
102
RTVSPropertyOp58
 70
     1
102
RTVSPropertyOp59
 70
     1
102
RTVSPropertyOp60
 70
     1
102
RTVSPropertyOp61
 70
     1
102
RTVSPropertyOp62
 70
     1
  0
ENDSEC
  0
EOF
