  0
SECTION
  2
HEADER
  9
$ACADVER
  1
AC1018
  9
$ACADMAINTVER
 70
   104
  9
$DWGCODEPAGE
  3
ANSI_932
  9
$LASTSAVEDBY
  1
yano27
  9
$INSBASE
 10
0.0
 20
0.0
 30
0.0
  9
$EXTMIN
 10
0.0
 20
0.0
 30
0.0
  9
$EXTMAX
 10
4455.0
 20
3150.0
 30
0.0
  9
$LIMMIN
 10
0.0
 20
0.0
  9
$LIMMAX
 10
4455.0
 20
3150.0
  9
$ORTHOMODE
 70
     0
  9
$REGENMODE
 70
     1
  9
$FILLMODE
 70
     1
  9
$QTEXTMODE
 70
     0
  9
$MIRRTEXT
 70
     1
  9
$LTSCALE
 40
15.0
  9
$ATTMODE
 70
     1
  9
$TEXTSIZE
 40
0.2
  9
$TRACEWID
 40
0.05
  9
$TEXTSTYLE
  7
寸法ｽﾀｲﾙ
  9
$CLAYER
  8
0
  9
$CELTYPE
  6
ByLayer
  9
$CECOLOR
 62
   256
  9
$CELTSCALE
 40
4.0
  9
$DISPSILH
 70
     0
  9
$DIMSCALE
 40
15.0
  9
$DIMASZ
 40
2.0
  9
$DIMEXO
 40
1.0
  9
$DIMDLI
 40
6.0
  9
$DIMRND
 40
0.0
  9
$DIMDLE
 40
0.0
  9
$DIMEXE
 40
1.0
  9
$DIMTP
 40
0.0
  9
$DIMTM
 40
0.0
  9
$DIMTXT
 40
3.0
  9
$DIMCEN
 40
1.0
  9
$DIMTSZ
 40
0.0
  9
$DIMTOL
 70
     0
  9
$DIMLIM
 70
     0
  9
$DIMTIH
 70
     0
  9
$DIMTOH
 70
     0
  9
$DIMSE1
 70
     0
  9
$DIMSE2
 70
     0
  9
$DIMTAD
 70
     1
  9
$DIMZIN
 70
     8
  9
$DIMBLK
  1
Open
  9
$DIMASO
 70
     1
  9
$DIMSHO
 70
     1
  9
$DIMPOST
  1

  9
$DIMAPOST
  1

  9
$DIMALT
 70
     0
  9
$DIMALTD
 70
     2
  9
$DIMALTF
 40
25.4
  9
$DIMLFAC
 40
1.0
  9
$DIMTOFL
 70
     1
  9
$DIMTVP
 40
0.0
  9
$DIMTIX
 70
     1
  9
$DIMSOXD
 70
     0
  9
$DIMSAH
 70
     0
  9
$DIMBLK1
  1

  9
$DIMBLK2
  1

  9
$DIMSTYLE
  2
ｽﾀｲﾙ15
  9
$DIMCLRD
 70
     4
  9
$DIMCLRE
 70
     4
  9
$DIMCLRT
 70
     4
  9
$DIMTFAC
 40
1.0
  9
$DIMGAP
 40
0.5
  9
$DIMJUST
 70
     0
  9
$DIMSD1
 70
     0
  9
$DIMSD2
 70
     0
  9
$DIMTOLJ
 70
     1
  9
$DIMTZIN
 70
     0
  9
$DIMALTZ
 70
     0
  9
$DIMALTTZ
 70
     0
  9
$DIMUPT
 70
     0
  9
$DIMDEC
 70
     3
  9
$DIMTDEC
 70
     3
  9
$DIMALTU
 70
     2
  9
$DIMALTTD
 70
     2
  9
$DIMTXSTY
  7
寸法ｽﾀｲﾙ
  9
$DIMAUNIT
 70
     0
  9
$DIMADEC
 70
     0
  9
$DIMALTRND
 40
0.0
  9
$DIMAZIN
 70
     0
  9
$DIMDSEP
 70
    46
  9
$DIMATFIT
 70
     0
  9
$DIMFRAC
 70
     0
  9
$DIMLDRBLK
  1
Open
  9
$DIMLUNIT
 70
     2
  9
$DIMLWD
 70
    13
  9
$DIMLWE
 70
    13
  9
$DIMTMOVE
 70
     2
  9
$LUNITS
 70
     2
  9
$LUPREC
 70
     4
  9
$SKETCHINC
 40
0.1
  9
$FILLETRAD
 40
0.0
  9
$AUNITS
 70
     0
  9
$AUPREC
 70
     0
  9
$MENU
  1
.
  9
$ELEVATION
 40
0.0
  9
$PELEVATION
 40
0.0
  9
$THICKNESS
 40
0.0
  9
$LIMCHECK
 70
     0
  9
$CHAMFERA
 40
0.0
  9
$CHAMFERB
 40
0.0
  9
$CHAMFERC
 40
0.0
  9
$CHAMFERD
 40
0.0
  9
$SKPOLY
 70
     0
  9
$TDCREATE
 40
2456010.719629271
  9
$TDUCREATE
 40
2456010.344629271
  9
$TDUPDATE
 40
2457484.420249445
  9
$TDUUPDATE
 40
2457484.045249445
  9
$TDINDWG
 40
0.2210832176
  9
$TDUSRTIMER
 40
0.2210832176
  9
$USRTIMER
 70
     1
  9
$ANGBASE
 50
0.0
  9
$ANGDIR
 70
     0
  9
$PDMODE
 70
     0
  9
$PDSIZE
 40
0.0
  9
$PLINEWID
 40
0.0
  9
$SPLFRAME
 70
     0
  9
$SPLINETYPE
 70
     6
  9
$SPLINESEGS
 70
     8
  9
$HANDSEED
  5
2829
  9
$SURFTAB1
 70
     6
  9
$SURFTAB2
 70
     6
  9
$SURFTYPE
 70
     6
  9
$SURFU
 70
     6
  9
$SURFV
 70
     6
  9
$UCSBASE
  2

  9
$UCSNAME
  2

  9
$UCSORG
 10
0.0
 20
0.0
 30
0.0
  9
$UCSXDIR
 10
1.0
 20
0.0
 30
0.0
  9
$UCSYDIR
 10
0.0
 20
1.0
 30
0.0
  9
$UCSORTHOREF
  2

  9
$UCSORTHOVIEW
 70
     0
  9
$UCSORGTOP
 10
0.0
 20
0.0
 30
0.0
  9
$UCSORGBOTTOM
 10
0.0
 20
0.0
 30
0.0
  9
$UCSORGLEFT
 10
0.0
 20
0.0
 30
0.0
  9
$UCSORGRIGHT
 10
0.0
 20
0.0
 30
0.0
  9
$UCSORGFRONT
 10
0.0
 20
0.0
 30
0.0
  9
$UCSORGBACK
 10
0.0
 20
0.0
 30
0.0
  9
$PUCSBASE
  2

  9
$PUCSNAME
  2

  9
$PUCSORG
 10
0.0
 20
0.0
 30
0.0
  9
$PUCSXDIR
 10
1.0
 20
0.0
 30
0.0
  9
$PUCSYDIR
 10
0.0
 20
1.0
 30
0.0
  9
$PUCSORTHOREF
  2

  9
$PUCSORTHOVIEW
 70
     0
  9
$PUCSORGTOP
 10
0.0
 20
0.0
 30
0.0
  9
$PUCSORGBOTTOM
 10
0.0
 20
0.0
 30
0.0
  9
$PUCSORGLEFT
 10
0.0
 20
0.0
 30
0.0
  9
$PUCSORGRIGHT
 10
0.0
 20
0.0
 30
0.0
  9
$PUCSORGFRONT
 10
0.0
 20
0.0
 30
0.0
  9
$PUCSORGBACK
 10
0.0
 20
0.0
 30
0.0
  9
$USERI1
 70
     0
  9
$USERI2
 70
     0
  9
$USERI3
 70
     0
  9
$USERI4
 70
     0
  9
$USERI5
 70
     0
  9
$USERR1
 40
0.0
  9
$USERR2
 40
0.0
  9
$USERR3
 40
0.0
  9
$USERR4
 40
0.0
  9
$USERR5
 40
0.0
  9
$WORLDVIEW
 70
     1
  9
$SHADEDGE
 70
     3
  9
$SHADEDIF
 70
    70
  9
$TILEMODE
 70
     1
  9
$MAXACTVP
 70
    64
  9
$PINSBASE
 10
0.0
 20
0.0
 30
0.0
  9
$PLIMCHECK
 70
     0
  9
$PEXTMIN
 10
1.000000000000000E+20
 20
1.000000000000000E+20
 30
1.000000000000000E+20
  9
$PEXTMAX
 10
-1.000000000000000E+20
 20
-1.000000000000000E+20
 30
-1.000000000000000E+20
  9
$PLIMMIN
 10
0.0
 20
0.0
  9
$PLIMMAX
 10
12.0
 20
9.0
  9
$UNITMODE
 70
     0
  9
$VISRETAIN
 70
     1
  9
$PLINEGEN
 70
     0
  9
$PSLTSCALE
 70
     1
  9
$TREEDEPTH
 70
  3020
  9
$CMLSTYLE
  2
Standard
  9
$CMLJUST
 70
     0
  9
$CMLSCALE
 40
1.0
  9
$PROXYGRAPHICS
 70
     1
  9
$MEASUREMENT
 70
     0
  9
$CELWEIGHT
370
    -1
  9
$ENDCAPS
280
     0
  9
$JOINSTYLE
280
     0
  9
$LWDISPLAY
290
     0
  9
$INSUNITS
 70
     0
  9
$HYPERLINKBASE
  1

  9
$STYLESHEET
  1
monochrome.ctb
  9
$XEDIT
290
     1
  9
$CEPSNTYPE
380
     0
  9
$PSTYLEMODE
290
     1
  9
$FINGERPRINTGUID
  2
{772C2C04-C11B-4408-9673-0718C7A2951E}
  9
$VERSIONGUID
  2
{ECC18296-C96F-44F9-845B-FDC85FF9A1DD}
  9
$EXTNAMES
290
     1
  9
$PSVPSCALE
 40
0.0
  9
$OLESTARTUP
290
     0
  9
$SORTENTS
280
   127
  9
$INDEXCTL
280
     0
  9
$HIDETEXT
280
     0
  9
$XCLIPFRAME
290
     0
  9
$HALOGAP
280
     0
  9
$OBSCOLOR
 70
   257
  9
$OBSLTYPE
280
     0
  9
$INTERSECTIONDISPLAY
280
     0
  9
$INTERSECTIONCOLOR
 70
   257
  9
$DIMASSOC
280
     1
  9
$PROJECTNAME
  1

  0
ENDSEC
  0
SECTION
  2
CLASSES
  0
CLASS
  1
ACDBDICTIONARYWDFLT
  2
AcDbDictionaryWithDefault
  3
ObjectDBX Classes
 90
        0
 91
        1
280
     0
281
     0
  0
CLASS
  1
DICTIONARYVAR
  2
AcDbDictionaryVar
  3
ObjectDBX Classes
 90
        0
 91
        7
280
     0
281
     0
  0
CLASS
  1
MATERIAL
  2
AcDbMaterial
  3
ObjectDBX Classes
 90
     1153
 91
        3
280
     0
281
     0
  0
CLASS
  1
VISUALSTYLE
  2
AcDbVisualStyle
  3
ObjectDBX Classes
 90
     4095
 91
       24
280
     0
281
     0
  0
CLASS
  1
TABLESTYLE
  2
AcDbTableStyle
  3
ObjectDBX Classes
 90
     4095
 91
        1
280
     0
281
     0
  0
CLASS
  1
SCALE
  2
AcDbScale
  3
ObjectDBX Classes
 90
     1153
 91
       17
280
     0
281
     0
  0
CLASS
  1
MLEADERSTYLE
  2
AcDbMLeaderStyle
  3
ACDB_MLEADERSTYLE_CLASS
 90
     4095
 91
        1
280
     0
281
     0
  0
CLASS
  1
ACDBSECTIONVIEWSTYLE
  2
AcDbSectionViewStyle
  3
ObjectDBX Classes
 90
     1025
 91
        1
280
     0
281
     0
  0
CLASS
  1
ACDBDETAILVIEWSTYLE
  2
AcDbDetailViewStyle
  3
ObjectDBX Classes
 90
     1025
 91
        1
280
     0
281
     0
  0
CLASS
  1
CELLSTYLEMAP
  2
AcDbCellStyleMap
  3
ObjectDBX Classes
 90
     1152
 91
        1
280
     0
281
     0
  0
ENDSEC
  0
SECTION
  2
TABLES
  0
TABLE
  2
VPORT
  5
8
330
0
100
AcDbSymbolTable
 70
     1
  0
VPORT
  5
2773
330
8
100
AcDbSymbolTableRecord
100
AcDbViewportTableRecord
  2
*Active
 70
     0
 10
0.0
 20
0.0
 11
1.0
 21
1.0
 12
2371.183307238328
 22
1575.000022003839
 13
0.0
 23
0.0
 14
1.0
 24
1.0
 15
0.0
 25
0.0
 16
0.0
 26
0.0
 36
1.0
 17
0.0
 27
0.0
 37
0.0
 40
3174.835081562328
 41
1.606896551724138
 42
50.0
 43
0.0
 44
0.0
 50
0.0
 51
0.0
 71
     0
 72
   100
 73
     1
 74
     1
 75
     0
 76
     0
 77
     0
 78
     0
281
     0
 65
     1
110
0.0
120
0.0
130
0.0
111
1.0
121
0.0
131
0.0
112
0.0
122
1.0
132
0.0
 79
     0
146
0.0
1001
ACAD_NAV_VCDISPLAY
1070
     3
  0
ENDTAB
  0
TABLE
  2
LTYPE
  5
5
330
0
100
AcDbSymbolTable
 70
    36
  0
LTYPE
  5
13
330
5
100
AcDbSymbolTableRecord
100
AcDbLinetypeTableRecord
  2
ByBlock
 70
     0
  3

 72
    65
 73
     0
 40
0.0
  0
LTYPE
  5
14
330
5
100
AcDbSymbolTableRecord
100
AcDbLinetypeTableRecord
  2
ByLayer
 70
     0
  3

 72
    65
 73
     0
 40
0.0
  0
LTYPE
  5
15
330
5
100
AcDbSymbolTableRecord
100
AcDbLinetypeTableRecord
  2
CONTINUOUS
 70
     0
  3
実線
 72
    65
 73
     0
 40
0.0
  0
LTYPE
  5
22
330
5
100
AcDbSymbolTableRecord
100
AcDbLinetypeTableRecord
  2
DASHED1
 70
     0
  3
--  --  --  --  --  --  --  --  
 72
    65
 73
     2
 40
2.5
 49
1.25
 74
     0
 49
-1.25
 74
     0
  0
LTYPE
  5
23
330
5
100
AcDbSymbolTableRecord
100
AcDbLinetypeTableRecord
  2
DASHED2
 70
     0
  3
----    ----    ----    ----    
 72
    65
 73
     2
 40
5.0
 49
2.5
 74
     0
 49
-2.5
 74
     0
  0
LTYPE
  5
24
330
5
100
AcDbSymbolTableRecord
100
AcDbLinetypeTableRecord
  2
DASHED3
 70
     0
  3
------  ------  ------  ------  
 72
    65
 73
     2
 40
5.0
 49
3.75
 74
     0
 49
-1.25
 74
     0
  0
LTYPE
  5
25
330
5
100
AcDbSymbolTableRecord
100
AcDbLinetypeTableRecord
  2
CENTER1
 70
     0
  3
----- - ----- - ----- - ----- - 
 72
    65
 73
     4
 40
10.0
 49
6.25
 74
     0
 49
-1.25
 74
     0
 49
1.25
 74
     0
 49
-1.25
 74
     0
  0
LTYPE
  5
26
330
5
100
AcDbSymbolTableRecord
100
AcDbLinetypeTableRecord
  2
CENTER2
 70
     0
  3
----------  --  ----------  --  
 72
    65
 73
     4
 40
20.0
 49
12.5
 74
     0
 49
-2.5
 74
     0
 49
2.5
 74
     0
 49
-2.5
 74
     0
  0
LTYPE
  5
27
330
5
100
AcDbSymbolTableRecord
100
AcDbLinetypeTableRecord
  2
PHANTOM1
 70
     0
  3
--- - - --- - - --- - - --- - - 
 72
    65
 73
     6
 40
10.0
 49
3.25
 74
     0
 49
-1.25
 74
     0
 49
1.25
 74
     0
 49
-1.25
 74
     0
 49
1.25
 74
     0
 49
-1.25
 74
     0
  0
LTYPE
  5
28
330
5
100
AcDbSymbolTableRecord
100
AcDbLinetypeTableRecord
  2
PHANTOM2
 70
     0
  3
--------  -  -  --------  -  -  
 72
    65
 73
     6
 40
20.0
 49
10.0
 74
     0
 49
-2.5
 74
     0
 49
1.25
 74
     0
 49
-2.5
 74
     0
 49
1.25
 74
     0
 49
-2.5
 74
     0
  0
LTYPE
  5
29
330
5
100
AcDbSymbolTableRecord
100
AcDbLinetypeTableRecord
  2
DOT
 70
     0
  3
-   -   -   -   -   -   -   -   
 72
    65
 73
     2
 40
2.5
 49
0.625
 74
     0
 49
-1.875
 74
     0
  0
LTYPE
  5
2A
330
5
100
AcDbSymbolTableRecord
100
AcDbLinetypeTableRecord
  2
DUMMY
 70
     0
  3
ダミー
 72
    65
 73
     0
 40
0.0
  0
LTYPE
  5
2B
330
5
100
AcDbSymbolTableRecord
100
AcDbLinetypeTableRecord
  2
RAND1
 70
     0
  3
ランダム線1
 72
    65
 73
     4
 40
10.0
 49
1.0
 74
     0
 49
-2.0
 74
     0
 49
3.0
 74
     0
 49
-4.0
 74
     0
  0
LTYPE
  5
2C
330
5
100
AcDbSymbolTableRecord
100
AcDbLinetypeTableRecord
  2
RAND2
 70
     0
  3
ランダム線2
 72
    65
 73
     4
 40
14.0
 49
2.0
 74
     0
 49
-3.0
 74
     0
 49
4.0
 74
     0
 49
-5.0
 74
     0
  0
LTYPE
  5
2D
330
5
100
AcDbSymbolTableRecord
100
AcDbLinetypeTableRecord
  2
RAND3
 70
     0
  3
ランダム線3
 72
    65
 73
     4
 40
18.0
 49
3.0
 74
     0
 49
-4.0
 74
     0
 49
5.0
 74
     0
 49
-6.0
 74
     0
  0
LTYPE
  5
2E
330
5
100
AcDbSymbolTableRecord
100
AcDbLinetypeTableRecord
  2
RAND4
 70
     0
  3
ランダム線4
 72
    65
 73
     4
 40
22.0
 49
4.0
 74
     0
 49
-5.0
 74
     0
 49
6.0
 74
     0
 49
-7.0
 74
     0
  0
LTYPE
  5
2F
330
5
100
AcDbSymbolTableRecord
100
AcDbLinetypeTableRecord
  2
RAND5
 70
     0
  3
ランダム線5
 72
    65
 73
     4
 40
26.0
 49
5.0
 74
     0
 49
-6.0
 74
     0
 49
7.0
 74
     0
 49
-8.0
 74
     0
  0
LTYPE
  5
30
330
5
100
AcDbSymbolTableRecord
100
AcDbLinetypeTableRecord
  2
LONG1
 70
     0
  3
----------  --  ----------  --  
 72
    65
 73
     4
 40
40.0
 49
32.5
 74
     0
 49
-2.5
 74
     0
 49
2.5
 74
     0
 49
-2.5
 74
     0
  0
LTYPE
  5
31
330
5
100
AcDbSymbolTableRecord
100
AcDbLinetypeTableRecord
  2
LONG2
 70
     0
  3
--------  -  -  --------  -  -  
 72
    65
 73
     6
 40
40.0
 49
30.0
 74
     0
 49
-2.5
 74
     0
 49
1.25
 74
     0
 49
-2.5
 74
     0
 49
1.25
 74
     0
 49
-2.5
 74
     0
  0
LTYPE
  5
32
330
5
100
AcDbSymbolTableRecord
100
AcDbLinetypeTableRecord
  2
LONG3
 70
     0
  3
+++++++++++++++..+++++++++++++++
 72
    65
 73
     2
 40
40.0
 49
37.5
 74
     0
 49
-2.5
 74
     0
  0
LTYPE
  5
33
330
5
100
AcDbSymbolTableRecord
100
AcDbLinetypeTableRecord
  2
LONG4
 70
     0
  3
+++++++++++++++..+++++++++++++++
 72
    65
 73
     2
 40
80.0
 49
75.0
 74
     0
 49
-5.0
 74
     0
  0
LTYPE
  5
34
330
5
100
AcDbSymbolTableRecord
100
AcDbLinetypeTableRecord
  2
LONG5
 70
     0
  3
----------  --  ----------  --  
 72
    65
 73
     4
 40
60.0
 49
37.5
 74
     0
 49
-7.5
 74
     0
 49
7.5
 74
     0
 49
-7.5
 74
     0
  0
LTYPE
  5
35
330
5
100
AcDbSymbolTableRecord
100
AcDbLinetypeTableRecord
  2
DASHED
 70
     0
  3
-------   -------------   ------
 72
    65
 73
     2
 40
7.5
 49
6.0
 74
     0
 49
-1.5
 74
     0
  0
LTYPE
  5
36
330
5
100
AcDbSymbolTableRecord
100
AcDbLinetypeTableRecord
  2
DASHED_SPACED
 70
     0
  3
----        --------        ----
 72
    65
 73
     2
 40
12.0
 49
6.0
 74
     0
 49
-6.0
 74
     0
  0
LTYPE
  5
37
330
5
100
AcDbSymbolTableRecord
100
AcDbLinetypeTableRecord
  2
LONG_DASHED_DOTTED
 70
     0
  3
------------- --- --------------
 72
    65
 73
     4
 40
15.25
 49
12.0
 74
     0
 49
-1.5
 74
     0
 49
0.25
 74
     0
 49
-1.5
 74
     0
  0
LTYPE
  5
38
330
5
100
AcDbSymbolTableRecord
100
AcDbLinetypeTableRecord
  2
LONG_DASHED_DOUBLE-DOTTED
 70
     0
  3
----------- --- --- ------------
 72
    65
 73
     6
 40
17.0
 49
12.0
 74
     0
 49
-1.5
 74
     0
 49
0.25
 74
     0
 49
-1.5
 74
     0
 49
0.25
 74
     0
 49
-1.5
 74
     0
  0
LTYPE
  5
39
330
5
100
AcDbSymbolTableRecord
100
AcDbLinetypeTableRecord
  2
LONG_DASHED_TRIPLICATE-DOTTED
 70
     0
  3
--------- --- --- --- ----------
 72
    65
 73
     8
 40
18.75
 49
12.0
 74
     0
 49
-1.5
 74
     0
 49
0.25
 74
     0
 49
-1.5
 74
     0
 49
0.25
 74
     0
 49
-1.5
 74
     0
 49
0.25
 74
     0
 49
-1.5
 74
     0
  0
LTYPE
  5
3A
330
5
100
AcDbSymbolTableRecord
100
AcDbLinetypeTableRecord
  2
DOTTED
 70
     0
  3
   -       -       -       -    
 72
    65
 73
     2
 40
1.75
 49
0.25
 74
     0
 49
-1.5
 74
     0
  0
LTYPE
  5
3B
330
5
100
AcDbSymbolTableRecord
100
AcDbLinetypeTableRecord
  2
CHAIN
 70
     0
  3
-------------- -- --------------
 72
    65
 73
     4
 40
18.5
 49
12.0
 74
     0
 49
-1.5
 74
     0
 49
3.5
 74
     0
 49
-1.5
 74
     0
  0
LTYPE
  5
3C
330
5
100
AcDbSymbolTableRecord
100
AcDbLinetypeTableRecord
  2
CHAIN_DOUBLE_DASH
 70
     0
  3
------------ -- -- -------------
 72
    65
 73
     6
 40
23.5
 49
12.0
 74
     0
 49
-1.5
 74
     0
 49
3.5
 74
     0
 49
-1.5
 74
     0
 49
3.5
 74
     0
 49
-1.5
 74
     0
  0
LTYPE
  5
3D
330
5
100
AcDbSymbolTableRecord
100
AcDbLinetypeTableRecord
  2
DASHED_DOTTED
 70
     0
  3
-----------     -     ----------
 72
    65
 73
     4
 40
9.25
 49
6.0
 74
     0
 49
-1.5
 74
     0
 49
0.25
 74
     0
 49
-1.5
 74
     0
  0
LTYPE
  5
3E
330
5
100
AcDbSymbolTableRecord
100
AcDbLinetypeTableRecord
  2
DOUBLE-DASHED_DOTTED
 70
     0
  3
------   -----------   -   -----
 72
    65
 73
     6
 40
16.75
 49
6.0
 74
     0
 49
-1.5
 74
     0
 49
6.0
 74
     0
 49
-1.5
 74
     0
 49
0.25
 74
     0
 49
-1.5
 74
     0
  0
LTYPE
  5
3F
330
5
100
AcDbSymbolTableRecord
100
AcDbLinetypeTableRecord
  2
DASHED_DOUBLE-DOTTED
 70
     0
  3
---------    -    -    ---------
 72
    65
 73
     6
 40
11.0
 49
6.0
 74
     0
 49
-1.5
 74
     0
 49
0.25
 74
     0
 49
-1.5
 74
     0
 49
0.25
 74
     0
 49
-1.5
 74
     0
  0
LTYPE
  5
40
330
5
100
AcDbSymbolTableRecord
100
AcDbLinetypeTableRecord
  2
DOUBLE-DASHED_DOUBLE-DOTTED
 70
     0
  3
-----   ---------   -   -   ----
 72
    65
 73
     8
 40
18.5
 49
6.0
 74
     0
 49
-1.5
 74
     0
 49
6.0
 74
     0
 49
-1.5
 74
     0
 49
0.25
 74
     0
 49
-1.5
 74
     0
 49
0.25
 74
     0
 49
-1.5
 74
     0
  0
LTYPE
  5
41
330
5
100
AcDbSymbolTableRecord
100
AcDbLinetypeTableRecord
  2
DASHED_TRIPLICATE-DOTTED
 70
     0
  3
-------    -    -    -    ------
 72
    65
 73
     8
 40
12.75
 49
6.0
 74
     0
 49
-1.5
 74
     0
 49
0.25
 74
     0
 49
-1.5
 74
     0
 49
0.25
 74
     0
 49
-1.5
 74
     0
 49
0.25
 74
     0
 49
-1.5
 74
     0
  0
LTYPE
  5
42
330
5
100
AcDbSymbolTableRecord
100
AcDbLinetypeTableRecord
  2
DOUBLE-DASHED_TRIPLICATE-DOTTED
 70
     0
  3
-----  ---------  -  -  -  -----
 72
    65
 73
    10
 40
20.25
 49
6.0
 74
     0
 49
-1.5
 74
     0
 49
6.0
 74
     0
 49
-1.5
 74
     0
 49
0.25
 74
     0
 49
-1.5
 74
     0
 49
0.25
 74
     0
 49
-1.5
 74
     0
 49
0.25
 74
     0
 49
-1.5
 74
     0
  0
LTYPE
  5
43
330
5
100
AcDbSymbolTableRecord
100
AcDbLinetypeTableRecord
  2
UNDEFINED
 70
     0
  3
--------------------------------
 72
    65
 73
     0
 40
0.0
  0
LTYPE
  5
4AF
330
5
100
AcDbSymbolTableRecord
100
AcDbLinetypeTableRecord
  2
HIDDEN
 70
     0
  3
Hidden __ __ __ __ __ __ __ __ __ __ __ __ __ _
 72
    65
 73
     2
 40
0.375
 49
0.25
 74
     0
 49
-0.125
 74
     0
  0
ENDTAB
  0
TABLE
  2
LAYER
  5
2
102
{ACAD_XDICTIONARY
360
4CB
102
}
330
0
100
AcDbSymbolTable
 70
    15
  0
LAYER
  5
10
102
{ACAD_XDICTIONARY
360
27CB
102
}
330
2
100
AcDbSymbolTableRecord
100
AcDbLayerTableRecord
  2
0
 70
     0
 62
     5
  6
CONTINUOUS
370
    -3
390
F
  0
LAYER
  5
45
102
{ACAD_XDICTIONARY
360
27CD
102
}
330
2
100
AcDbSymbolTableRecord
100
AcDbLayerTableRecord
  2
01-寸法線
 70
     0
 62
     4
  6
CONTINUOUS
370
    13
390
F
  0
LAYER
  5
46
102
{ACAD_XDICTIONARY
360
27CF
102
}
330
2
100
AcDbSymbolTableRecord
100
AcDbLayerTableRecord
  2
02-外形線
 70
     0
 62
     7
  6
CONTINUOUS
370
    20
390
F
  0
LAYER
  5
402
330
2
100
AcDbSymbolTableRecord
100
AcDbLayerTableRecord
  2
Defpoints
 70
     0
 62
     8
  6
CONTINUOUS
290
     0
370
    -3
390
F
  0
LAYER
  5
4B0
102
{ACAD_XDICTIONARY
360
27D1
102
}
330
2
100
AcDbSymbolTableRecord
100
AcDbLayerTableRecord
  2
03-隠れ線
 70
     0
 62
     7
  6
HIDDEN
370
    20
390
F
  0
LAYER
  5
4B1
102
{ACAD_XDICTIONARY
360
27D3
102
}
330
2
100
AcDbSymbolTableRecord
100
AcDbLayerTableRecord
  2
04-鉄筋線
 70
     0
 62
     1
  6
CONTINUOUS
370
    40
390
F
  0
LAYER
  5
4B2
102
{ACAD_XDICTIONARY
360
27D5
102
}
330
2
100
AcDbSymbolTableRecord
100
AcDbLayerTableRecord
  2
05-鉄筋線
 70
     0
 62
     1
  6
DASHED3
370
    40
390
F
  0
LAYER
  5
4B3
102
{ACAD_XDICTIONARY
360
27D7
102
}
330
2
100
AcDbSymbolTableRecord
100
AcDbLayerTableRecord
  2
06-中心線
 70
     0
 62
     4
  6
CENTER2
370
    13
390
F
  0
LAYER
  5
4B4
102
{ACAD_XDICTIONARY
360
27D9
102
}
330
2
100
AcDbSymbolTableRecord
100
AcDbLayerTableRecord
  2
07-中心線
 70
     0
 62
     4
  6
PHANTOM2
370
    13
390
F
  0
LAYER
  5
4B5
102
{ACAD_XDICTIONARY
360
27DB
102
}
330
2
100
AcDbSymbolTableRecord
100
AcDbLayerTableRecord
  2
08-下線
 70
     0
 62
     3
  6
CONTINUOUS
370
    30
390
F
  0
LAYER
  5
4B6
102
{ACAD_XDICTIONARY
360
27DD
102
}
330
2
100
AcDbSymbolTableRecord
100
AcDbLayerTableRecord
  2
09-下線
 70
     0
 62
     2
  6
CONTINUOUS
370
    50
390
F
  0
LAYER
  5
4B7
102
{ACAD_XDICTIONARY
360
27DF
102
}
330
2
100
AcDbSymbolTableRecord
100
AcDbLayerTableRecord
  2
10-罫線
 70
     0
 62
    30
  6
CONTINUOUS
370
    30
390
F
  0
LAYER
  5
4B8
102
{ACAD_XDICTIONARY
360
27E1
102
}
330
2
100
AcDbSymbolTableRecord
100
AcDbLayerTableRecord
  2
11-外枠線
 70
     0
 62
     6
  6
CONTINUOUS
370
    40
390
F
  0
LAYER
  5
4B9
102
{ACAD_XDICTIONARY
360
27E3
102
}
330
2
100
AcDbSymbolTableRecord
100
AcDbLayerTableRecord
  2
12-構築線
 70
     0
 62
     5
  6
CONTINUOUS
370
     0
390
F
  0
LAYER
  5
4BA
102
{ACAD_XDICTIONARY
360
27E5
102
}
330
2
100
AcDbSymbolTableRecord
100
AcDbLayerTableRecord
  2
13-Ｒ線
 70
     0
 62
    30
  6
CONTINUOUS
370
     0
390
F
  0
ENDTAB
  0
TABLE
  2
STYLE
  5
3
330
0
100
AcDbSymbolTable
 70
     5
  0
STYLE
  5
11
330
3
100
AcDbSymbolTableRecord
100
AcDbTextStyleTableRecord
  2
STANDARD
 70
     0
 40
0.0
 41
1.0
 50
0.0
 71
     0
 42
0.2
  3
txt
  4
bigfont.shx
  0
STYLE
  5
44
330
3
100
AcDbSymbolTableRecord
100
AcDbTextStyleTableRecord
  2
TATEGAKI
 70
     4
 40
0.0
 41
1.0
 50
0.0
 71
     0
 42
1.0
  3
txt
  4
bigfont.shx
  0
STYLE
  5
4AE
330
3
100
AcDbSymbolTableRecord
100
AcDbTextStyleTableRecord
  2

 70
     1
 40
0.0
 41
1.0
 50
0.0
 71
     0
 42
0.2
  3
ltypeshp.shx
  4

  0
STYLE
  5
56E
330
3
100
AcDbSymbolTableRecord
100
AcDbTextStyleTableRecord
  2
ｵﾘｼﾞﾅﾙｽﾀｲﾙ
 70
     0
 40
0.0
 41
0.8
 50
0.0
 71
     0
 42
0.2
  3

  4

1001
ACAD
1000
ＭＳ 明朝
1071
    32785
  0
STYLE
  5
269B
330
3
100
AcDbSymbolTableRecord
100
AcDbTextStyleTableRecord
  2
寸法ｽﾀｲﾙ
 70
     0
 40
0.0
 41
0.8
 50
0.0
 71
     0
 42
0.2
  3
NSimSun.ttf
  4

1001
ACAD
1000
NSimSun
1071
       49
  0
ENDTAB
  0
TABLE
  2
VIEW
  5
6
330
0
100
AcDbSymbolTable
 70
     0
  0
ENDTAB
  0
TABLE
  2
UCS
  5
7
330
0
100
AcDbSymbolTable
 70
     0
  0
ENDTAB
  0
TABLE
  2
APPID
  5
9
330
0
100
AcDbSymbolTable
 70
     3
  0
APPID
  5
12
330
9
100
AcDbSymbolTableRecord
100
AcDbRegAppTableRecord
  2
ACAD
 70
     0
  0
APPID
  5
27ED
330
9
100
AcDbSymbolTableRecord
100
AcDbRegAppTableRecord
  2
ACAD_NAV_VCDISPLAY
 70
     0
  0
APPID
  5
2826
330
9
100
AcDbSymbolTableRecord
100
AcDbRegAppTableRecord
  2
ACAD_MLEADERVER
 70
     0
  0
ENDTAB
  0
TABLE
  2
DIMSTYLE
  5
A
330
0
100
AcDbSymbolTable
 70
     2
100
AcDbDimStyleTable
 71
     2
340
571
340
3F9
  0
DIMSTYLE
105
3F9
330
A
100
AcDbSymbolTableRecord
100
AcDbDimStyleTableRecord
  2
Standard
 70
     0
340
11
  0
DIMSTYLE
105
571
102
{ACAD_REACTORS
330
C1A
330
C27
330
C43
330
C52
330
C92
330
CD4
330
CE3
330
CF0
330
D07
330
D14
330
D21
330
D90
330
DD8
330
1473
330
149B
330
14A9
330
1C8E
102
}
330
A
100
AcDbSymbolTableRecord
100
AcDbDimStyleTableRecord
  2
ｽﾀｲﾙ15
 70
     0
 40
15.0
 41
2.0
 42
1.0
 43
6.0
 44
1.0
 73
     0
 74
     0
 77
     1
 78
     8
140
3.0
141
1.0
147
0.5
172
     1
174
     1
176
     4
177
     4
178
     4
271
     3
272
     3
279
     2
289
     0
340
269B
341
A08
342
A08
371
    13
372
    13
  0
ENDTAB
  0
TABLE
  2
BLOCK_RECORD
  5
1
330
0
100
AcDbSymbolTable
 70
    19
  0
BLOCK_RECORD
  5
1E
330
1
100
AcDbSymbolTableRecord
100
AcDbBlockTableRecord
  2
*Model_Space
340
21
  0
BLOCK_RECORD
  5
1A
330
1
100
AcDbSymbolTableRecord
100
AcDbBlockTableRecord
  2
*Paper_Space
340
1D
  0
BLOCK_RECORD
  5
9BD
330
1
100
AcDbSymbolTableRecord
100
AcDbBlockTableRecord
  2
_Closed
340
0
  0
BLOCK_RECORD
  5
A08
330
1
100
AcDbSymbolTableRecord
100
AcDbBlockTableRecord
  2
_Open
340
0
102
{BLKREFS
331
ACF
331
AE9
331
1487
331
1488
331
148A
331
1BA3
331
1BA5
331
246D
331
2471
331
2472
331
2479
331
2483
331
2486
331
248C
331
2490
331
2499
331
249F
331
24A0
331
24A6
331
24AE
331
24C1
331
24D2
331
24D8
331
24DF
331
24E2
331
24FB
331
24FD
331
2500
331
2502
331
250C
331
2512
331
2513
331
2514
331
2516
331
2517
331
251A
331
2611
331
2612
331
265A
331
2661
331
269F
331
26A0
331
26A8
331
26A9
331
26B4
331
26B5
331
26BF
331
26C0
331
26C7
331
26C8
331
26D2
331
26D3
331
26DB
331
26DC
331
26E6
331
26E7
331
26EF
331
26F0
331
26F8
331
26F9
331
2701
331
2702
331
270A
331
270B
331
2711
331
2712
331
271A
331
271B
331
2723
331
2724
331
272F
331
2730
331
2737
331
2738
102
}
  0
BLOCK_RECORD
  5
C1B
330
1
100
AcDbSymbolTableRecord
100
AcDbBlockTableRecord
  2
*D2
340
0
  0
BLOCK_RECORD
  5
C28
330
1
100
AcDbSymbolTableRecord
100
AcDbBlockTableRecord
  2
*D3
340
0
  0
BLOCK_RECORD
  5
C44
330
1
100
AcDbSymbolTableRecord
100
AcDbBlockTableRecord
  2
*D4
340
0
  0
BLOCK_RECORD
  5
C53
330
1
100
AcDbSymbolTableRecord
100
AcDbBlockTableRecord
  2
*D5
340
0
  0
BLOCK_RECORD
  5
C93
330
1
100
AcDbSymbolTableRecord
100
AcDbBlockTableRecord
  2
*D6
340
0
  0
BLOCK_RECORD
  5
CD5
330
1
100
AcDbSymbolTableRecord
100
AcDbBlockTableRecord
  2
*D7
340
0
  0
BLOCK_RECORD
  5
CE4
330
1
100
AcDbSymbolTableRecord
100
AcDbBlockTableRecord
  2
*D8
340
0
  0
BLOCK_RECORD
  5
CF1
330
1
100
AcDbSymbolTableRecord
100
AcDbBlockTableRecord
  2
*D9
340
0
  0
BLOCK_RECORD
  5
D08
330
1
100
AcDbSymbolTableRecord
100
AcDbBlockTableRecord
  2
*D10
340
0
  0
BLOCK_RECORD
  5
D15
330
1
100
AcDbSymbolTableRecord
100
AcDbBlockTableRecord
  2
*D11
340
0
  0
BLOCK_RECORD
  5
D22
330
1
100
AcDbSymbolTableRecord
100
AcDbBlockTableRecord
  2
*D12
340
0
  0
BLOCK_RECORD
  5
D91
330
1
100
AcDbSymbolTableRecord
100
AcDbBlockTableRecord
  2
*D13
340
0
  0
BLOCK_RECORD
  5
DD9
330
1
100
AcDbSymbolTableRecord
100
AcDbBlockTableRecord
  2
*D14
340
0
  0
BLOCK_RECORD
  5
1474
330
1
100
AcDbSymbolTableRecord
100
AcDbBlockTableRecord
  2
*D15
340
0
  0
BLOCK_RECORD
  5
149C
330
1
100
AcDbSymbolTableRecord
100
AcDbBlockTableRecord
  2
*D16
340
0
  0
BLOCK_RECORD
  5
14AA
330
1
100
AcDbSymbolTableRecord
100
AcDbBlockTableRecord
  2
*D17
340
0
  0
BLOCK_RECORD
  5
1C8F
330
1
100
AcDbSymbolTableRecord
100
AcDbBlockTableRecord
  2
*D18
340
0
  0
ENDTAB
  0
ENDSEC
  0
SECTION
  2
BLOCKS
  0
BLOCK
  5
1F
330
1E
100
AcDbEntity
  8
0
100
AcDbBlockBegin
  2
*Model_Space
 70
     0
 10
0.0
 20
0.0
 30
0.0
  3
*Model_Space
  1

  0
ENDBLK
  5
20
330
1E
100
AcDbEntity
  8
0
100
AcDbBlockEnd
  0
BLOCK
  5
1B
330
1A
100
AcDbEntity
 67
     1
  8
0
100
AcDbBlockBegin
  2
*Paper_Space
 70
     0
 10
0.0
 20
0.0
 30
0.0
  3
*Paper_Space
  1

  0
ENDBLK
  5
1C
330
1A
100
AcDbEntity
 67
     1
  8
0
100
AcDbBlockEnd
  0
BLOCK
  5
9C2
330
9BD
100
AcDbEntity
  8
0
 62
     3
100
AcDbBlockBegin
  2
_Closed
 70
     0
 10
0.0
 20
0.0
 30
0.0
  3
_Closed
  1

  0
LINE
  5
9BE
330
9BD
100
AcDbEntity
  8
0
  6
ByBlock
 62
     0
370
    -2
100
AcDbLine
 10
-1.0
 20
0.1666666666666666
 30
0.0
 11
0.0
 21
0.0
 31
0.0
  0
LINE
  5
9BF
330
9BD
100
AcDbEntity
  8
0
  6
ByBlock
 62
     0
370
    -2
100
AcDbLine
 10
0.0
 20
0.0
 30
0.0
 11
-1.0
 21
-0.1666666666666666
 31
0.0
  0
LINE
  5
9C0
330
9BD
100
AcDbEntity
  8
0
  6
ByBlock
 62
     0
370
    -2
100
AcDbLine
 10
-1.0
 20
0.1666666666666666
 30
0.0
 11
-1.0
 21
-0.1666666666666666
 31
0.0
  0
LINE
  5
9C1
330
9BD
100
AcDbEntity
  8
0
  6
ByBlock
 62
     0
370
    -2
100
AcDbLine
 10
0.0
 20
0.0
 30
0.0
 11
-1.0
 21
0.0
 31
0.0
  0
ENDBLK
  5
9C3
330
9BD
100
AcDbEntity
  8
0
 62
     3
100
AcDbBlockEnd
  0
BLOCK
  5
A0C
330
A08
100
AcDbEntity
  8
0
100
AcDbBlockBegin
  2
_Open
 70
     0
 10
0.0
 20
0.0
 30
0.0
  3
_Open
  1

  0
LINE
  5
A09
330
A08
100
AcDbEntity
  8
0
  6
ByBlock
 62
     0
370
    -2
100
AcDbLine
 10
-1.0
 20
0.1666666666666666
 30
0.0
 11
0.0
 21
0.0
 31
0.0
  0
LINE
  5
A0A
330
A08
100
AcDbEntity
  8
0
  6
ByBlock
 62
     0
370
    -2
100
AcDbLine
 10
-1.0
 20
-0.1666666666666666
 30
0.0
 11
0.0
 21
0.0
 31
0.0
  0
LINE
  5
A0B
330
A08
100
AcDbEntity
  8
0
  6
ByBlock
 62
     0
370
    -2
100
AcDbLine
 10
0.0
 20
0.0
 30
0.0
 11
-1.0
 21
0.0
 31
0.0
  0
ENDBLK
  5
A0D
330
A08
100
AcDbEntity
  8
0
100
AcDbBlockEnd
  0
BLOCK
  5
C25
330
C1B
100
AcDbEntity
  8
0
100
AcDbBlockBegin
  2
*D2
 70
     1
 10
0.0
 20
0.0
 30
0.0
  3
*D2
  1

  0
LINE
  5
269C
330
C1B
100
AcDbEntity
  8
01-寸法線
 62
     4
440
 16777216
 48
4.0
370
    13
100
AcDbLine
 10
777.5
 20
1660.000000000001
 30
0.0
 11
512.5
 21
1660.000000000001
 31
0.0
  0
LINE
  5
269D
330
C1B
100
AcDbEntity
  8
01-寸法線
 62
     4
440
 16777216
 48
4.0
370
    13
100
AcDbLine
 10
662.5
 20
1910.000000000001
 30
0.0
 11
512.5
 21
1910.000000000001
 31
0.0
  0
LINE
  5
269E
330
C1B
100
AcDbEntity
  8
01-寸法線
 62
     4
440
 16777216
 48
4.0
370
    13
100
AcDbLine
 10
527.5
 20
1690.0
 30
0.0
 11
527.5000000000001
 21
1880.0
 31
0.0
  0
INSERT
  5
269F
330
C1B
100
AcDbEntity
  8
01-寸法線
 62
     4
440
 16777216
 48
4.0
370
    13
100
AcDbBlockReference
  2
_Open
 10
527.5
 20
1660.000000000001
 30
0.0
 41
30.0
 42
30.0
 43
30.0
 50
270.0
  0
INSERT
  5
26A0
330
C1B
100
AcDbEntity
  8
01-寸法線
 62
     4
440
 16777216
 48
4.0
370
    13
100
AcDbBlockReference
  2
_Open
 10
527.5000000000001
 20
1910.000000000001
 30
0.0
 41
30.0
 42
30.0
 43
30.0
 50
90.0
  0
MTEXT
  5
26A1
330
C1B
100
AcDbEntity
  8
01-寸法線
 62
     4
440
 16777216
 48
4.0
100
AcDbMText
 10
497.4999999999997
 20
1785.000000000001
 30
0.0
 40
45.0
 41
0.0
 71
     5
 72
     1
  1
\A1;250
  7
寸法ｽﾀｲﾙ
 11
0.0000000000000001
 21
1.0
 31
0.0
 73
     1
 44
1.0
  0
POINT
  5
26A2
330
C1B
100
AcDbEntity
  8
Defpoints
 62
     0
440
 16777216
 48
4.0
100
AcDbPoint
 10
792.4999999999999
 20
1660.000000000001
 30
0.0
  0
POINT
  5
26A3
330
C1B
100
AcDbEntity
  8
Defpoints
 62
     0
440
 16777216
 48
4.0
100
AcDbPoint
 10
677.5000000000001
 20
1910.000000000001
 30
0.0
  0
POINT
  5
26A4
330
C1B
100
AcDbEntity
  8
Defpoints
 62
     0
440
 16777216
 48
4.0
100
AcDbPoint
 10
527.5000000000001
 20
1910.000000000001
 30
0.0
  0
ENDBLK
  5
C26
330
C1B
100
AcDbEntity
  8
0
100
AcDbBlockEnd
  0
BLOCK
  5
C32
330
C28
100
AcDbEntity
  8
0
100
AcDbBlockBegin
  2
*D3
 70
     1
 10
0.0
 20
0.0
 30
0.0
  3
*D3
  1

  0
LINE
  5
26A5
330
C28
100
AcDbEntity
  8
01-寸法線
 62
     4
440
 16777216
 48
4.0
370
    13
100
AcDbLine
 10
662.5
 20
1910.000000000001
 30
0.0
 11
512.5
 21
1910.000000000001
 31
0.0
  0
LINE
  5
26A6
330
C28
100
AcDbEntity
  8
01-寸法線
 62
     4
440
 16777216
 48
4.0
370
    13
100
AcDbLine
 10
662.5
 20
2000.0
 30
0.0
 11
512.5
 21
2000.0
 31
0.0
  0
LINE
  5
26A7
330
C28
100
AcDbEntity
  8
01-寸法線
 62
     4
440
 16777216
 48
4.0
370
    13
100
AcDbLine
 10
527.5000000000001
 20
1940.0
 30
0.0
 11
527.5000000000001
 21
1970.0
 31
0.0
  0
INSERT
  5
26A8
330
C28
100
AcDbEntity
  8
01-寸法線
 62
     4
440
 16777216
 48
4.0
370
    13
100
AcDbBlockReference
  2
_Open
 10
527.5000000000001
 20
1910.000000000001
 30
0.0
 41
30.0
 42
30.0
 43
30.0
 50
270.0
  0
INSERT
  5
26A9
330
C28
100
AcDbEntity
  8
01-寸法線
 62
     4
440
 16777216
 48
4.0
370
    13
100
AcDbBlockReference
  2
_Open
 10
527.5000000000001
 20
2000.0
 30
0.0
 41
30.0
 42
30.0
 43
30.0
 50
90.0
  0
MTEXT
  5
26AA
330
C28
100
AcDbEntity
  8
01-寸法線
 62
     4
440
 16777216
 48
4.0
100
AcDbMText
 10
497.4999999999997
 20
1955.000000000001
 30
0.0
 40
45.0
 41
0.0
 71
     5
 72
     1
  1
\A1;90
  7
寸法ｽﾀｲﾙ
 11
0.0000000000000001
 21
1.0
 31
0.0
 73
     1
 44
1.0
  0
POINT
  5
26AB
330
C28
100
AcDbEntity
  8
Defpoints
 62
     0
440
 16777216
 48
4.0
100
AcDbPoint
 10
677.5000000000001
 20
1910.000000000001
 30
0.0
  0
POINT
  5
26AC
330
C28
100
AcDbEntity
  8
Defpoints
 62
     0
440
 16777216
 48
4.0
100
AcDbPoint
 10
677.5000000000001
 20
2000.0
 30
0.0
  0
POINT
  5
26AD
330
C28
100
AcDbEntity
  8
Defpoints
 62
     0
440
 16777216
 48
4.0
100
AcDbPoint
 10
527.5000000000001
 20
2000.0
 30
0.0
  0
ENDBLK
  5
C33
330
C28
100
AcDbEntity
  8
0
100
AcDbBlockEnd
  0
BLOCK
  5
C50
330
C44
100
AcDbEntity
  8
0
100
AcDbBlockBegin
  2
*D4
 70
     1
 10
0.0
 20
0.0
 30
0.0
  3
*D4
  1

  0
LINE
  5
26AE
330
C44
100
AcDbEntity
  8
01-寸法線
 62
     4
440
 16777216
 48
4.0
370
    13
100
AcDbLine
 10
727.5
 20
1580.000000000001
 30
0.0
 11
727.5
 21
1430.000000000001
 31
0.0
  0
LINE
  5
26AF
330
C44
100
AcDbEntity
  8
01-寸法線
 62
     4
440
 16777216
 48
4.0
370
    13
100
AcDbLine
 10
757.5
 20
1580.000000000001
 30
0.0
 11
757.5
 21
1430.000000000001
 31
0.0
  0
LINE
  5
26B0
330
C44
100
AcDbEntity
  8
01-寸法線
 62
     4
440
 16777216
 48
4.0
370
    13
100
AcDbLine
 10
697.5
 20
1445.0
 30
0.0
 11
667.4999999999999
 21
1445.0
 31
0.0
  0
LINE
  5
26B1
330
C44
100
AcDbEntity
  8
01-寸法線
 62
     4
440
 16777216
 48
4.0
370
    13
100
AcDbLine
 10
787.5
 20
1445.0
 30
0.0
 11
817.5
 21
1445.0
 31
0.0
  0
MTEXT
  5
26B2
330
C44
100
AcDbEntity
  8
01-寸法線
 62
     4
440
 16777216
 48
4.0
100
AcDbMText
 10
690.0
 20
1475.0
 30
0.0
 40
45.0
 41
0.0
 71
     5
 72
     1
  1
\A1;30
  7
寸法ｽﾀｲﾙ
 73
     1
 44
1.0
  0
LINE
  5
26B3
330
C44
100
AcDbEntity
  8
01-寸法線
 62
     4
440
 16777216
 48
4.0
370
    13
100
AcDbLine
 10
727.5
 20
1445.0
 30
0.0
 11
757.5
 21
1445.0
 31
0.0
  0
INSERT
  5
26B4
330
C44
100
AcDbEntity
  8
01-寸法線
 62
     4
440
 16777216
 48
4.0
370
    13
100
AcDbBlockReference
  2
_Open
 10
727.5
 20
1445.0
 30
0.0
 41
30.0
 42
30.0
 43
30.0
  0
INSERT
  5
26B5
330
C44
100
AcDbEntity
  8
01-寸法線
 62
     4
440
 16777216
 48
4.0
370
    13
100
AcDbBlockReference
  2
_Open
 10
757.5
 20
1445.0
 30
0.0
 41
30.0
 42
30.0
 43
30.0
 50
180.0
  0
POINT
  5
26B6
330
C44
100
AcDbEntity
  8
Defpoints
 62
     0
440
 16777216
 48
4.0
100
AcDbPoint
 10
727.5
 20
1595.0
 30
0.0
  0
POINT
  5
26B7
330
C44
100
AcDbEntity
  8
Defpoints
 62
     0
440
 16777216
 48
4.0
100
AcDbPoint
 10
757.5
 20
1595.0
 30
0.0
  0
POINT
  5
26B8
330
C44
100
AcDbEntity
  8
Defpoints
 62
     0
440
 16777216
 48
4.0
100
AcDbPoint
 10
757.5
 20
1445.0
 30
0.0
  0
ENDBLK
  5
C51
330
C44
100
AcDbEntity
  8
0
100
AcDbBlockEnd
  0
BLOCK
  5
C5F
330
C53
100
AcDbEntity
  8
0
100
AcDbBlockBegin
  2
*D5
 70
     1
 10
0.0
 20
0.0
 30
0.0
  3
*D5
  1

  0
LINE
  5
26B9
330
C53
100
AcDbEntity
  8
01-寸法線
 62
     4
440
 16777216
 48
4.0
370
    13
100
AcDbLine
 10
1057.5
 20
1580.000000000001
 30
0.0
 11
1057.5
 21
1430.000000000001
 31
0.0
  0
LINE
  5
26BA
330
C53
100
AcDbEntity
  8
01-寸法線
 62
     4
440
 16777216
 48
4.0
370
    13
100
AcDbLine
 10
1087.5
 20
1580.000000000001
 30
0.0
 11
1087.5
 21
1430.000000000001
 31
0.0
  0
LINE
  5
26BB
330
C53
100
AcDbEntity
  8
01-寸法線
 62
     4
440
 16777216
 48
4.0
370
    13
100
AcDbLine
 10
1027.5
 20
1445.0
 30
0.0
 11
997.4999999999999
 21
1445.0
 31
0.0
  0
LINE
  5
26BC
330
C53
100
AcDbEntity
  8
01-寸法線
 62
     4
440
 16777216
 48
4.0
370
    13
100
AcDbLine
 10
1117.5
 20
1445.0
 30
0.0
 11
1147.5
 21
1445.0
 31
0.0
  0
MTEXT
  5
26BD
330
C53
100
AcDbEntity
  8
01-寸法線
 62
     4
440
 16777216
 48
4.0
100
AcDbMText
 10
1125.0
 20
1475.0
 30
0.0
 40
45.0
 41
0.0
 71
     5
 72
     1
  1
\A1;30
  7
寸法ｽﾀｲﾙ
 73
     1
 44
1.0
  0
LINE
  5
26BE
330
C53
100
AcDbEntity
  8
01-寸法線
 62
     4
440
 16777216
 48
4.0
370
    13
100
AcDbLine
 10
1057.5
 20
1445.0
 30
0.0
 11
1087.5
 21
1445.0
 31
0.0
  0
INSERT
  5
26BF
330
C53
100
AcDbEntity
  8
01-寸法線
 62
     4
440
 16777216
 48
4.0
370
    13
100
AcDbBlockReference
  2
_Open
 10
1057.5
 20
1445.0
 30
0.0
 41
30.0
 42
30.0
 43
30.0
  0
INSERT
  5
26C0
330
C53
100
AcDbEntity
  8
01-寸法線
 62
     4
440
 16777216
 48
4.0
370
    13
100
AcDbBlockReference
  2
_Open
 10
1087.5
 20
1445.0
 30
0.0
 41
30.0
 42
30.0
 43
30.0
 50
180.0
  0
POINT
  5
26C1
330
C53
100
AcDbEntity
  8
Defpoints
 62
     0
440
 16777216
 48
4.0
100
AcDbPoint
 10
1057.5
 20
1595.0
 30
0.0
  0
POINT
  5
26C2
330
C53
100
AcDbEntity
  8
Defpoints
 62
     0
440
 16777216
 48
4.0
100
AcDbPoint
 10
1087.5
 20
1595.0
 30
0.0
  0
POINT
  5
26C3
330
C53
100
AcDbEntity
  8
Defpoints
 62
     0
440
 16777216
 48
4.0
100
AcDbPoint
 10
1087.5
 20
1445.0
 30
0.0
  0
ENDBLK
  5
C60
330
C53
100
AcDbEntity
  8
0
100
AcDbBlockEnd
  0
BLOCK
  5
C9D
330
C93
100
AcDbEntity
  8
0
100
AcDbBlockBegin
  2
*D6
 70
     1
 10
0.0
 20
0.0
 30
0.0
  3
*D6
  1

  0
LINE
  5
26C4
330
C93
100
AcDbEntity
  8
01-寸法線
 62
     4
440
 16777216
 48
4.0
370
    13
100
AcDbLine
 10
727.5
 20
1430.000000000001
 30
0.0
 11
727.5
 21
1340.0
 31
0.0
  0
LINE
  5
26C5
330
C93
100
AcDbEntity
  8
01-寸法線
 62
     4
440
 16777216
 48
4.0
370
    13
100
AcDbLine
 10
1087.5
 20
1430.000000000001
 30
0.0
 11
1087.5
 21
1340.0
 31
0.0
  0
LINE
  5
26C6
330
C93
100
AcDbEntity
  8
01-寸法線
 62
     4
440
 16777216
 48
4.0
370
    13
100
AcDbLine
 10
757.5
 20
1355.000000000001
 30
0.0
 11
1057.5
 21
1355.000000000001
 31
0.0
  0
INSERT
  5
26C7
330
C93
100
AcDbEntity
  8
01-寸法線
 62
     4
440
 16777216
 48
4.0
370
    13
100
AcDbBlockReference
  2
_Open
 10
727.5
 20
1355.000000000001
 30
0.0
 41
30.0
 42
30.0
 43
30.0
 50
180.0
  0
INSERT
  5
26C8
330
C93
100
AcDbEntity
  8
01-寸法線
 62
     4
440
 16777216
 48
4.0
370
    13
100
AcDbBlockReference
  2
_Open
 10
1087.5
 20
1355.000000000001
 30
0.0
 41
30.0
 42
30.0
 43
30.0
  0
MTEXT
  5
26C9
330
C93
100
AcDbEntity
  8
01-寸法線
 62
     4
440
 16777216
 48
4.0
100
AcDbMText
 10
907.5000000000001
 20
1385.0
 30
0.0
 40
45.0
 41
0.0
 71
     5
 72
     1
  1
\A1;360
  7
寸法ｽﾀｲﾙ
 73
     1
 44
1.0
  0
POINT
  5
26CA
330
C93
100
AcDbEntity
  8
Defpoints
 62
     0
440
 16777216
 48
4.0
100
AcDbPoint
 10
727.5
 20
1445.0
 30
0.0
  0
POINT
  5
26CB
330
C93
100
AcDbEntity
  8
Defpoints
 62
     0
440
 16777216
 48
4.0
100
AcDbPoint
 10
1087.5
 20
1445.0
 30
0.0
  0
POINT
  5
26CC
330
C93
100
AcDbEntity
  8
Defpoints
 62
     0
440
 16777216
 48
4.0
100
AcDbPoint
 10
1087.5
 20
1355.000000000001
 30
0.0
  0
ENDBLK
  5
C9E
330
C93
100
AcDbEntity
  8
0
100
AcDbBlockEnd
  0
BLOCK
  5
CE1
330
CD5
100
AcDbEntity
  8
0
100
AcDbBlockBegin
  2
*D7
 70
     1
 10
0.0
 20
0.0
 30
0.0
  3
*D7
  1

  0
LINE
  5
26CD
330
CD5
100
AcDbEntity
  8
01-寸法線
 62
     4
440
 16777216
 48
4.0
370
    13
100
AcDbLine
 10
727.5
 20
1675.0
 30
0.0
 11
727.5
 21
1824.000799041279
 31
0.0
  0
LINE
  5
26CE
330
CD5
100
AcDbEntity
  8
01-寸法線
 62
     4
440
 16777216
 48
4.0
370
    13
100
AcDbLine
 10
792.4999999999999
 20
1675.0
 30
0.0
 11
792.4999999999999
 21
1824.000799041279
 31
0.0
  0
LINE
  5
26CF
330
CD5
100
AcDbEntity
  8
01-寸法線
 62
     4
440
 16777216
 48
4.0
370
    13
100
AcDbLine
 10
697.5
 20
1809.000799041279
 30
0.0
 11
667.4999999999999
 21
1809.000799041279
 31
0.0
  0
LINE
  5
26D0
330
CD5
100
AcDbEntity
  8
01-寸法線
 62
     4
440
 16777216
 48
4.0
370
    13
100
AcDbLine
 10
822.4999999999999
 20
1809.000799041279
 30
0.0
 11
852.5
 21
1809.000799041279
 31
0.0
  0
LINE
  5
26D1
330
CD5
100
AcDbEntity
  8
01-寸法線
 62
     4
440
 16777216
 48
4.0
370
    13
100
AcDbLine
 10
727.5
 20
1809.000799041279
 30
0.0
 11
792.4999999999999
 21
1809.000799041279
 31
0.0
  0
INSERT
  5
26D2
330
CD5
100
AcDbEntity
  8
01-寸法線
 62
     4
440
 16777216
 48
4.0
370
    13
100
AcDbBlockReference
  2
_Open
 10
727.5
 20
1809.000799041279
 30
0.0
 41
30.0
 42
30.0
 43
30.0
  0
INSERT
  5
26D3
330
CD5
100
AcDbEntity
  8
01-寸法線
 62
     4
440
 16777216
 48
4.0
370
    13
100
AcDbBlockReference
  2
_Open
 10
792.4999999999999
 20
1809.000799041279
 30
0.0
 41
30.0
 42
30.0
 43
30.0
 50
180.0
  0
MTEXT
  5
26D4
330
CD5
100
AcDbEntity
  8
01-寸法線
 62
     4
440
 16777216
 48
4.0
100
AcDbMText
 10
760.0
 20
1839.000799041279
 30
0.0
 40
45.0
 41
0.0
 71
     5
 72
     1
  1
\A1;65
  7
寸法ｽﾀｲﾙ
 73
     1
 44
1.0
  0
POINT
  5
26D5
330
CD5
100
AcDbEntity
  8
Defpoints
 62
     0
440
 16777216
 48
4.0
100
AcDbPoint
 10
727.5
 20
1660.000000000001
 30
0.0
  0
POINT
  5
26D6
330
CD5
100
AcDbEntity
  8
Defpoints
 62
     0
440
 16777216
 48
4.0
100
AcDbPoint
 10
792.4999999999999
 20
1660.000000000001
 30
0.0
  0
POINT
  5
26D7
330
CD5
100
AcDbEntity
  8
Defpoints
 62
     0
440
 16777216
 48
4.0
100
AcDbPoint
 10
792.4999999999999
 20
1809.000799041279
 30
0.0
  0
ENDBLK
  5
CE2
330
CD5
100
AcDbEntity
  8
0
100
AcDbBlockEnd
  0
BLOCK
  5
CEE
330
CE4
100
AcDbEntity
  8
0
100
AcDbBlockBegin
  2
*D8
 70
     1
 10
0.0
 20
0.0
 30
0.0
  3
*D8
  1

  0
LINE
  5
26D8
330
CE4
100
AcDbEntity
  8
01-寸法線
 62
     4
440
 16777216
 48
4.0
370
    13
100
AcDbLine
 10
792.4999999999999
 20
1675.0
 30
0.0
 11
792.4999999999999
 21
1824.000799041279
 31
0.0
  0
LINE
  5
26D9
330
CE4
100
AcDbEntity
  8
01-寸法線
 62
     4
440
 16777216
 48
4.0
370
    13
100
AcDbLine
 10
1022.5
 20
1675.0
 30
0.0
 11
1022.5
 21
1824.000799041279
 31
0.0
  0
LINE
  5
26DA
330
CE4
100
AcDbEntity
  8
01-寸法線
 62
     4
440
 16777216
 48
4.0
370
    13
100
AcDbLine
 10
822.4999999999999
 20
1809.000799041279
 30
0.0
 11
992.5
 21
1809.000799041279
 31
0.0
  0
INSERT
  5
26DB
330
CE4
100
AcDbEntity
  8
01-寸法線
 62
     4
440
 16777216
 48
4.0
370
    13
100
AcDbBlockReference
  2
_Open
 10
792.4999999999999
 20
1809.000799041279
 30
0.0
 41
30.0
 42
30.0
 43
30.0
 50
180.0
  0
INSERT
  5
26DC
330
CE4
100
AcDbEntity
  8
01-寸法線
 62
     4
440
 16777216
 48
4.0
370
    13
100
AcDbBlockReference
  2
_Open
 10
1022.5
 20
1809.000799041279
 30
0.0
 41
30.0
 42
30.0
 43
30.0
  0
MTEXT
  5
26DD
330
CE4
100
AcDbEntity
  8
01-寸法線
 62
     4
440
 16777216
 48
4.0
100
AcDbMText
 10
907.5000000000001
 20
1839.000799041279
 30
0.0
 40
45.0
 41
0.0
 71
     5
 72
     1
  1
\A1;230
  7
寸法ｽﾀｲﾙ
 73
     1
 44
1.0
  0
POINT
  5
26DE
330
CE4
100
AcDbEntity
  8
Defpoints
 62
     0
440
 16777216
 48
4.0
100
AcDbPoint
 10
792.4999999999999
 20
1660.000000000001
 30
0.0
  0
POINT
  5
26DF
330
CE4
100
AcDbEntity
  8
Defpoints
 62
     0
440
 16777216
 48
4.0
100
AcDbPoint
 10
1022.5
 20
1660.000000000001
 30
0.0
  0
POINT
  5
26E0
330
CE4
100
AcDbEntity
  8
Defpoints
 62
     0
440
 16777216
 48
4.0
100
AcDbPoint
 10
1022.5
 20
1809.000799041279
 30
0.0
  0
ENDBLK
  5
CEF
330
CE4
100
AcDbEntity
  8
0
100
AcDbBlockEnd
  0
BLOCK
  5
CFD
330
CF1
100
AcDbEntity
  8
0
100
AcDbBlockBegin
  2
*D9
 70
     1
 10
0.0
 20
0.0
 30
0.0
  3
*D9
  1

  0
LINE
  5
26E1
330
CF1
100
AcDbEntity
  8
01-寸法線
 62
     4
440
 16777216
 48
4.0
370
    13
100
AcDbLine
 10
1022.5
 20
1675.0
 30
0.0
 11
1022.5
 21
1824.000799041279
 31
0.0
  0
LINE
  5
26E2
330
CF1
100
AcDbEntity
  8
01-寸法線
 62
     4
440
 16777216
 48
4.0
370
    13
100
AcDbLine
 10
1087.5
 20
1675.0
 30
0.0
 11
1087.5
 21
1824.000799041279
 31
0.0
  0
LINE
  5
26E3
330
CF1
100
AcDbEntity
  8
01-寸法線
 62
     4
440
 16777216
 48
4.0
370
    13
100
AcDbLine
 10
992.5
 20
1809.000799041279
 30
0.0
 11
962.5
 21
1809.000799041279
 31
0.0
  0
LINE
  5
26E4
330
CF1
100
AcDbEntity
  8
01-寸法線
 62
     4
440
 16777216
 48
4.0
370
    13
100
AcDbLine
 10
1117.5
 20
1809.000799041279
 30
0.0
 11
1147.5
 21
1809.000799041279
 31
0.0
  0
LINE
  5
26E5
330
CF1
100
AcDbEntity
  8
01-寸法線
 62
     4
440
 16777216
 48
4.0
370
    13
100
AcDbLine
 10
1022.5
 20
1809.000799041279
 30
0.0
 11
1087.5
 21
1809.000799041279
 31
0.0
  0
INSERT
  5
26E6
330
CF1
100
AcDbEntity
  8
01-寸法線
 62
     4
440
 16777216
 48
4.0
370
    13
100
AcDbBlockReference
  2
_Open
 10
1022.5
 20
1809.000799041279
 30
0.0
 41
30.0
 42
30.0
 43
30.0
  0
INSERT
  5
26E7
330
CF1
100
AcDbEntity
  8
01-寸法線
 62
     4
440
 16777216
 48
4.0
370
    13
100
AcDbBlockReference
  2
_Open
 10
1087.5
 20
1809.000799041279
 30
0.0
 41
30.0
 42
30.0
 43
30.0
 50
180.0
  0
MTEXT
  5
26E8
330
CF1
100
AcDbEntity
  8
01-寸法線
 62
     4
440
 16777216
 48
4.0
100
AcDbMText
 10
1055.0
 20
1839.000799041279
 30
0.0
 40
45.0
 41
0.0
 71
     5
 72
     1
  1
\A1;65
  7
寸法ｽﾀｲﾙ
 73
     1
 44
1.0
  0
POINT
  5
26E9
330
CF1
100
AcDbEntity
  8
Defpoints
 62
     0
440
 16777216
 48
4.0
100
AcDbPoint
 10
1022.5
 20
1660.000000000001
 30
0.0
  0
POINT
  5
26EA
330
CF1
100
AcDbEntity
  8
Defpoints
 62
     0
440
 16777216
 48
4.0
100
AcDbPoint
 10
1087.5
 20
1660.000000000001
 30
0.0
  0
POINT
  5
26EB
330
CF1
100
AcDbEntity
  8
Defpoints
 62
     0
440
 16777216
 48
4.0
100
AcDbPoint
 10
1087.5
 20
1809.000799041279
 30
0.0
  0
ENDBLK
  5
CFE
330
CF1
100
AcDbEntity
  8
0
100
AcDbBlockEnd
  0
BLOCK
  5
D12
330
D08
100
AcDbEntity
  8
0
100
AcDbBlockBegin
  2
*D10
 70
     1
 10
0.0
 20
0.0
 30
0.0
  3
*D10
  1

  0
LINE
  5
26EC
330
D08
100
AcDbEntity
  8
01-寸法線
 62
     4
440
 16777216
 48
4.0
370
    13
100
AcDbLine
 10
1757.5
 20
2015.000000000001
 30
0.0
 11
1757.5
 21
2255.000000000001
 31
0.0
  0
LINE
  5
26ED
330
D08
100
AcDbEntity
  8
01-寸法線
 62
     4
440
 16777216
 48
4.0
370
    13
100
AcDbLine
 10
2757.5
 20
2015.000000000001
 30
0.0
 11
2757.5
 21
2255.000000000001
 31
0.0
  0
LINE
  5
26EE
330
D08
100
AcDbEntity
  8
01-寸法線
 62
     4
440
 16777216
 48
4.0
370
    13
100
AcDbLine
 10
1787.5
 20
2240.000000000001
 30
0.0
 11
2727.5
 21
2240.000000000001
 31
0.0
  0
INSERT
  5
26EF
330
D08
100
AcDbEntity
  8
01-寸法線
 62
     4
440
 16777216
 48
4.0
370
    13
100
AcDbBlockReference
  2
_Open
 10
1757.5
 20
2240.000000000001
 30
0.0
 41
30.0
 42
30.0
 43
30.0
 50
180.0
  0
INSERT
  5
26F0
330
D08
100
AcDbEntity
  8
01-寸法線
 62
     4
440
 16777216
 48
4.0
370
    13
100
AcDbBlockReference
  2
_Open
 10
2757.5
 20
2240.000000000001
 30
0.0
 41
30.0
 42
30.0
 43
30.0
  0
MTEXT
  5
26F1
330
D08
100
AcDbEntity
  8
01-寸法線
 62
     4
440
 16777216
 48
4.0
100
AcDbMText
 10
2257.5
 20
2270.000000000001
 30
0.0
 40
45.0
 41
0.0
 71
     5
 72
     1
  1
\A1;1000
  7
寸法ｽﾀｲﾙ
 73
     1
 44
1.0
  0
POINT
  5
26F2
330
D08
100
AcDbEntity
  8
Defpoints
 62
     0
440
 16777216
 48
4.0
100
AcDbPoint
 10
1757.5
 20
2000.0
 30
0.0
  0
POINT
  5
26F3
330
D08
100
AcDbEntity
  8
Defpoints
 62
     0
440
 16777216
 48
4.0
100
AcDbPoint
 10
2757.5
 20
2000.0
 30
0.0
  0
POINT
  5
26F4
330
D08
100
AcDbEntity
  8
Defpoints
 62
     0
440
 16777216
 48
4.0
100
AcDbPoint
 10
2757.5
 20
2240.000000000001
 30
0.0
  0
ENDBLK
  5
D13
330
D08
100
AcDbEntity
  8
0
100
AcDbBlockEnd
  0
BLOCK
  5
D1F
330
D15
100
AcDbEntity
  8
0
100
AcDbBlockBegin
  2
*D11
 70
     1
 10
0.0
 20
0.0
 30
0.0
  3
*D11
  1

  0
LINE
  5
26F5
330
D15
100
AcDbEntity
  8
01-寸法線
 62
     4
440
 16777216
 48
4.0
370
    13
100
AcDbLine
 10
2757.5
 20
2015.000000000001
 30
0.0
 11
2757.5
 21
2255.000000000001
 31
0.0
  0
LINE
  5
26F6
330
D15
100
AcDbEntity
  8
01-寸法線
 62
     4
440
 16777216
 48
4.0
370
    13
100
AcDbLine
 10
3757.5
 20
2015.000000000001
 30
0.0
 11
3757.5
 21
2255.000000000001
 31
0.0
  0
LINE
  5
26F7
330
D15
100
AcDbEntity
  8
01-寸法線
 62
     4
440
 16777216
 48
4.0
370
    13
100
AcDbLine
 10
2787.5
 20
2240.000000000001
 30
0.0
 11
3727.5
 21
2240.000000000001
 31
0.0
  0
INSERT
  5
26F8
330
D15
100
AcDbEntity
  8
01-寸法線
 62
     4
440
 16777216
 48
4.0
370
    13
100
AcDbBlockReference
  2
_Open
 10
2757.5
 20
2240.000000000001
 30
0.0
 41
30.0
 42
30.0
 43
30.0
 50
180.0
  0
INSERT
  5
26F9
330
D15
100
AcDbEntity
  8
01-寸法線
 62
     4
440
 16777216
 48
4.0
370
    13
100
AcDbBlockReference
  2
_Open
 10
3757.5
 20
2240.000000000001
 30
0.0
 41
30.0
 42
30.0
 43
30.0
  0
MTEXT
  5
26FA
330
D15
100
AcDbEntity
  8
01-寸法線
 62
     4
440
 16777216
 48
4.0
100
AcDbMText
 10
3257.5
 20
2270.000000000001
 30
0.0
 40
45.0
 41
0.0
 71
     5
 72
     1
  1
\A1;1000
  7
寸法ｽﾀｲﾙ
 73
     1
 44
1.0
  0
POINT
  5
26FB
330
D15
100
AcDbEntity
  8
Defpoints
 62
     0
440
 16777216
 48
4.0
100
AcDbPoint
 10
2757.5
 20
2000.0
 30
0.0
  0
POINT
  5
26FC
330
D15
100
AcDbEntity
  8
Defpoints
 62
     0
440
 16777216
 48
4.0
100
AcDbPoint
 10
3757.5
 20
2000.0
 30
0.0
  0
POINT
  5
26FD
330
D15
100
AcDbEntity
  8
Defpoints
 62
     0
440
 16777216
 48
4.0
100
AcDbPoint
 10
3757.5
 20
2240.000000000001
 30
0.0
  0
ENDBLK
  5
D20
330
D15
100
AcDbEntity
  8
0
100
AcDbBlockEnd
  0
BLOCK
  5
D2C
330
D22
100
AcDbEntity
  8
0
100
AcDbBlockBegin
  2
*D12
 70
     1
 10
0.0
 20
0.0
 30
0.0
  3
*D12
  1

  0
LINE
  5
26FE
330
D22
100
AcDbEntity
  8
01-寸法線
 62
     4
440
 16777216
 48
4.0
370
    13
100
AcDbLine
 10
1757.5
 20
2255.000000000001
 30
0.0
 11
1757.5
 21
2345.000000000001
 31
0.0
  0
LINE
  5
26FF
330
D22
100
AcDbEntity
  8
01-寸法線
 62
     4
440
 16777216
 48
4.0
370
    13
100
AcDbLine
 10
3757.5
 20
2255.000000000001
 30
0.0
 11
3757.5
 21
2345.000000000001
 31
0.0
  0
LINE
  5
2700
330
D22
100
AcDbEntity
  8
01-寸法線
 62
     4
440
 16777216
 48
4.0
370
    13
100
AcDbLine
 10
1787.5
 20
2330.000000000001
 30
0.0
 11
3727.5
 21
2330.000000000001
 31
0.0
  0
INSERT
  5
2701
330
D22
100
AcDbEntity
  8
01-寸法線
 62
     4
440
 16777216
 48
4.0
370
    13
100
AcDbBlockReference
  2
_Open
 10
1757.5
 20
2330.000000000001
 30
0.0
 41
30.0
 42
30.0
 43
30.0
 50
180.0
  0
INSERT
  5
2702
330
D22
100
AcDbEntity
  8
01-寸法線
 62
     4
440
 16777216
 48
4.0
370
    13
100
AcDbBlockReference
  2
_Open
 10
3757.5
 20
2330.000000000001
 30
0.0
 41
30.0
 42
30.0
 43
30.0
  0
MTEXT
  5
2703
330
D22
100
AcDbEntity
  8
01-寸法線
 62
     4
440
 16777216
 48
4.0
100
AcDbMText
 10
2757.5
 20
2360.000000000001
 30
0.0
 40
45.0
 41
0.0
 71
     5
 72
     1
  1
\A1;2000
  7
寸法ｽﾀｲﾙ
 73
     1
 44
1.0
  0
POINT
  5
2704
330
D22
100
AcDbEntity
  8
Defpoints
 62
     0
440
 16777216
 48
4.0
100
AcDbPoint
 10
1757.5
 20
2240.000000000001
 30
0.0
  0
POINT
  5
2705
330
D22
100
AcDbEntity
  8
Defpoints
 62
     0
440
 16777216
 48
4.0
100
AcDbPoint
 10
3757.5
 20
2240.000000000001
 30
0.0
  0
POINT
  5
2706
330
D22
100
AcDbEntity
  8
Defpoints
 62
     0
440
 16777216
 48
4.0
100
AcDbPoint
 10
3757.5
 20
2330.000000000001
 30
0.0
  0
ENDBLK
  5
D2D
330
D22
100
AcDbEntity
  8
0
100
AcDbBlockEnd
  0
BLOCK
  5
D9B
330
D91
100
AcDbEntity
  8
0
100
AcDbBlockBegin
  2
*D13
 70
     1
 10
0.0
 20
0.0
 30
0.0
  3
*D13
  1

  0
LINE
  5
2707
330
D91
100
AcDbEntity
  8
01-寸法線
 62
     4
440
 16777216
 48
4.0
370
    13
100
AcDbLine
 10
1742.5
 20
1595.0
 30
0.0
 11
1592.5
 21
1595.0
 31
0.0
  0
LINE
  5
2708
330
D91
100
AcDbEntity
  8
01-寸法線
 62
     4
440
 16777216
 48
4.0
370
    13
100
AcDbLine
 10
1742.5
 20
1770.000000000001
 30
0.0
 11
1592.5
 21
1770.000000000001
 31
0.0
  0
LINE
  5
2709
330
D91
100
AcDbEntity
  8
01-寸法線
 62
     4
440
 16777216
 48
4.0
370
    13
100
AcDbLine
 10
1607.5
 20
1625.000000000001
 30
0.0
 11
1607.5
 21
1740.000000000001
 31
0.0
  0
INSERT
  5
270A
330
D91
100
AcDbEntity
  8
01-寸法線
 62
     4
440
 16777216
 48
4.0
370
    13
100
AcDbBlockReference
  2
_Open
 10
1607.5
 20
1595.0
 30
0.0
 41
30.0
 42
30.0
 43
30.0
 50
270.0
  0
INSERT
  5
270B
330
D91
100
AcDbEntity
  8
01-寸法線
 62
     4
440
 16777216
 48
4.0
370
    13
100
AcDbBlockReference
  2
_Open
 10
1607.5
 20
1770.000000000001
 30
0.0
 41
30.0
 42
30.0
 43
30.0
 50
90.0
  0
MTEXT
  5
270C
330
D91
100
AcDbEntity
  8
01-寸法線
 62
     4
440
 16777216
 48
4.0
100
AcDbMText
 10
1577.499999999999
 20
1682.500000000001
 30
0.0
 40
45.0
 41
0.0
 71
     5
 72
     1
  1
\A1;175
  7
寸法ｽﾀｲﾙ
 11
0.0000000000000001
 21
1.0
 31
0.0
 73
     1
 44
1.0
  0
POINT
  5
270D
330
D91
100
AcDbEntity
  8
Defpoints
 62
     0
440
 16777216
 48
4.0
100
AcDbPoint
 10
1757.5
 20
1595.0
 30
0.0
  0
POINT
  5
270E
330
D91
100
AcDbEntity
  8
Defpoints
 62
     0
440
 16777216
 48
4.0
100
AcDbPoint
 10
1757.5
 20
1770.000000000001
 30
0.0
  0
POINT
  5
270F
330
D91
100
AcDbEntity
  8
Defpoints
 62
     0
440
 16777216
 48
4.0
100
AcDbPoint
 10
1607.5
 20
1770.000000000001
 30
0.0
  0
ENDBLK
  5
D9C
330
D91
100
AcDbEntity
  8
0
100
AcDbBlockEnd
  0
BLOCK
  5
DE1
330
DD9
100
AcDbEntity
  8
0
100
AcDbBlockBegin
  2
*D14
 70
     1
 10
0.0
 20
0.0
 30
0.0
  3
*D14
  1

  0
LINE
  5
2710
330
DD9
100
AcDbEntity
  8
01-寸法線
 62
     4
440
 16777216
 48
4.0
370
    13
100
AcDbLine
 10
812.5000000000001
 20
2150.0
 30
0.0
 11
1002.5
 21
2150.0
 31
0.0
  0
INSERT
  5
2711
330
DD9
100
AcDbEntity
  8
01-寸法線
 62
     4
440
 16777216
 48
4.0
370
    13
100
AcDbBlockReference
  2
_Open
 10
782.5000000000001
 20
2150.0
 30
0.0
 41
30.0
 42
30.0
 43
30.0
 50
180.0
  0
INSERT
  5
2712
330
DD9
100
AcDbEntity
  8
01-寸法線
 62
     4
440
 16777216
 48
4.0
370
    13
100
AcDbBlockReference
  2
_Open
 10
1032.5
 20
2150.0
 30
0.0
 41
30.0
 42
30.0
 43
30.0
  0
MTEXT
  5
2713
330
DD9
100
AcDbEntity
  8
01-寸法線
 62
     4
440
 16777216
 48
4.0
100
AcDbMText
 10
907.5000000000001
 20
2180.000000000001
 30
0.0
 40
45.0
 41
0.0
 71
     5
 72
     1
  1
\A1;250
  7
寸法ｽﾀｲﾙ
 73
     1
 44
1.0
  0
POINT
  5
2714
330
DD9
100
AcDbEntity
  8
Defpoints
 62
     0
440
 16777216
 48
4.0
100
AcDbPoint
 10
782.5000000000001
 20
2150.0
 30
0.0
  0
POINT
  5
2715
330
DD9
100
AcDbEntity
  8
Defpoints
 62
     0
440
 16777216
 48
4.0
100
AcDbPoint
 10
1032.5
 20
2150.0
 30
0.0
  0
POINT
  5
2716
330
DD9
100
AcDbEntity
  8
Defpoints
 62
     0
440
 16777216
 48
4.0
100
AcDbPoint
 10
1032.5
 20
2150.0
 30
0.0
  0
ENDBLK
  5
DE2
330
DD9
100
AcDbEntity
  8
0
100
AcDbBlockEnd
  0
BLOCK
  5
147E
330
1474
100
AcDbEntity
  8
0
100
AcDbBlockBegin
  2
*D15
 70
     1
 10
0.0
 20
0.0
 30
0.0
  3
*D15
  1

  0
LINE
  5
2717
330
1474
100
AcDbEntity
  8
01-寸法線
 62
     4
440
 16777216
 48
4.0
370
    13
100
AcDbLine
 10
662.5
 20
1880.0
 30
0.0
 11
422.5
 21
1880.0
 31
0.0
  0
LINE
  5
2718
330
1474
100
AcDbEntity
  8
01-寸法線
 62
     4
440
 16777216
 48
4.0
370
    13
100
AcDbLine
 10
512.5
 20
2000.0
 30
0.0
 11
422.5000000000001
 21
2000.000000000001
 31
0.0
  0
LINE
  5
2719
330
1474
100
AcDbEntity
  8
01-寸法線
 62
     4
440
 16777216
 48
4.0
370
    13
100
AcDbLine
 10
437.5
 20
1910.000000000001
 30
0.0
 11
437.5
 21
1970.0
 31
0.0
  0
INSERT
  5
271A
330
1474
100
AcDbEntity
  8
01-寸法線
 62
     4
440
 16777216
 48
4.0
370
    13
100
AcDbBlockReference
  2
_Open
 10
437.5
 20
1880.0
 30
0.0
 41
30.0
 42
30.0
 43
30.0
 50
270.0
  0
INSERT
  5
271B
330
1474
100
AcDbEntity
  8
01-寸法線
 62
     4
440
 16777216
 48
4.0
370
    13
100
AcDbBlockReference
  2
_Open
 10
437.5
 20
2000.000000000001
 30
0.0
 41
30.0
 42
30.0
 43
30.0
 50
90.0
  0
MTEXT
  5
271C
330
1474
100
AcDbEntity
  8
01-寸法線
 62
     4
440
 16777216
 48
4.0
100
AcDbMText
 10
407.4999999999997
 20
1940.000000000001
 30
0.0
 40
45.0
 41
0.0
 71
     5
 72
     1
  1
\A1;120
  7
寸法ｽﾀｲﾙ
 11
0.0000000000000001
 21
1.0
 31
0.0
 73
     1
 44
1.0
  0
POINT
  5
271D
330
1474
100
AcDbEntity
  8
Defpoints
 62
     0
440
 16777216
 48
4.0
100
AcDbPoint
 10
677.5000000000001
 20
1880.0
 30
0.0
  0
POINT
  5
271E
330
1474
100
AcDbEntity
  8
Defpoints
 62
     0
440
 16777216
 48
4.0
100
AcDbPoint
 10
527.5000000000001
 20
2000.0
 30
0.0
  0
POINT
  5
271F
330
1474
100
AcDbEntity
  8
Defpoints
 62
     0
440
 16777216
 48
4.0
100
AcDbPoint
 10
437.5
 20
2000.000000000001
 30
0.0
  0
ENDBLK
  5
147F
330
1474
100
AcDbEntity
  8
0
100
AcDbBlockEnd
  0
BLOCK
  5
14A6
330
149C
100
AcDbEntity
  8
0
100
AcDbBlockBegin
  2
*D16
 70
     1
 10
0.0
 20
0.0
 30
0.0
  3
*D16
  1

  0
LINE
  5
2720
330
149C
100
AcDbEntity
  8
01-寸法線
 62
     4
440
 16777216
 48
4.0
370
    13
100
AcDbLine
 10
677.5000000000001
 20
2165.0
 30
0.0
 11
677.5000000000001
 21
2255.0
 31
0.0
  0
LINE
  5
2721
330
149C
100
AcDbEntity
  8
01-寸法線
 62
     4
440
 16777216
 48
4.0
370
    13
100
AcDbLine
 10
1137.5
 20
2165.0
 30
0.0
 11
1137.5
 21
2255.0
 31
0.0
  0
LINE
  5
2722
330
149C
100
AcDbEntity
  8
01-寸法線
 62
     4
440
 16777216
 48
4.0
370
    13
100
AcDbLine
 10
707.5000000000001
 20
2240.000000000001
 30
0.0
 11
1107.5
 21
2240.000000000001
 31
0.0
  0
INSERT
  5
2723
330
149C
100
AcDbEntity
  8
01-寸法線
 62
     4
440
 16777216
 48
4.0
370
    13
100
AcDbBlockReference
  2
_Open
 10
677.5000000000001
 20
2240.000000000001
 30
0.0
 41
30.0
 42
30.0
 43
30.0
 50
180.0
  0
INSERT
  5
2724
330
149C
100
AcDbEntity
  8
01-寸法線
 62
     4
440
 16777216
 48
4.0
370
    13
100
AcDbBlockReference
  2
_Open
 10
1137.5
 20
2240.000000000001
 30
0.0
 41
30.0
 42
30.0
 43
30.0
  0
MTEXT
  5
2725
330
149C
100
AcDbEntity
  8
01-寸法線
 62
     4
440
 16777216
 48
4.0
100
AcDbMText
 10
907.5000000000001
 20
2270.000000000001
 30
0.0
 40
45.0
 41
0.0
 71
     5
 72
     1
  1
\A1;460
  7
寸法ｽﾀｲﾙ
 73
     1
 44
1.0
  0
POINT
  5
2726
330
149C
100
AcDbEntity
  8
Defpoints
 62
     0
440
 16777216
 48
4.0
100
AcDbPoint
 10
677.5000000000001
 20
2150.0
 30
0.0
  0
POINT
  5
2727
330
149C
100
AcDbEntity
  8
Defpoints
 62
     0
440
 16777216
 48
4.0
100
AcDbPoint
 10
1137.5
 20
2150.0
 30
0.0
  0
POINT
  5
2728
330
149C
100
AcDbEntity
  8
Defpoints
 62
     0
440
 16777216
 48
4.0
100
AcDbPoint
 10
1137.5
 20
2240.000000000001
 30
0.0
  0
ENDBLK
  5
14A7
330
149C
100
AcDbEntity
  8
0
100
AcDbBlockEnd
  0
BLOCK
  5
14B6
330
14AA
100
AcDbEntity
  8
0
100
AcDbBlockBegin
  2
*D17
 70
     1
 10
0.0
 20
0.0
 30
0.0
  3
*D17
  1

  0
LINE
  5
2729
330
14AA
100
AcDbEntity
  8
01-寸法線
 62
     4
440
 16777216
 48
4.0
370
    13
100
AcDbLine
 10
1137.5
 20
2165.0
 30
0.0
 11
1137.5
 21
2255.0
 31
0.0
  0
LINE
  5
272A
330
14AA
100
AcDbEntity
  8
01-寸法線
 62
     4
440
 16777216
 48
4.0
370
    13
100
AcDbLine
 10
1172.5
 20
1965.0
 30
0.0
 11
1172.5
 21
2255.0
 31
0.0
  0
LINE
  5
272B
330
14AA
100
AcDbEntity
  8
01-寸法線
 62
     4
440
 16777216
 48
4.0
370
    13
100
AcDbLine
 10
1107.5
 20
2240.000000000001
 30
0.0
 11
1077.5
 21
2240.000000000001
 31
0.0
  0
LINE
  5
272C
330
14AA
100
AcDbEntity
  8
01-寸法線
 62
     4
440
 16777216
 48
4.0
370
    13
100
AcDbLine
 10
1202.5
 20
2240.000000000001
 30
0.0
 11
1232.5
 21
2240.000000000001
 31
0.0
  0
MTEXT
  5
272D
330
14AA
100
AcDbEntity
  8
01-寸法線
 62
     4
440
 16777216
 48
4.0
100
AcDbMText
 10
1202.5
 20
2270.000000000001
 30
0.0
 40
45.0
 41
0.0
 71
     5
 72
     1
  1
\A1;35
  7
寸法ｽﾀｲﾙ
 73
     1
 44
1.0
  0
LINE
  5
272E
330
14AA
100
AcDbEntity
  8
01-寸法線
 62
     4
440
 16777216
 48
4.0
370
    13
100
AcDbLine
 10
1137.5
 20
2240.000000000001
 30
0.0
 11
1172.5
 21
2240.000000000001
 31
0.0
  0
INSERT
  5
272F
330
14AA
100
AcDbEntity
  8
01-寸法線
 62
     4
440
 16777216
 48
4.0
370
    13
100
AcDbBlockReference
  2
_Open
 10
1137.5
 20
2240.000000000001
 30
0.0
 41
30.0
 42
30.0
 43
30.0
  0
INSERT
  5
2730
330
14AA
100
AcDbEntity
  8
01-寸法線
 62
     4
440
 16777216
 48
4.0
370
    13
100
AcDbBlockReference
  2
_Open
 10
1172.5
 20
2240.000000000001
 30
0.0
 41
30.0
 42
30.0
 43
30.0
 50
180.0
  0
POINT
  5
2731
330
14AA
100
AcDbEntity
  8
Defpoints
 62
     0
440
 16777216
 48
4.0
100
AcDbPoint
 10
1137.5
 20
2150.0
 30
0.0
  0
POINT
  5
2732
330
14AA
100
AcDbEntity
  8
Defpoints
 62
     0
440
 16777216
 48
4.0
100
AcDbPoint
 10
1172.5
 20
1950.0
 30
0.0
  0
POINT
  5
2733
330
14AA
100
AcDbEntity
  8
Defpoints
 62
     0
440
 16777216
 48
4.0
100
AcDbPoint
 10
1172.5
 20
2240.000000000001
 30
0.0
  0
ENDBLK
  5
14B7
330
14AA
100
AcDbEntity
  8
0
100
AcDbBlockEnd
  0
BLOCK
  5
1C99
330
1C8F
100
AcDbEntity
  8
0
100
AcDbBlockBegin
  2
*D18
 70
     1
 10
0.0
 20
0.0
 30
0.0
  3
*D18
  1

  0
LINE
  5
2734
330
1C8F
100
AcDbEntity
  8
01-寸法線
 62
     4
440
 16777216
 48
4.0
370
    13
100
AcDbLine
 10
677.5000000000001
 20
2255.0
 30
0.0
 11
677.5000000000001
 21
2345.000000000001
 31
0.0
  0
LINE
  5
2735
330
1C8F
100
AcDbEntity
  8
01-寸法線
 62
     4
440
 16777216
 48
4.0
370
    13
100
AcDbLine
 10
1172.5
 20
2255.0
 30
0.0
 11
1172.5
 21
2345.000000000001
 31
0.0
  0
LINE
  5
2736
330
1C8F
100
AcDbEntity
  8
01-寸法線
 62
     4
440
 16777216
 48
4.0
370
    13
100
AcDbLine
 10
707.5000000000001
 20
2330.000000000001
 30
0.0
 11
1142.5
 21
2330.000000000001
 31
0.0
  0
INSERT
  5
2737
330
1C8F
100
AcDbEntity
  8
01-寸法線
 62
     4
440
 16777216
 48
4.0
370
    13
100
AcDbBlockReference
  2
_Open
 10
677.5000000000001
 20
2330.000000000001
 30
0.0
 41
30.0
 42
30.0
 43
30.0
 50
180.0
  0
INSERT
  5
2738
330
1C8F
100
AcDbEntity
  8
01-寸法線
 62
     4
440
 16777216
 48
4.0
370
    13
100
AcDbBlockReference
  2
_Open
 10
1172.5
 20
2330.000000000001
 30
0.0
 41
30.0
 42
30.0
 43
30.0
  0
MTEXT
  5
2739
330
1C8F
100
AcDbEntity
  8
01-寸法線
 62
     4
440
 16777216
 48
4.0
100
AcDbMText
 10
925.0
 20
2360.000000000001
 30
0.0
 40
45.0
 41
0.0
 71
     5
 72
     1
  1
\A1;495
  7
寸法ｽﾀｲﾙ
 73
     1
 44
1.0
  0
POINT
  5
273A
330
1C8F
100
AcDbEntity
  8
Defpoints
 62
     0
440
 16777216
 48
4.0
100
AcDbPoint
 10
677.5000000000001
 20
2240.000000000001
 30
0.0
  0
POINT
  5
273B
330
1C8F
100
AcDbEntity
  8
Defpoints
 62
     0
440
 16777216
 48
4.0
100
AcDbPoint
 10
1172.5
 20
2240.000000000001
 30
0.0
  0
POINT
  5
273C
330
1C8F
100
AcDbEntity
  8
Defpoints
 62
     0
440
 16777216
 48
4.0
100
AcDbPoint
 10
1172.5
 20
2330.000000000001
 30
0.0
  0
ENDBLK
  5
1C9A
330
1C8F
100
AcDbEntity
  8
0
100
AcDbBlockEnd
  0
ENDSEC
  0
SECTION
  2
ENTITIES
  0
LINE
  5
4A
330
1E
100
AcDbEntity
  8
Defpoints
100
AcDbLine
 10
0.0
 20
3150.0
 30
0.0
 11
4455.0
 21
3150.0
 31
0.0
  0
LINE
  5
4C
330
1E
100
AcDbEntity
  8
Defpoints
100
AcDbLine
 10
4455.0
 20
0.0
 30
0.0
 11
0.0
 21
0.0
 31
0.0
  0
LINE
  5
4D
330
1E
100
AcDbEntity
  8
Defpoints
100
AcDbLine
 10
0.0
 20
0.0
 30
0.0
 11
0.0
 21
3150.0
 31
0.0
  0
LINE
  5
50
330
1E
100
AcDbEntity
  8
11-外枠線
100
AcDbLine
 10
4192.5
 20
150.0000000000004
 30
0.0
 11
262.5
 21
150.0
 31
0.0
  0
LINE
  5
51
330
1E
100
AcDbEntity
  8
11-外枠線
100
AcDbLine
 10
262.5
 20
150.0
 30
0.0
 11
262.5
 21
2850.0
 31
0.0
  0
LINE
  5
52
330
1E
100
AcDbEntity
  8
11-外枠線
100
AcDbLine
 10
4192.5
 20
2850.000000000001
 30
0.0
 11
262.5
 21
2850.0
 31
0.0
  0
TEXT
  5
53
330
1E
100
AcDbEntity
  8
08-下線
100
AcDbText
 10
3202.375
 20
2659.257142857143
 30
0.0
 40
45.0
  1
Ｓ＝１／１５，単位 ｍｍ
 41
0.8
  7
ｵﾘｼﾞﾅﾙｽﾀｲﾙ
 11
3202.375
 21
2650.0
 31
0.0
100
AcDbText
 73
     1
  0
TEXT
  5
55
330
1E
100
AcDbEntity
  8
08-下線
100
AcDbText
 10
1396.7
 20
2479.314285714286
 30
0.0
 40
55.0
  1
ｌ＝２０００
 41
0.5999999999999999
  7
ｵﾘｼﾞﾅﾙｽﾀｲﾙ
 11
1396.7
 21
2468.000000000001
 31
0.0
100
AcDbText
 73
     1
  0
TEXT
  5
CF
330
1E
100
AcDbEntity
  8
08-下線
100
AcDbText
 10
819.6942857142857
 20
2479.314285714286
 30
0.0
 40
55.0
  1
%%U３種 ２５０
 41
0.8
  7
ｵﾘｼﾞﾅﾙｽﾀｲﾙ
 11
819.6942857142857
 21
2468.000000000001
 31
0.0
100
AcDbText
 73
     1
  0
LINE
  5
D1
330
1E
100
AcDbEntity
  8
02-外形線
100
AcDbLine
 10
677.5
 20
2000.0
 30
0.0
 11
722.5
 21
2000.0
 31
0.0
  0
LINE
  5
D2
330
1E
100
AcDbEntity
  8
02-外形線
100
AcDbLine
 10
722.5
 20
2000.0
 30
0.0
 11
727.5
 21
1910.000000000001
 31
0.0
  0
LINE
  5
D3
330
1E
100
AcDbEntity
  8
02-外形線
100
AcDbLine
 10
727.5
 20
1910.000000000001
 30
0.0
 11
782.5000000000001
 21
1910.000000000001
 31
0.0
  0
LINE
  5
D4
330
1E
100
AcDbEntity
  8
02-外形線
100
AcDbLine
 10
1032.5
 20
1910.000000000001
 30
0.0
 11
1087.5
 21
1910.000000000001
 31
0.0
  0
LINE
  5
D5
330
1E
100
AcDbEntity
  8
02-外形線
100
AcDbLine
 10
1087.5
 20
1910.000000000001
 30
0.0
 11
1092.5
 21
2000.0
 31
0.0
  0
LINE
  5
D6
330
1E
100
AcDbEntity
  8
02-外形線
100
AcDbLine
 10
1092.5
 20
2000.0
 30
0.0
 11
1137.5
 21
2000.0
 31
0.0
  0
LINE
  5
D7
330
1E
100
AcDbEntity
  8
02-外形線
100
AcDbLine
 10
677.5
 20
2000.0
 30
0.0
 11
677.5
 21
1880.0
 31
0.0
  0
LINE
  5
D9
330
1E
100
AcDbEntity
  8
02-外形線
100
AcDbLine
 10
677.5
 20
1880.0
 30
0.0
 11
727.5
 21
1793.397459621556
 31
0.0
  0
LINE
  5
DA
330
1E
100
AcDbEntity
  8
02-外形線
100
AcDbLine
 10
1172.5
 20
1900.621778264911
 30
0.0
 11
1087.5
 21
1753.397459621557
 31
0.0
  0
LINE
  5
DB
330
1E
100
AcDbEntity
  8
02-外形線
100
AcDbLine
 10
727.5
 20
1625.000000000001
 30
0.0
 11
757.5
 21
1595.0
 31
0.0
  0
LINE
  5
DC
330
1E
100
AcDbEntity
  8
02-外形線
100
AcDbLine
 10
1087.5
 20
1625.000000000001
 30
0.0
 11
1057.5
 21
1595.0
 31
0.0
  0
LINE
  5
DD
330
1E
100
AcDbEntity
  8
02-外形線
100
AcDbLine
 10
757.5
 20
1595.0
 30
0.0
 11
1057.5
 21
1595.0
 31
0.0
  0
LINE
  5
DE
330
1E
100
AcDbEntity
  8
02-外形線
100
AcDbLine
 10
727.5
 20
1793.397459621556
 30
0.0
 11
727.5
 21
1625.000000000001
 31
0.0
  0
LINE
  5
DF
330
1E
100
AcDbEntity
  8
02-外形線
100
AcDbLine
 10
1087.5
 20
1793.397459621556
 30
0.0
 11
1087.5
 21
1625.000000000001
 31
0.0
  0
LINE
  5
E0
330
1E
100
AcDbEntity
  8
02-外形線
100
AcDbLine
 10
1757.5
 20
2000.0
 30
0.0
 11
3757.5
 21
2000.0
 31
0.0
  0
LINE
  5
E1
330
1E
100
AcDbEntity
  8
03-隠れ線
 48
4.0
100
AcDbLine
 10
1757.5
 20
1910.000000000001
 30
0.0
 11
3757.5
 21
1910.000000000001
 31
0.0
  0
LINE
  5
E2
330
1E
100
AcDbEntity
  8
03-隠れ線
 48
4.0
100
AcDbLine
 10
1757.5
 20
1880.0
 30
0.0
 11
3757.5
 21
1880.0
 31
0.0
  0
LINE
  5
E3
330
1E
100
AcDbEntity
  8
03-隠れ線
 48
4.0
100
AcDbLine
 10
1757.5
 20
1793.397459621556
 30
0.0
 11
3757.5
 21
1793.397459621556
 31
0.0
  0
LINE
  5
E8
330
1E
100
AcDbEntity
  8
02-外形線
100
AcDbLine
 10
1757.5
 20
1625.000000000001
 30
0.0
 11
3757.5
 21
1625.000000000001
 31
0.0
  0
LINE
  5
E9
330
1E
100
AcDbEntity
  8
03-隠れ線
 48
4.0
100
AcDbLine
 10
1767.5
 20
1910.000000000001
 30
0.0
 11
1767.5
 21
1639.000000000001
 31
0.0
  0
LINE
  5
EA
330
1E
100
AcDbEntity
  8
03-隠れ線
 48
4.0
100
AcDbLine
 10
1767.5
 20
1639.000000000001
 30
0.0
 11
1757.5
 21
1635.000000000001
 31
0.0
  0
LINE
  5
EB
330
1E
100
AcDbEntity
  8
03-隠れ線
 48
4.0
100
AcDbLine
 10
3747.5
 20
1910.000000000001
 30
0.0
 11
3747.5
 21
1639.000000000001
 31
0.0
  0
LINE
  5
EC
330
1E
100
AcDbEntity
  8
03-隠れ線
 48
4.0
100
AcDbLine
 10
3747.5
 20
1639.000000000001
 30
0.0
 11
3757.5
 21
1635.000000000001
 31
0.0
  0
LINE
  5
ED
330
1E
100
AcDbEntity
  8
03-隠れ線
 48
4.0
100
AcDbLine
 10
1767.5
 20
1660.000000000001
 30
0.0
 11
3747.5
 21
1660.000000000001
 31
0.0
  0
LINE
  5
EE
330
1E
100
AcDbEntity
  8
02-外形線
100
AcDbLine
 10
1757.5
 20
1605.000000000001
 30
0.0
 11
1767.5
 21
1595.0
 31
0.0
  0
LINE
  5
EF
330
1E
100
AcDbEntity
  8
02-外形線
100
AcDbLine
 10
1757.5
 20
1605.000000000001
 30
0.0
 11
1757.5
 21
2000.0
 31
0.0
  0
LINE
  5
F0
330
1E
100
AcDbEntity
  8
02-外形線
100
AcDbLine
 10
3757.5
 20
1605.000000000001
 30
0.0
 11
3747.5
 21
1595.0
 31
0.0
  0
LINE
  5
F1
330
1E
100
AcDbEntity
  8
02-外形線
100
AcDbLine
 10
3757.5
 20
2000.0
 30
0.0
 11
3757.5
 21
1605.000000000001
 31
0.0
  0
LINE
  5
F2
330
1E
100
AcDbEntity
  8
02-外形線
100
AcDbLine
 10
3747.5
 20
1595.0
 30
0.0
 11
1767.5
 21
1595.0
 31
0.0
  0
LINE
  5
125
330
1E
100
AcDbEntity
  8
02-外形線
100
AcDbLine
 10
790.5799360766977
 20
1708.001598082557
 30
0.0
 11
782.5000000000001
 21
1910.000000000001
 31
0.0
  0
ARC
  5
126
330
1E
100
AcDbEntity
  8
02-外形線
100
AcDbCircle
 10
840.539984012787
 20
1710.000000000001
 30
0.0
 40
50.0
100
AcDbArc
 50
182.2906100426384
 51
270.0
  0
LINE
  5
127
330
1E
100
AcDbEntity
  8
02-外形線
100
AcDbLine
 10
1024.420063923302
 20
1708.001598082557
 30
0.0
 11
1032.5
 21
1910.000000000001
 31
0.0
  0
LINE
  5
128
330
1E
100
AcDbEntity
  8
02-外形線
100
AcDbLine
 10
974.4600159872128
 20
1660.000000000001
 30
0.0
 11
840.539984012787
 21
1660.000000000001
 31
0.0
  0
ARC
  5
129
330
1E
100
AcDbEntity
  8
02-外形線
100
AcDbCircle
 10
974.4600159872128
 20
1710.000000000001
 30
0.0
 40
50.0
100
AcDbArc
 50
270.0
 51
357.7093899573615
  0
LINE
  5
12A
330
1E
100
AcDbEntity
  8
01-寸法線
  6
Continuous
 62
     4
100
AcDbLine
 10
1002.5
 20
1660.000000000001
 30
0.0
 11
1022.5
 21
1660.000000000001
 31
0.0
  0
LINE
  5
12B
330
1E
100
AcDbEntity
  8
01-寸法線
  6
Continuous
 62
     4
100
AcDbLine
 10
1023.299360766977
 20
1679.984019174437
 30
0.0
 11
1022.5
 21
1660.000000000001
 31
0.0
  0
LINE
  5
12F
330
1E
100
AcDbEntity
  8
01-寸法線
  6
Continuous
 62
     4
100
AcDbLine
 10
812.5
 20
1660.000000000001
 30
0.0
 11
792.4999999999999
 21
1660.000000000001
 31
0.0
  0
LINE
  5
130
330
1E
100
AcDbEntity
  8
01-寸法線
  6
Continuous
 62
     4
100
AcDbLine
 10
791.7006392330224
 20
1679.984019174437
 30
0.0
 11
792.4999999999999
 21
1660.000000000001
 31
0.0
  0
CIRCLE
  5
264
330
1E
100
AcDbEntity
  8
02-外形線
100
AcDbCircle
 10
2757.5
 20
1770.000000000001
 30
0.0
 40
13.25
  0
CIRCLE
  5
265
330
1E
100
AcDbEntity
  8
03-隠れ線
 48
4.0
100
AcDbCircle
 10
2757.5
 20
1770.000000000001
 30
0.0
 40
18.25
  0
LINE
  5
266
330
1E
100
AcDbEntity
  8
01-寸法線
  6
CENTER1
 62
     4
 48
4.0
100
AcDbLine
 10
2707.5
 20
1770.000000000001
 30
0.0
 11
2807.500000000001
 21
1770.000000000001
 31
0.0
  0
LINE
  5
267
330
1E
100
AcDbEntity
  8
01-寸法線
  6
CENTER1
 62
     4
 48
4.0
100
AcDbLine
 10
2757.5
 20
1820.000000000001
 30
0.0
 11
2757.5
 21
1720.0
 31
0.0
  0
LINE
  5
268
330
1E
100
AcDbEntity
  8
01-寸法線
 62
     4
100
AcDbLine
 10
2760.929352347608
 20
1782.798517198331
 30
0.0
 11
2763.544024630038
 21
1812.684358141083
 31
0.0
  0
LINE
  5
269
330
1E
100
AcDbEntity
  8
01-寸法線
 62
     4
100
AcDbLine
 10
2760.929352347608
 20
1782.798517198331
 30
0.0
 11
2773.607900199829
 21
1809.987750809431
 31
0.0
  0
LINE
  5
26A
330
1E
100
AcDbEntity
  8
01-寸法線
 62
     4
100
AcDbLine
 10
2760.929352347608
 20
1782.798517198331
 30
0.0
 11
2852.62196331305
 21
2125.000000000003
 31
0.0
  0
TEXT
  5
26B
330
1E
100
AcDbEntity
  8
08-下線
100
AcDbText
 10
2863.464820455907
 20
2137.500000000002
 30
0.0
 40
45.0
  1
吊キャップ
 41
0.8
  7
ｵﾘｼﾞﾅﾙｽﾀｲﾙ
 72
     1
 11
2995.12196331305
 21
2160.000000000002
 31
0.0
100
AcDbText
 73
     2
  0
LINE
  5
26C
330
1E
100
AcDbEntity
  8
01-寸法線
 62
     4
100
AcDbLine
 10
2852.62196331305
 20
2125.000000000003
 30
0.0
 11
3137.62196331305
 21
2125.000000000003
 31
0.0
  0
LINE
  5
286
330
1E
100
AcDbEntity
  8
01-寸法線
 62
     4
100
AcDbLine
 10
1762.5
 20
1600.0
 30
0.0
 11
1607.5
 21
1445.0
 31
0.0
  0
LINE
  5
287
330
1E
100
AcDbEntity
  8
01-寸法線
 62
     4
100
AcDbLine
 10
1762.5
 20
1600.0
 30
0.0
 11
1737.92543867133
 21
1582.79270690947
 31
0.0
  0
LINE
  5
288
330
1E
100
AcDbEntity
  8
01-寸法線
 62
     4
100
AcDbLine
 10
1762.5
 20
1600.0
 30
0.0
 11
1745.292706909469
 21
1575.425438671331
 31
0.0
  0
LINE
  5
289
330
1E
100
AcDbEntity
  8
01-寸法線
 62
     4
100
AcDbLine
 10
3752.5
 20
1600.000000000002
 30
0.0
 11
3777.07456132867
 21
1582.79270690947
 31
0.0
  0
LINE
  5
28A
330
1E
100
AcDbEntity
  8
01-寸法線
 62
     4
100
AcDbLine
 10
3752.5
 20
1600.000000000002
 30
0.0
 11
3769.707293090531
 21
1575.425438671331
 31
0.0
  0
LINE
  5
28B
330
1E
100
AcDbEntity
  8
01-寸法線
 62
     4
100
AcDbLine
 10
3752.5
 20
1600.000000000002
 30
0.0
 11
3907.5
 21
1445.0
 31
0.0
  0
TEXT
  5
28C
330
1E
100
AcDbEntity
  8
01-寸法線
 62
     4
100
AcDbText
 10
1510.665571428571
 20
1454.257142857143
 30
0.0
 40
45.0
  1
10c
 41
0.8599999999999999
  7
ｵﾘｼﾞﾅﾙｽﾀｲﾙ
 72
     1
 11
1553.125
 21
1445.0
 31
0.0
100
AcDbText
 73
     1
  0
LINE
  5
28D
330
1E
100
AcDbEntity
  8
01-寸法線
 62
     4
100
AcDbLine
 10
1498.75
 20
1445.0
 30
0.0
 11
1607.5
 21
1445.0
 31
0.0
  0
LINE
  5
2D0
330
1E
100
AcDbEntity
  8
03-隠れ線
 48
4.0
100
AcDbLine
 10
1069.0
 20
1778.25
 30
0.0
 11
1087.5
 21
1778.25
 31
0.0
  0
LINE
  5
2D1
330
1E
100
AcDbEntity
  8
03-隠れ線
 48
4.0
100
AcDbLine
 10
1069.0
 20
1751.750000000001
 30
0.0
 11
1087.5
 21
1751.750000000001
 31
0.0
  0
LINE
  5
2D2
330
1E
100
AcDbEntity
  8
03-隠れ線
 48
4.0
100
AcDbLine
 10
1045.0
 20
1778.25
 30
0.0
 11
1045.0
 21
1751.750000000001
 31
0.0
  0
LINE
  5
2D3
330
1E
100
AcDbEntity
  8
03-隠れ線
 48
4.0
100
AcDbLine
 10
1049.0
 20
1783.25
 30
0.0
 11
1056.0
 21
1783.25
 31
0.0
  0
LINE
  5
2D4
330
1E
100
AcDbEntity
  8
03-隠れ線
 48
4.0
100
AcDbLine
 10
1049.0
 20
1746.750000000001
 30
0.0
 11
1056.0
 21
1746.750000000001
 31
0.0
  0
LINE
  5
2D5
330
1E
100
AcDbEntity
  8
03-隠れ線
 48
4.0
100
AcDbLine
 10
1045.0
 20
1778.25
 30
0.0
 11
1049.0
 21
1783.25
 31
0.0
  0
LINE
  5
2D6
330
1E
100
AcDbEntity
  8
03-隠れ線
 48
4.0
100
AcDbLine
 10
1045.0
 20
1751.750000000001
 30
0.0
 11
1049.0
 21
1746.750000000001
 31
0.0
  0
LINE
  5
2D7
330
1E
100
AcDbEntity
  8
03-隠れ線
 48
4.0
100
AcDbLine
 10
1056.0
 20
1783.25
 30
0.0
 11
1069.0
 21
1778.25
 31
0.0
  0
LINE
  5
2D8
330
1E
100
AcDbEntity
  8
03-隠れ線
 48
4.0
100
AcDbLine
 10
1056.0
 20
1746.750000000001
 30
0.0
 11
1069.0
 21
1751.750000000001
 31
0.0
  0
LINE
  5
2D9
330
1E
100
AcDbEntity
  8
06-中心線
  6
CENTER1
 62
     4
 48
4.0
100
AcDbLine
 10
1015.0
 20
1765.0
 30
0.0
 11
1117.5
 21
1765.0
 31
0.0
  0
LINE
  5
2DA
330
1E
100
AcDbEntity
  8
03-隠れ線
 48
4.0
100
AcDbLine
 10
745.9999999999996
 20
1751.750000000001
 30
0.0
 11
727.5
 21
1751.750000000001
 31
0.0
  0
LINE
  5
2DB
330
1E
100
AcDbEntity
  8
03-隠れ線
 48
4.0
100
AcDbLine
 10
745.9999999999996
 20
1778.25
 30
0.0
 11
727.5
 21
1778.25
 31
0.0
  0
LINE
  5
2DC
330
1E
100
AcDbEntity
  8
03-隠れ線
 48
4.0
100
AcDbLine
 10
769.9999999999996
 20
1751.750000000001
 30
0.0
 11
769.9999999999996
 21
1778.25
 31
0.0
  0
LINE
  5
2DD
330
1E
100
AcDbEntity
  8
03-隠れ線
 48
4.0
100
AcDbLine
 10
766.0
 20
1746.750000000001
 30
0.0
 11
758.9999999999995
 21
1746.750000000001
 31
0.0
  0
LINE
  5
2DE
330
1E
100
AcDbEntity
  8
03-隠れ線
 48
4.0
100
AcDbLine
 10
766.0
 20
1783.250000000001
 30
0.0
 11
758.9999999999995
 21
1783.250000000001
 31
0.0
  0
LINE
  5
2DF
330
1E
100
AcDbEntity
  8
03-隠れ線
 48
4.0
100
AcDbLine
 10
769.9999999999996
 20
1751.750000000001
 30
0.0
 11
766.0
 21
1746.750000000001
 31
0.0
  0
LINE
  5
2E0
330
1E
100
AcDbEntity
  8
03-隠れ線
 48
4.0
100
AcDbLine
 10
769.9999999999996
 20
1778.25
 30
0.0
 11
766.0
 21
1783.250000000001
 31
0.0
  0
LINE
  5
2E3
330
1E
100
AcDbEntity
  8
06-中心線
  6
CENTER1
 62
     4
 48
4.0
100
AcDbLine
 10
799.9999999999996
 20
1765.0
 30
0.0
 11
697.4999999999995
 21
1765.0
 31
0.0
  0
LINE
  5
2E4
330
1E
100
AcDbEntity
  8
02-外形線
100
AcDbLine
 10
765.5999121086529
 20
1707.002397123835
 30
0.0
 11
757.4800079936067
 21
1910.000000000001
 31
0.0
  0
ARC
  5
2E5
330
1E
100
AcDbEntity
  8
02-外形線
100
AcDbCircle
 10
840.539984012787
 20
1710.000000000001
 30
0.0
 40
75.0
100
AcDbArc
 50
182.2906100426384
 51
270.0
  0
LINE
  5
2E6
330
1E
100
AcDbEntity
  8
02-外形線
100
AcDbLine
 10
1049.400087891347
 20
1707.002397123835
 30
0.0
 11
1057.519992006393
 21
1910.000000000001
 31
0.0
  0
LINE
  5
2E7
330
1E
100
AcDbEntity
  8
02-外形線
100
AcDbLine
 10
974.4600159872128
 20
1635.000000000001
 30
0.0
 11
840.539984012787
 21
1635.000000000001
 31
0.0
  0
ARC
  5
2E8
330
1E
100
AcDbEntity
  8
02-外形線
100
AcDbCircle
 10
974.4600159872128
 20
1710.000000000001
 30
0.0
 40
75.0
100
AcDbArc
 50
270.0
 51
357.7093899573615
  0
LINE
  5
305
330
1E
100
AcDbEntity
  8
01-寸法線
  6
Continuous
 62
     4
100
AcDbLine
 10
727.5
 20
1445.0
 30
0.0
 11
652.5
 21
1445.0
 31
0.0
  0
LINE
  5
30F
330
1E
100
AcDbEntity
  8
01-寸法線
  6
Continuous
 62
     4
100
AcDbLine
 10
1087.5
 20
1445.0
 30
0.0
 11
1162.5
 21
1445.0
 31
0.0
  0
LINE
  5
339
330
1E
100
AcDbEntity
  8
01-寸法線
 62
     4
100
AcDbLine
 10
1087.5
 20
1580.000000000001
 30
0.0
 11
1087.5
 21
1684.774440630013
 31
0.0
  0
LINE
  5
33A
330
1E
100
AcDbEntity
  8
01-寸法線
 62
     4
100
AcDbLine
 10
1087.5
 20
1595.0
 30
0.0
 11
1087.5
 21
1730.0000015
 31
0.0
  0
ARC
  5
33B
330
1E
100
AcDbEntity
  8
01-寸法線
 62
     4
100
AcDbCircle
 10
1087.5
 20
1595.0
 30
0.0
 40
120.0000015
100
AcDbArc
 50
0.0
 51
90.0
  0
LINE
  5
33C
330
1E
100
AcDbEntity
  8
01-寸法線
 62
     4
100
AcDbLine
 10
1087.5
 20
1595.0
 30
0.0
 11
1222.5000015
 21
1595.0
 31
0.0
  0
TEXT
  5
33D
330
1E
100
AcDbEntity
  8
01-寸法線
 62
     4
100
AcDbText
 10
1158.490126285708
 20
1701.293593866604
 30
0.0
 40
45.0
  1
90ﾟ
 50
315.0
 41
0.8
  7
ｵﾘｼﾞﾅﾙｽﾀｲﾙ
 72
     1
 11
1179.873035348789
 21
1666.819107826127
 31
0.0
100
AcDbText
 73
     1
  0
LINE
  5
33E
330
1E
100
AcDbEntity
  8
01-寸法線
 62
     4
100
AcDbLine
 10
1087.5
 20
1715.000001500001
 30
0.0
 11
1117.385840942753
 21
1717.61467378243
 31
0.0
  0
LINE
  5
33F
330
1E
100
AcDbEntity
  8
01-寸法線
 62
     4
100
AcDbLine
 10
1087.5
 20
1715.000001500001
 30
0.0
 11
1116.477774788673
 21
1707.235430146925
 31
0.0
  0
LINE
  5
340
330
1E
100
AcDbEntity
  8
01-寸法線
 62
     4
100
AcDbLine
 10
1207.5000015
 20
1595.0
 30
0.0
 11
1199.735430146925
 21
1623.977774788672
 31
0.0
  0
LINE
  5
341
330
1E
100
AcDbEntity
  8
01-寸法線
 62
     4
100
AcDbLine
 10
1207.5000015
 20
1595.0
 30
0.0
 11
1210.11467378243
 21
1624.885840942753
 31
0.0
  0
ARC
  5
342
330
1E
100
AcDbEntity
  8
01-寸法線
 62
     4
100
AcDbCircle
 10
727.4999999999995
 20
1793.397459621556
 30
0.0
 40
90.00000150000003
100
AcDbArc
 50
120.0
 51
180.0
  0
LINE
  5
343
330
1E
100
AcDbEntity
  8
01-寸法線
 62
     4
100
AcDbLine
 10
727.4999999999995
 20
1793.397459621556
 30
0.0
 11
622.4999985000001
 21
1793.397459621556
 31
0.0
  0
TEXT
  5
344
330
1E
100
AcDbEntity
  8
01-寸法線
 62
     4
100
AcDbText
 10
630.1506908578796
 20
1820.900206802069
 30
0.0
 40
45.0
  1
60ﾟ
 50
60.00000000000279
 41
0.8
  7
ｵﾘｼﾞﾅﾙｽﾀｲﾙ
 72
     1
 11
657.916183167197
 21
1850.477164464688
 31
0.0
100
AcDbText
 73
     1
  0
LINE
  5
345
330
1E
100
AcDbEntity
  8
01-寸法線
 62
     4
100
AcDbLine
 10
637.4999985000002
 20
1793.397459621558
 30
0.0
 11
634.8853262175696
 21
1823.283300564309
 31
0.0
  0
LINE
  5
346
330
1E
100
AcDbEntity
  8
01-寸法線
 62
     4
100
AcDbLine
 10
637.4999985000002
 20
1793.397459621558
 30
0.0
 11
645.2645698530755
 21
1822.375234410229
 31
0.0
  0
LINE
  5
347
330
1E
100
AcDbEntity
  8
01-寸法線
 62
     4
100
AcDbLine
 10
682.4999992499997
 20
1871.339747261195
 30
0.0
 11
661.2867958144033
 21
1850.126543825598
 31
0.0
  0
LINE
  5
348
330
1E
100
AcDbEntity
  8
01-寸法線
 62
     4
100
AcDbLine
 10
682.4999992499997
 20
1871.339747261195
 30
0.0
 11
655.3107656389006
 21
1858.661199408973
 31
0.0
  0
LINE
  5
357
330
1E
100
AcDbEntity
  8
01-寸法線
 62
     4
100
AcDbLine
 10
802.3571532833532
 20
1677.718868708061
 30
0.0
 11
901.3521026494698
 21
1776.713818074179
 31
0.0
  0
LINE
  5
358
330
1E
100
AcDbEntity
  8
01-寸法線
 62
     4
100
AcDbLine
 10
802.3571532833532
 20
1677.718868708061
 30
0.0
 11
819.5644463738846
 21
1702.293430036731
 31
0.0
  0
LINE
  5
359
330
1E
100
AcDbEntity
  8
01-寸法線
 62
     4
100
AcDbLine
 10
802.3571532833532
 20
1677.718868708061
 30
0.0
 11
826.9317146120226
 21
1694.926161798593
 31
0.0
  0
TEXT
  5
35A
330
1E
100
AcDbEntity
  8
01-寸法線
 62
     4
100
AcDbText
 10
833.2900445026334
 20
1721.743336904734
 30
0.0
 40
45.0
  1
50r
 50
45.0000000000046
 41
0.8
  7
ｵﾘｼﾞﾅﾙｽﾀｲﾙ
 72
     1
 11
867.7645305431095
 21
1743.126245967818
 31
0.0
100
AcDbText
 73
     1
  0
ARC
  5
35D
330
1E
100
AcDbEntity
  8
01-寸法線
 62
     4
100
AcDbCircle
 10
757.5
 20
1595.0
 30
0.0
 40
120.0000015
100
AcDbArc
 50
135.0
 51
180.0
  0
LINE
  5
35E
330
1E
100
AcDbEntity
  8
01-寸法線
 62
     4
100
AcDbLine
 10
757.5
 20
1595.0
 30
0.0
 11
622.4999984999994
 21
1595.0
 31
0.0
  0
LINE
  5
35F
330
1E
100
AcDbEntity
  8
01-寸法線
 62
     4
100
AcDbLine
 10
757.5
 20
1595.0
 30
0.0
 11
662.0405834791554
 21
1690.459416520845
 31
0.0
  0
TEXT
  5
360
330
1E
100
AcDbEntity
  8
01-寸法線
 62
     4
100
AcDbText
 10
628.5425529224315
 20
1620.440448202985
 30
0.0
 40
45.0
  1
45ﾟ
 50
67.50000000000281
 41
0.8
  7
ｵﾘｼﾞﾅﾙｽﾀｲﾙ
 72
     1
 11
652.2099399348631
 21
1653.38849487891
 31
0.0
100
AcDbText
 73
     1
  0
LINE
  5
361
330
1E
100
AcDbEntity
  8
01-寸法線
 62
     4
100
AcDbLine
 10
637.4999984999995
 20
1595.0
 30
0.0
 11
645.264569853075
 21
1623.977774788672
 31
0.0
  0
LINE
  5
362
330
1E
100
AcDbEntity
  8
01-寸法線
 62
     4
100
AcDbLine
 10
637.4999984999995
 20
1595.0
 30
0.0
 11
634.88532621757
 21
1624.885840942752
 31
0.0
  0
LINE
  5
363
330
1E
100
AcDbEntity
  8
01-寸法線
 62
     4
100
AcDbLine
 10
672.6471851969535
 20
1679.852814803046
 30
0.0
 11
649.6658519033849
 21
1660.56918651245
 31
0.0
  0
LINE
  5
364
330
1E
100
AcDbEntity
  8
01-寸法線
 62
     4
100
AcDbLine
 10
672.6471851969535
 20
1679.852814803046
 30
0.0
 11
657.6471851969536
 21
1653.872052689514
 31
0.0
  0
LINE
  5
37B
330
1E
100
AcDbEntity
  8
11-外枠線
100
AcDbLine
 10
4192.5
 20
2850.000000000001
 30
0.0
 11
4192.5
 21
150.0000000000004
 31
0.0
  0
LINE
  5
37D
330
1E
100
AcDbEntity
  8
02-外形線
100
AcDbLine
 10
747.5
 20
1605.000000000001
 30
0.0
 11
1067.5
 21
1605.000000000001
 31
0.0
  0
LINE
  5
3E3
330
1E
100
AcDbEntity
  8
01-寸法線
 62
     4
100
AcDbLine
 10
771.1900039968033
 20
1880.0
 30
0.0
 11
823.1515282238694
 21
1970.0
 31
0.0
  0
TEXT
  5
3E4
330
1E
100
AcDbEntity
  8
08-下線
100
AcDbText
 10
834.1572425095836
 20
1982.500000000001
 30
0.0
 40
45.0
  1
目地部
 41
0.8
  7
ｵﾘｼﾞﾅﾙｽﾀｲﾙ
 72
     1
 11
913.1515282238694
 21
2005.000000000001
 31
0.0
100
AcDbText
 73
     2
  0
LINE
  5
3E5
330
1E
100
AcDbEntity
  8
01-寸法線
 62
     4
100
AcDbLine
 10
823.1515282238694
 20
1970.0
 30
0.0
 11
1003.151528223869
 21
1970.0
 31
0.0
  0
LINE
  5
3E6
330
1E
100
AcDbEntity
  8
01-寸法線
 62
     4
100
AcDbLine
 10
771.1900039968033
 20
1880.0
 30
0.0
 11
781.4506082965731
 21
1908.190778623578
 31
0.0
  0
LINE
  5
3E7
330
1E
100
AcDbEntity
  8
01-寸法線
 62
     4
100
AcDbLine
 10
771.1900039968033
 20
1880.0
 30
0.0
 11
790.4736322873994
 21
1902.981333293569
 31
0.0
  0
TEXT
  5
3E8
330
1E
100
AcDbEntity
  8
09-下線
100
AcDbText
 10
1494.015
 20
2668.514285714286
 30
0.0
 40
90.0
  1
%%U落ちふた式Ｕ形側溝本体(防草タイプ)
 41
0.7
  7
ｵﾘｼﾞﾅﾙｽﾀｲﾙ
 72
     1
 11
2277.375
 21
2650.0
 31
0.0
100
AcDbText
 73
     1
  0
LINE
  5
AC1
330
1E
100
AcDbEntity
  8
01-寸法線
 62
     4
370
    13
100
AcDbLine
 10
722.5
 20
2015.000000000001
 30
0.0
 11
722.5
 21
2165.0
 31
0.0
  0
LINE
  5
AC2
330
1E
100
AcDbEntity
  8
01-寸法線
 62
     4
370
    13
100
AcDbLine
 10
727.5
 20
1925.0
 30
0.0
 11
727.5
 21
2165.0
 31
0.0
  0
LINE
  5
AC3
330
1E
100
AcDbEntity
  8
01-寸法線
 62
     4
370
    13
100
AcDbLine
 10
692.4999999999999
 20
2150.0
 30
0.0
 11
662.5
 21
2150.0
 31
0.0
  0
LINE
  5
AC4
330
1E
100
AcDbEntity
  8
01-寸法線
 62
     4
370
    13
100
AcDbLine
 10
757.5
 20
2150.0
 30
0.0
 11
787.5
 21
2150.0
 31
0.0
  0
LINE
  5
AC5
330
1E
100
AcDbEntity
  8
01-寸法線
100
AcDbLine
 10
722.5
 20
2150.0
 30
0.0
 11
727.5
 21
2150.0
 31
0.0
  0
MTEXT
  5
AC8
330
1E
100
AcDbEntity
  8
01-寸法線
 62
     4
100
AcDbMText
 10
725.0
 20
2120.0
 30
0.0
 40
45.0
 41
0.0
 71
     5
 72
     1
  1
\A1;5
  7
寸法ｽﾀｲﾙ
 73
     1
 44
1.0
  0
LINE
  5
AC9
330
1E
100
AcDbEntity
  8
01-寸法線
 62
     4
370
    13
100
AcDbLine
 10
677.5
 20
2015.000000000001
 30
0.0
 11
677.5
 21
2165.0
 31
0.0
  0
LINE
  5
ACA
330
1E
100
AcDbEntity
  8
01-寸法線
 62
     4
370
    13
100
AcDbLine
 10
722.5
 20
2015.000000000001
 30
0.0
 11
722.5
 21
2165.0
 31
0.0
  0
LINE
  5
ACB
330
1E
100
AcDbEntity
  8
01-寸法線
 62
     4
370
    13
100
AcDbLine
 10
647.5
 20
2150.0
 30
0.0
 11
617.4999999999999
 21
2150.0
 31
0.0
  0
LINE
  5
ACC
330
1E
100
AcDbEntity
  8
01-寸法線
 62
     4
370
    13
100
AcDbLine
 10
752.5000000000001
 20
2150.0
 30
0.0
 11
782.5000000000001
 21
2150.0
 31
0.0
  0
MTEXT
  5
ACD
330
1E
100
AcDbEntity
  8
01-寸法線
 62
     4
100
AcDbMText
 10
700.0
 20
2180.000000000001
 30
0.0
 40
45.0
 41
0.0
 71
     5
 72
     1
  1
\A1;45
  7
寸法ｽﾀｲﾙ
 73
     1
 44
1.0
  0
LINE
  5
ACE
330
1E
100
AcDbEntity
  8
01-寸法線
 62
     4
370
    13
100
AcDbLine
 10
677.5
 20
2150.0
 30
0.0
 11
722.5
 21
2150.0
 31
0.0
  0
INSERT
  5
ACF
330
1E
100
AcDbEntity
  8
01-寸法線
 62
     4
370
    13
100
AcDbBlockReference
  2
_Open
 10
677.5
 20
2150.0
 30
0.0
 41
30.0
 42
30.0
 43
30.0
  0
LINE
  5
AD3
330
1E
100
AcDbEntity
  8
01-寸法線
100
AcDbLine
 10
727.5
 20
2150.0
 30
0.0
 11
757.5
 21
2150.0
 31
0.0
  0
LINE
  5
AD4
330
1E
100
AcDbEntity
  8
01-寸法線
 62
     4
370
    13
100
AcDbLine
 10
782.5000000000001
 20
1925.0
 30
0.0
 11
782.5000000000001
 21
2165.0
 31
0.0
  0
LINE
  5
AD5
330
1E
100
AcDbEntity
  8
01-寸法線
 62
     4
370
    13
100
AcDbLine
 10
1032.5
 20
1925.0
 30
0.0
 11
1032.5
 21
2165.0
 31
0.0
  0
LINE
  5
ADA
330
1E
100
AcDbEntity
  8
01-寸法線
 62
     4
370
    13
100
AcDbLine
 10
727.5
 20
1925.0
 30
0.0
 11
727.5
 21
2165.0
 31
0.0
  0
LINE
  5
ADB
330
1E
100
AcDbEntity
  8
01-寸法線
 62
     4
370
    13
100
AcDbLine
 10
782.5000000000001
 20
1925.0
 30
0.0
 11
782.5000000000001
 21
2165.0
 31
0.0
  0
LINE
  5
ADC
330
1E
100
AcDbEntity
  8
01-寸法線
 62
     4
370
    13
100
AcDbLine
 10
697.5
 20
2150.0
 30
0.0
 11
667.4999999999999
 21
2150.0
 31
0.0
  0
LINE
  5
ADE
330
1E
100
AcDbEntity
  8
01-寸法線
 62
     4
370
    13
100
AcDbLine
 10
727.5
 20
2150.0
 30
0.0
 11
782.5000000000001
 21
2150.0
 31
0.0
  0
MTEXT
  5
AE1
330
1E
100
AcDbEntity
  8
01-寸法線
 62
     4
100
AcDbMText
 10
755.0
 20
2180.000000000001
 30
0.0
 40
45.0
 41
0.0
 71
     5
 72
     1
  1
\A1;55
  7
寸法ｽﾀｲﾙ
 73
     1
 44
1.0
  0
LINE
  5
AE2
330
1E
100
AcDbEntity
  8
01-寸法線
 62
     4
370
    13
100
AcDbLine
 10
1092.5
 20
2015.000000000001
 30
0.0
 11
1092.5
 21
2165.0
 31
0.0
  0
LINE
  5
AE3
330
1E
100
AcDbEntity
  8
01-寸法線
 62
     4
370
    13
100
AcDbLine
 10
1137.5
 20
2015.000000000001
 30
0.0
 11
1137.5
 21
2165.0
 31
0.0
  0
LINE
  5
AE4
330
1E
100
AcDbEntity
  8
01-寸法線
 62
     4
370
    13
100
AcDbLine
 10
1062.5
 20
2150.0
 30
0.0
 11
1032.5
 21
2150.0
 31
0.0
  0
LINE
  5
AE5
330
1E
100
AcDbEntity
  8
01-寸法線
 62
     4
370
    13
100
AcDbLine
 10
1167.5
 20
2150.0
 30
0.0
 11
1197.5
 21
2150.0
 31
0.0
  0
MTEXT
  5
AE6
330
1E
100
AcDbEntity
  8
01-寸法線
 62
     4
100
AcDbMText
 10
1115.0
 20
2180.000000000001
 30
0.0
 40
45.0
 41
0.0
 71
     5
 72
     1
  1
\A1;45
  7
寸法ｽﾀｲﾙ
 73
     1
 44
1.0
  0
LINE
  5
AE7
330
1E
100
AcDbEntity
  8
01-寸法線
 62
     4
370
    13
100
AcDbLine
 10
1092.5
 20
2150.0
 30
0.0
 11
1137.5
 21
2150.0
 31
0.0
  0
INSERT
  5
AE9
330
1E
100
AcDbEntity
  8
01-寸法線
 62
     4
370
    13
100
AcDbBlockReference
  2
_Open
 10
1137.5
 20
2150.0
 30
0.0
 41
30.0
 42
30.0
 43
30.0
 50
180.0
  0
LINE
  5
AEA
330
1E
100
AcDbEntity
  8
01-寸法線
 62
     4
370
    13
100
AcDbLine
 10
1087.5
 20
1925.0
 30
0.0
 11
1087.5
 21
2165.0
 31
0.0
  0
LINE
  5
AEB
330
1E
100
AcDbEntity
  8
01-寸法線
 62
     4
370
    13
100
AcDbLine
 10
1092.5
 20
2015.000000000001
 30
0.0
 11
1092.5
 21
2165.0
 31
0.0
  0
LINE
  5
AEC
330
1E
100
AcDbEntity
  8
01-寸法線
 62
     4
370
    13
100
AcDbLine
 10
1057.5
 20
2150.0
 30
0.0
 11
1027.5
 21
2150.0
 31
0.0
  0
LINE
  5
AED
330
1E
100
AcDbEntity
  8
01-寸法線
 62
     4
370
    13
100
AcDbLine
 10
1122.5
 20
2150.0
 30
0.0
 11
1152.5
 21
2150.0
 31
0.0
  0
LINE
  5
AEE
330
1E
100
AcDbEntity
  8
01-寸法線
 62
     4
370
    13
100
AcDbLine
 10
1087.5
 20
2150.0
 30
0.0
 11
1092.5
 21
2150.0
 31
0.0
  0
MTEXT
  5
AF1
330
1E
100
AcDbEntity
  8
01-寸法線
 62
     4
100
AcDbMText
 10
1090.0
 20
2120.0
 30
0.0
 40
45.0
 41
0.0
 71
     5
 72
     1
  1
\A1;5
  7
寸法ｽﾀｲﾙ
 73
     1
 44
1.0
  0
LINE
  5
AF2
330
1E
100
AcDbEntity
  8
01-寸法線
 62
     4
370
    13
100
AcDbLine
 10
1032.5
 20
1925.0
 30
0.0
 11
1032.5
 21
2165.0
 31
0.0
  0
LINE
  5
AF3
330
1E
100
AcDbEntity
  8
01-寸法線
 62
     4
370
    13
100
AcDbLine
 10
1087.5
 20
1925.0
 30
0.0
 11
1087.5
 21
2165.0
 31
0.0
  0
LINE
  5
AF5
330
1E
100
AcDbEntity
  8
01-寸法線
 62
     4
370
    13
100
AcDbLine
 10
1117.5
 20
2150.0
 30
0.0
 11
1147.5
 21
2150.0
 31
0.0
  0
LINE
  5
AF6
330
1E
100
AcDbEntity
  8
01-寸法線
 62
     4
370
    13
100
AcDbLine
 10
1032.5
 20
2150.0
 30
0.0
 11
1087.5
 21
2150.0
 31
0.0
  0
MTEXT
  5
AF9
330
1E
100
AcDbEntity
  8
01-寸法線
 62
     4
100
AcDbMText
 10
1060.0
 20
2180.000000000001
 30
0.0
 40
45.0
 41
0.0
 71
     5
 72
     1
  1
\A1;55
  7
寸法ｽﾀｲﾙ
 73
     1
 44
1.0
  0
CIRCLE
  5
B16
102
{ACAD_REACTORS
330
B1A
102
}
330
1E
100
AcDbEntity
  8
01-寸法線
100
AcDbCircle
 10
722.5
 20
2150.0
 30
0.0
 40
1.5
  0
HATCH
  5
B1A
330
1E
100
AcDbEntity
  8
01-寸法線
100
AcDbHatch
 10
0.0
 20
0.0
 30
0.0
210
0.0
220
0.0
230
1.0
  2
SOLID
 70
     1
 71
     1
 91
        1
 92
        7
 72
     1
 73
     1
 93
        2
 10
724.0
 20
2150.0
 42
1.0
 10
721.0
 20
2150.0
 42
1.0
 97
        1
330
B16
 75
     0
 76
     1
 47
0.056586623337664
 98
        1
 10
722.3193187777962
 20
2149.910451710812
450
        0
451
        0
460
0.0
461
0.0
452
        0
462
0.0
453
        0
470

  0
HATCH
  5
B1B
330
1E
100
AcDbEntity
  8
01-寸法線
100
AcDbHatch
 10
0.0
 20
0.0
 30
0.0
210
0.0
220
0.0
230
1.0
  2
SOLID
 70
     1
 71
     1
 91
        1
 92
        7
 72
     1
 73
     1
 93
        2
 10
729.0
 20
2150.0
 42
1.0
 10
726.0
 20
2150.0
 42
1.0
 97
        1
330
B1C
 75
     0
 76
     1
 47
0.056586623337664
 98
        1
 10
727.3193187777961
 20
2149.910451710812
450
        0
451
        0
460
0.0
461
0.0
452
        0
462
0.0
453
        0
470

  0
CIRCLE
  5
B1C
102
{ACAD_REACTORS
330
B1B
102
}
330
1E
100
AcDbEntity
  8
01-寸法線
100
AcDbCircle
 10
727.5
 20
2150.0
 30
0.0
 40
1.5
  0
CIRCLE
  5
B1D
102
{ACAD_REACTORS
330
B1E
102
}
330
1E
100
AcDbEntity
  8
01-寸法線
100
AcDbCircle
 10
1087.5
 20
2150.0
 30
0.0
 40
1.5
  0
HATCH
  5
B1E
330
1E
100
AcDbEntity
  8
01-寸法線
100
AcDbHatch
 10
0.0
 20
0.0
 30
0.0
210
0.0
220
0.0
230
1.0
  2
SOLID
 70
     1
 71
     1
 91
        1
 92
        7
 72
     1
 73
     1
 93
        2
 10
1089.0
 20
2150.0
 42
1.0
 10
1086.0
 20
2150.0
 42
1.0
 97
        1
330
B1D
 75
     0
 76
     1
 47
0.056586623337664
 98
        1
 10
1087.319318777796
 20
2149.910451710812
450
        0
451
        0
460
0.0
461
0.0
452
        0
462
0.0
453
        0
470

  0
CIRCLE
  5
B1F
102
{ACAD_REACTORS
330
B20
102
}
330
1E
100
AcDbEntity
  8
01-寸法線
100
AcDbCircle
 10
1092.5
 20
2150.0
 30
0.0
 40
1.5
  0
HATCH
  5
B20
330
1E
100
AcDbEntity
  8
01-寸法線
100
AcDbHatch
 10
0.0
 20
0.0
 30
0.0
210
0.0
220
0.0
230
1.0
  2
SOLID
 70
     1
 71
     1
 91
        1
 92
        7
 72
     1
 73
     1
 93
        2
 10
1094.0
 20
2150.0
 42
1.0
 10
1091.0
 20
2150.0
 42
1.0
 97
        1
330
B1F
 75
     0
 76
     1
 47
0.056586623337664
 98
        1
 10
1092.319318777796
 20
2149.910451710812
450
        0
451
        0
460
0.0
461
0.0
452
        0
462
0.0
453
        0
470

  0
DIMENSION
  5
C1A
330
1E
100
AcDbEntity
  8
01-寸法線
100
AcDbDimension
  2
*D2
 10
527.5000000000001
 20
1910.000000000001
 30
0.0
 11
497.4999999999997
 21
1785.000000000001
 31
0.0
 70
    32
 71
     5
 42
250.0
  3
ｽﾀｲﾙ15
100
AcDbAlignedDimension
 13
792.4999999999999
 23
1660.000000000001
 33
0.0
 14
677.5000000000001
 24
1910.000000000001
 34
0.0
 50
90.0
100
AcDbRotatedDimension
  0
DIMENSION
  5
C27
330
1E
100
AcDbEntity
  8
01-寸法線
100
AcDbDimension
  2
*D3
 10
527.5000000000001
 20
2000.0
 30
0.0
 11
497.4999999999997
 21
1955.000000000001
 31
0.0
 70
    32
 71
     5
 42
89.99999999999976
  3
ｽﾀｲﾙ15
100
AcDbAlignedDimension
 13
677.5000000000001
 23
1910.000000000001
 33
0.0
 14
677.5000000000001
 24
2000.0
 34
0.0
 50
90.0
100
AcDbRotatedDimension
  0
DIMENSION
  5
C43
330
1E
100
AcDbEntity
  8
01-寸法線
100
AcDbDimension
  2
*D4
 10
757.5
 20
1445.0
 30
0.0
 11
690.0
 21
1475.0
 31
0.0
 70
   160
 71
     5
 42
30.0
  3
ｽﾀｲﾙ15
100
AcDbAlignedDimension
 13
727.5
 23
1595.0
 33
0.0
 14
757.5
 24
1595.0
 34
0.0
100
AcDbRotatedDimension
  0
DIMENSION
  5
C52
330
1E
100
AcDbEntity
  8
01-寸法線
100
AcDbDimension
  2
*D5
 10
1087.5
 20
1445.0
 30
0.0
 11
1125.0
 21
1475.0
 31
0.0
 70
   160
 71
     5
 42
30.00000000000023
  3
ｽﾀｲﾙ15
100
AcDbAlignedDimension
 13
1057.5
 23
1595.0
 33
0.0
 14
1087.5
 24
1595.0
 34
0.0
100
AcDbRotatedDimension
  0
DIMENSION
  5
C92
330
1E
100
AcDbEntity
  8
01-寸法線
100
AcDbDimension
  2
*D6
 10
1087.5
 20
1355.000000000001
 30
0.0
 11
907.5000000000001
 21
1385.0
 31
0.0
 70
    32
 71
     5
 42
360.0000000000002
  3
ｽﾀｲﾙ15
100
AcDbAlignedDimension
 13
727.5
 23
1445.0
 33
0.0
 14
1087.5
 24
1445.0
 34
0.0
100
AcDbRotatedDimension
  0
TEXT
  5
CC6
330
1E
100
AcDbEntity
  8
01-寸法線
 62
     4
100
AcDbText
 10
3919.415571428572
 20
1454.257142857143
 30
0.0
 40
45.0
  1
10c
 41
0.8599999999999999
  7
ｵﾘｼﾞﾅﾙｽﾀｲﾙ
 72
     1
 11
3961.875000000001
 21
1445.0
 31
0.0
100
AcDbText
 73
     1
  0
LINE
  5
CC7
330
1E
100
AcDbEntity
  8
01-寸法線
 62
     4
100
AcDbLine
 10
3907.5
 20
1445.0
 30
0.0
 11
4016.250000000001
 21
1445.0
 31
0.0
  0
DIMENSION
  5
CD4
330
1E
100
AcDbEntity
  8
01-寸法線
100
AcDbDimension
  2
*D7
 10
792.4999999999999
 20
1809.000799041279
 30
0.0
 11
760.0
 21
1839.000799041279
 31
0.0
 70
    32
 71
     5
 42
65.0
  3
ｽﾀｲﾙ15
100
AcDbAlignedDimension
 13
727.5
 23
1660.000000000001
 33
0.0
 14
792.4999999999999
 24
1660.000000000001
 34
0.0
100
AcDbRotatedDimension
  0
DIMENSION
  5
CE3
330
1E
100
AcDbEntity
  8
01-寸法線
100
AcDbDimension
  2
*D8
 10
1022.5
 20
1809.000799041279
 30
0.0
 11
907.5000000000001
 21
1839.000799041279
 31
0.0
 70
    32
 71
     5
 42
230.0
  3
ｽﾀｲﾙ15
100
AcDbAlignedDimension
 13
792.4999999999999
 23
1660.000000000001
 33
0.0
 14
1022.5
 24
1660.000000000001
 34
0.0
100
AcDbRotatedDimension
  0
DIMENSION
  5
CF0
330
1E
100
AcDbEntity
  8
01-寸法線
100
AcDbDimension
  2
*D9
 10
1087.5
 20
1809.000799041279
 30
0.0
 11
1055.0
 21
1839.000799041279
 31
0.0
 70
    32
 71
     5
 42
65.00000000000023
  3
ｽﾀｲﾙ15
100
AcDbAlignedDimension
 13
1022.5
 23
1660.000000000001
 33
0.0
 14
1087.5
 24
1660.000000000001
 34
0.0
100
AcDbRotatedDimension
  0
DIMENSION
  5
D07
330
1E
100
AcDbEntity
  8
01-寸法線
100
AcDbDimension
  2
*D10
 10
2757.5
 20
2240.000000000001
 30
0.0
 11
2257.5
 21
2270.000000000001
 31
0.0
 70
    32
 71
     5
 42
1000.0
  3
ｽﾀｲﾙ15
100
AcDbAlignedDimension
 13
1757.5
 23
2000.0
 33
0.0
 14
2757.5
 24
2000.0
 34
0.0
100
AcDbRotatedDimension
  0
DIMENSION
  5
D14
330
1E
100
AcDbEntity
  8
01-寸法線
100
AcDbDimension
  2
*D11
 10
3757.5
 20
2240.000000000001
 30
0.0
 11
3257.5
 21
2270.000000000001
 31
0.0
 70
    32
 71
     5
 42
1000.0
  3
ｽﾀｲﾙ15
100
AcDbAlignedDimension
 13
2757.5
 23
2000.0
 33
0.0
 14
3757.5
 24
2000.0
 34
0.0
100
AcDbRotatedDimension
  0
DIMENSION
  5
D21
330
1E
100
AcDbEntity
  8
01-寸法線
100
AcDbDimension
  2
*D12
 10
3757.5
 20
2330.000000000001
 30
0.0
 11
2757.5
 21
2360.000000000001
 31
0.0
 70
    32
 71
     5
 42
2000.0
  3
ｽﾀｲﾙ15
100
AcDbAlignedDimension
 13
1757.5
 23
2240.000000000001
 33
0.0
 14
3757.5
 24
2240.000000000001
 34
0.0
100
AcDbRotatedDimension
  0
DIMENSION
  5
D90
330
1E
100
AcDbEntity
  8
01-寸法線
100
AcDbDimension
  2
*D13
 10
1607.5
 20
1770.000000000001
 30
0.0
 11
1577.499999999999
 21
1682.500000000001
 31
0.0
 70
    32
 71
     5
 42
175.0000000000004
  3
ｽﾀｲﾙ15
100
AcDbAlignedDimension
 13
1757.5
 23
1595.0
 33
0.0
 14
1757.5
 24
1770.000000000001
 34
0.0
 50
90.0
100
AcDbRotatedDimension
  0
DIMENSION
  5
DD8
330
1E
100
AcDbEntity
  8
01-寸法線
100
AcDbDimension
  2
*D14
 10
1032.5
 20
2150.0
 30
0.0
 11
907.5000000000001
 21
2180.000000000001
 31
0.0
 70
    32
 71
     5
 42
249.9999999999999
  3
ｽﾀｲﾙ15
100
AcDbAlignedDimension
 13
782.5000000000001
 23
2150.0
 33
0.0
 14
1032.5
 24
2150.0
 34
0.0
100
AcDbRotatedDimension
  0
DIMENSION
  5
1473
330
1E
100
AcDbEntity
  8
01-寸法線
100
AcDbDimension
  2
*D15
 10
437.5
 20
2000.000000000001
 30
0.0
 11
407.4999999999997
 21
1940.000000000001
 31
0.0
 70
    32
 71
     5
 42
119.9999999999997
  3
ｽﾀｲﾙ15
100
AcDbAlignedDimension
 13
677.5000000000001
 23
1880.0
 33
0.0
 14
527.5000000000001
 24
2000.0
 34
0.0
 50
90.0
100
AcDbRotatedDimension
  0
LINE
  5
1482
330
1E
100
AcDbEntity
  8
01-寸法線
 62
     4
370
    13
100
AcDbLine
 10
742.4999999999999
 20
1595.0
 30
0.0
 11
512.5
 21
1595.0
 31
0.0
  0
LINE
  5
1483
330
1E
100
AcDbEntity
  8
01-寸法線
 62
     4
370
    13
100
AcDbLine
 10
777.5
 20
1660.000000000001
 30
0.0
 11
512.5
 21
1660.000000000001
 31
0.0
  0
LINE
  5
1485
330
1E
100
AcDbEntity
  8
01-寸法線
 62
     4
370
    13
100
AcDbLine
 10
527.5
 20
1690.0
 30
0.0
 11
527.5
 21
1720.0
 31
0.0
  0
LINE
  5
1486
330
1E
100
AcDbEntity
  8
01-寸法線
 62
     4
370
    13
100
AcDbLine
 10
527.5
 20
1595.0
 30
0.0
 11
527.5
 21
1660.000000000001
 31
0.0
  0
INSERT
  5
1487
330
1E
100
AcDbEntity
  8
01-寸法線
 62
     4
370
    13
100
AcDbBlockReference
  2
_Open
 10
527.5
 20
1595.0
 30
0.0
 41
30.0
 42
30.0
 43
30.0
 50
270.0
  0
INSERT
  5
1488
330
1E
100
AcDbEntity
  8
01-寸法線
 62
     4
370
    13
100
AcDbBlockReference
  2
_Open
 10
527.5
 20
1660.000000000001
 30
0.0
 41
30.0
 42
30.0
 43
30.0
 50
270.0
  0
MTEXT
  5
1489
330
1E
100
AcDbEntity
  8
01-寸法線
 62
     4
100
AcDbMText
 10
497.4999999999997
 20
1627.500000000001
 30
0.0
 40
45.0
 41
0.0
 71
     5
 72
     1
  1
\A1;65
  7
寸法ｽﾀｲﾙ
 11
0.0000000000000001
 21
1.0
 31
0.0
 73
     1
 44
1.0
  0
INSERT
  5
148A
330
1E
100
AcDbEntity
  8
01-寸法線
 62
     4
370
    13
100
AcDbBlockReference
  2
_Open
 10
527.5
 20
1660.000000000001
 30
0.0
 41
30.0
 42
30.0
 43
30.0
 50
90.0
  0
DIMENSION
  5
149B
330
1E
100
AcDbEntity
  8
01-寸法線
100
AcDbDimension
  2
*D16
 10
1137.5
 20
2240.000000000001
 30
0.0
 11
907.5000000000001
 21
2270.000000000001
 31
0.0
 70
    32
 71
     5
 42
459.9999999999998
  3
ｽﾀｲﾙ15
100
AcDbAlignedDimension
 13
677.5000000000001
 23
2150.0
 33
0.0
 14
1137.5
 24
2150.0
 34
0.0
100
AcDbRotatedDimension
  0
DIMENSION
  5
14A9
330
1E
100
AcDbEntity
  8
01-寸法線
100
AcDbDimension
  2
*D17
 10
1172.5
 20
2240.000000000001
 30
0.0
 11
1202.5
 21
2270.000000000001
 31
0.0
 70
   160
 71
     5
 42
35.0
  3
ｽﾀｲﾙ15
100
AcDbAlignedDimension
 13
1137.5
 23
2150.0
 33
0.0
 14
1172.5
 24
1950.0
 34
0.0
100
AcDbRotatedDimension
  0
LINE
  5
1B9A
330
1E
100
AcDbEntity
  8
01-寸法線
 62
     4
 48
4.0
370
    13
100
AcDbLine
 10
1187.5
 20
1950.0
 30
0.0
 11
1337.5
 21
1950.0
 31
0.0
  0
LINE
  5
1B9B
330
1E
100
AcDbEntity
  8
01-寸法線
 62
     4
 48
4.0
370
    13
100
AcDbLine
 10
1187.5
 20
1900.621778264912
 30
0.0
 11
1337.5
 21
1900.621778264912
 31
0.0
  0
LINE
  5
1B9C
330
1E
100
AcDbEntity
  8
01-寸法線
 62
     4
 48
4.0
370
    13
100
AcDbLine
 10
1187.5
 20
1950.0
 30
0.0
 11
1337.5
 21
1950.0
 31
0.0
  0
LINE
  5
1B9D
330
1E
100
AcDbEntity
  8
01-寸法線
 62
     4
 48
4.0
370
    13
100
AcDbLine
 10
1152.5
 20
2000.0
 30
0.0
 11
1337.5
 21
2000.0
 31
0.0
  0
LINE
  5
1BA0
330
1E
100
AcDbEntity
  8
02-外形線
100
AcDbLine
 10
1172.5
 20
1950.0
 30
0.0
 11
1172.5
 21
1900.621778264911
 31
0.0
  0
INSERT
  5
1BA3
330
1E
100
AcDbEntity
  8
01-寸法線
 62
     4
 48
4.0
370
    13
100
AcDbBlockReference
  2
_Open
 10
1322.5
 20
2000.0
 30
0.0
 41
30.0
 42
30.0
 43
30.0
 50
270.0
  0
LINE
  5
1BA4
330
1E
100
AcDbEntity
  8
01-寸法線
 62
     4
 48
4.0
370
    13
100
AcDbLine
 10
1322.5
 20
1920.0
 30
0.0
 11
1322.5
 21
1890.0
 31
0.0
  0
INSERT
  5
1BA5
330
1E
100
AcDbEntity
  8
01-寸法線
 62
     4
 48
4.0
370
    13
100
AcDbBlockReference
  2
_Open
 10
1322.5
 20
1900.621778264912
 30
0.0
 41
30.0
 42
30.0
 43
30.0
 50
90.0
  0
MTEXT
  5
1BA6
330
1E
100
AcDbEntity
  8
01-寸法線
 62
     4
 48
4.0
100
AcDbMText
 10
1292.5
 20
1840.621778264912
 30
0.0
 40
45.0
 41
0.0
 71
     5
 72
     1
  1
\A1;49.4
  7
寸法ｽﾀｲﾙ
 11
0.0000000000000001
 21
1.0
 31
0.0
 73
     1
 44
1.0
  0
LINE
  5
1BA7
330
1E
100
AcDbEntity
  8
01-寸法線
 62
     4
 48
4.0
370
    13
100
AcDbLine
 10
1322.5
 20
1870.621778264911
 30
0.0
 11
1322.5
 21
1780.621778264912
 31
0.0
  0
MTEXT
  5
1BA8
330
1E
100
AcDbEntity
  8
01-寸法線
 62
     4
 48
4.0
100
AcDbMText
 10
1292.5
 20
1975.000000000001
 30
0.0
 40
45.0
 41
0.0
 71
     5
 72
     1
  1
\A1;50
  7
寸法ｽﾀｲﾙ
 11
0.0000000000000001
 21
1.0
 31
0.0
 73
     1
 44
1.0
  0
LINE
  5
1BA9
330
1E
100
AcDbEntity
  8
01-寸法線
 62
     4
 48
4.0
370
    13
100
AcDbLine
 10
1322.5
 20
1950.0
 30
0.0
 11
1322.5
 21
2000.0
 31
0.0
  0
LINE
  5
1BAA
330
1E
100
AcDbEntity
  8
01-寸法線
 62
     4
 48
4.0
370
    13
100
AcDbLine
 10
1322.5
 20
1900.621778264912
 30
0.0
 11
1322.5
 21
1950.0
 31
0.0
  0
CIRCLE
  5
1BAB
330
1E
100
AcDbEntity
  8
01-寸法線
100
AcDbCircle
 10
1322.5
 20
1950.0
 30
0.0
 40
1.5
  0
HATCH
  5
1BAC
330
1E
100
AcDbEntity
  8
01-寸法線
100
AcDbHatch
 10
0.0
 20
0.0
 30
0.0
210
0.0
220
0.0
230
1.0
  2
SOLID
 70
     1
 71
     0
 91
        1
 92
        7
 72
     1
 73
     1
 93
        2
 10
1324.0
 20
1950.0
 42
1.0
 10
1321.0
 20
1950.0
 42
1.0
 97
        0
 75
     0
 76
     1
 47
0.056586623337664
 98
        1
 10
1322.319318777796
 20
1949.910451710812
450
        0
451
        0
460
0.0
461
0.0
452
        0
462
0.0
453
        0
470

  0
LINE
  5
1BAD
330
1E
100
AcDbEntity
  8
01-寸法線
 62
     4
 48
4.0
370
    13
100
AcDbLine
 10
1322.5
 20
1980.0
 30
0.0
 11
1322.5
 21
2010.000000000001
 31
0.0
  0
LINE
  5
1BAE
330
1E
100
AcDbEntity
  8
01-寸法線
 62
     4
 48
4.0
370
    13
100
AcDbLine
 10
1322.5
 20
2030.000000000001
 30
0.0
 11
1322.5
 21
2060.0
 31
0.0
  0
LINE
  5
1BD8
330
1E
100
AcDbEntity
  8
01-寸法線
100
AcDbLine
 10
1152.5
 20
1960.0
 30
0.0
 11
1262.196551146029
 21
2150.0
 31
0.0
  0
LINE
  5
1BDB
330
1E
100
AcDbEntity
  8
01-寸法線
 62
     4
100
AcDbLine
 10
1152.5
 20
1960.0
 30
0.0
 11
1171.783628290596
 21
1982.981333293569
 31
0.0
  0
LINE
  5
1BDC
330
1E
100
AcDbEntity
  8
01-寸法線
 62
     4
100
AcDbLine
 10
1152.5
 20
1960.0
 30
0.0
 11
1162.76060429977
 21
1988.190778623577
 31
0.0
  0
LINE
  5
1BDE
330
1E
100
AcDbEntity
  8
01-寸法線
 62
     4
100
AcDbLine
 10
1262.196551146029
 20
2150.0
 30
0.0
 11
1602.196551146029
 21
2150.000000000002
 31
0.0
  0
TEXT
  5
1BDF
330
1E
100
AcDbEntity
  8
08-下線
100
AcDbText
 10
1274.207979717457
 20
2162.500000000001
 30
0.0
 40
45.0
  1
防草用切欠部
 41
0.8
  7
ｵﾘｼﾞﾅﾙｽﾀｲﾙ
 72
     1
 11
1432.196551146029
 21
2185.000000000001
 31
0.0
100
AcDbText
 73
     2
  0
DIMENSION
  5
1C8E
330
1E
100
AcDbEntity
  8
01-寸法線
100
AcDbDimension
  2
*D18
 10
1172.5
 20
2330.000000000001
 30
0.0
 11
925.0
 21
2360.000000000001
 31
0.0
 70
    32
 71
     5
 42
494.9999999999999
  3
ｽﾀｲﾙ15
100
AcDbAlignedDimension
 13
677.5000000000001
 23
2240.000000000001
 33
0.0
 14
1172.5
 24
2240.000000000001
 34
0.0
100
AcDbRotatedDimension
  0
LINE
  5
1CA8
330
1E
100
AcDbEntity
  8
02-外形線
100
AcDbLine
 10
1757.5
 20
1950.0
 30
0.0
 11
3757.5
 21
1950.0
 31
0.0
  0
LINE
  5
1CAC
330
1E
100
AcDbEntity
  8
02-外形線
 48
4.0
100
AcDbLine
 10
1757.5
 20
1900.621778264911
 30
0.0
 11
3757.5
 21
1900.621778264911
 31
0.0
  0
LINE
  5
1CAD
330
1E
100
AcDbEntity
  8
02-外形線
 48
4.0
100
AcDbLine
 10
1757.5
 20
1753.397459621557
 30
0.0
 11
3757.5
 21
1753.397459621557
 31
0.0
  0
LINE
  5
1CB8
330
1E
100
AcDbEntity
  8
02-外形線
 48
4.0
100
AcDbLine
 10
2707.5
 20
1820.000000000001
 30
0.0
 11
2732.5
 21
1795.000000000001
 31
0.0
  0
LINE
  5
1CB9
330
1E
100
AcDbEntity
  8
02-外形線
 48
4.0
100
AcDbLine
 10
2782.5
 20
1795.000000000001
 30
0.0
 11
2807.5
 21
1820.0
 31
0.0
  0
LINE
  5
1CBB
330
1E
100
AcDbEntity
  8
02-外形線
 48
4.0
100
AcDbLine
 10
2707.5
 20
1820.000000000001
 30
0.0
 11
2807.5
 21
1820.0
 31
0.0
  0
LINE
  5
1CBC
330
1E
100
AcDbEntity
  8
02-外形線
 48
4.0
100
AcDbLine
 10
2732.5
 20
1745.000000000001
 30
0.0
 11
2707.5
 21
1820.000000000001
 31
0.0
  0
LINE
  5
1CBD
330
1E
100
AcDbEntity
  8
02-外形線
 48
4.0
100
AcDbLine
 10
2782.5
 20
1745.000000000001
 30
0.0
 11
2807.5
 21
1820.0
 31
0.0
  0
LINE
  5
1CBE
330
1E
100
AcDbEntity
  8
02-外形線
 48
4.0
100
AcDbLine
 10
2732.5
 20
1745.000000000001
 30
0.0
 11
2732.5
 21
1795.000000000001
 31
0.0
  0
LINE
  5
1CBF
330
1E
100
AcDbEntity
  8
02-外形線
 48
4.0
100
AcDbLine
 10
2732.5
 20
1795.000000000001
 30
0.0
 11
2782.5
 21
1795.000000000001
 31
0.0
  0
LINE
  5
1CC0
330
1E
100
AcDbEntity
  8
02-外形線
 48
4.0
100
AcDbLine
 10
2782.5
 20
1795.000000000001
 30
0.0
 11
2782.5
 21
1745.000000000001
 31
0.0
  0
LINE
  5
1CC5
330
1E
100
AcDbEntity
  8
03-隠れ線
 48
4.0
100
AcDbLine
 10
1125.952994616208
 20
1820.000000000001
 30
0.0
 11
1087.5
 21
1795.000000000001
 31
0.0
  0
LINE
  5
1CC6
330
1E
100
AcDbEntity
  8
03-隠れ線
 48
4.0
100
AcDbLine
 10
1087.5
 20
1795.000000000001
 30
0.0
 11
1087.5
 21
1753.397459621557
 31
0.0
  0
LINE
  5
1CF6
330
1E
100
AcDbEntity
  8
02-外形線
 48
4.0
100
AcDbLine
 10
1142.92543867133
 20
1932.792706909469
 30
0.0
 11
1167.5
 21
1950.0
 31
0.0
  0
LINE
  5
1CFB
330
1E
100
AcDbEntity
  8
02-外形線
100
AcDbLine
 10
1167.5
 20
1950.0
 30
0.0
 11
1172.5
 21
1950.0
 31
0.0
  0
TEXT
  5
245F
330
1E
100
AcDbEntity
  8
08-下線
100
AcDbText
 10
3118.18
 20
662.5000000000004
 30
0.0
 40
45.0
  1
製品ボリューム
 41
0.8
  7
ｵﾘｼﾞﾅﾙｽﾀｲﾙ
 72
     1
 11
3302.5
 21
685.0000000000004
 31
0.0
100
AcDbText
 73
     2
  0
TEXT
  5
2460
330
1E
100
AcDbEntity
  8
08-下線
100
AcDbText
 10
3118.18
 20
552.5000000000004
 30
0.0
 40
45.0
  1
参　考　質　量
 41
0.8
  7
ｵﾘｼﾞﾅﾙｽﾀｲﾙ
 72
     1
 11
3302.5
 21
575.0000000000004
 31
0.0
100
AcDbText
 73
     2
  0
LINE
  5
2461
330
1E
100
AcDbEntity
  8
10-罫線
 48
4.0
100
AcDbLine
 10
3077.500000000001
 20
750.0000000000004
 30
0.0
 11
3807.5
 21
750.0000000000004
 31
0.0
  0
LINE
  5
2462
330
1E
100
AcDbEntity
  8
10-罫線
 48
4.0
100
AcDbLine
 10
3077.500000000001
 20
510.0000000000004
 30
0.0
 11
3807.5
 21
510.0000000000004
 31
0.0
  0
TEXT
  5
2463
330
1E
100
AcDbEntity
  8
08-下線
100
AcDbText
 10
1706.919707880776
 20
921.757142857143
 30
0.0
 40
45.0
  1
%%U防草用切欠部詳細図
 41
0.8
  7
ｵﾘｼﾞﾅﾙｽﾀｲﾙ
 72
     2
 11
2180.885422166491
 21
912.5000000000001
 31
0.0
100
AcDbText
 73
     1
  0
LINE
  5
2464
330
1E
100
AcDbEntity
  8
01-寸法線
100
AcDbLine
 10
1278.702983379879
 20
518.0074584496974
 30
0.0
 11
1423.024389982169
 21
662.3288650519875
 31
0.0
  0
LINE
  5
2465
330
1E
100
AcDbEntity
  8
01-寸法線
100
AcDbLine
 10
1252.5
 20
449.3780681986186
 30
0.0
 11
1434.83746609338
 21
631.7155342919996
 31
0.0
  0
LINE
  5
2466
330
1E
100
AcDbEntity
  8
01-寸法線
100
AcDbLine
 10
1246.5
 20
400.9516613274191
 30
0.0
 11
1443.252375159403
 21
597.7040364868217
 31
0.0
  0
CIRCLE
  5
2467
330
1E
100
AcDbEntity
  8
01-寸法線
100
AcDbCircle
 10
1177.5
 20
550.0000000000004
 30
0.0
 40
270.0
  0
LINE
  5
2468
330
1E
100
AcDbEntity
  8
02-外形線
100
AcDbLine
 10
1141.5
 20
580.0000000000004
 30
0.0
 11
1141.5
 21
817.5892374517339
 31
0.0
  0
LINE
  5
2469
330
1E
100
AcDbEntity
  8
01-寸法線
100
AcDbLine
 10
1384.5
 20
550.0000000000004
 30
0.0
 11
1306.5577136594
 21
685.0000000000004
 31
0.0
  0
LINE
  5
246A
330
1E
100
AcDbEntity
  8
01-寸法線
100
AcDbLine
 10
1284.862605159717
 20
566.5934871007079
 30
0.0
 11
1408.330620733949
 21
690.0615026749406
 31
0.0
  0
LINE
  5
246B
330
1E
100
AcDbEntity
  8
01-寸法線
100
AcDbLine
 10
1170.989897445409
 20
580.0000000000004
 30
0.0
 11
1275.989897445409
 21
685.0000000000004
 31
0.0
  0
LINE
  5
246C
330
1E
100
AcDbEntity
  8
01-寸法線
 62
     4
370
    13
100
AcDbLine
 10
1066.5
 20
580.0000000000004
 30
0.0
 11
1066.5
 21
610.0000000000004
 31
0.0
  0
INSERT
  5
246D
330
1E
100
AcDbEntity
  8
01-寸法線
 62
     4
370
    13
100
AcDbBlockReference
  2
_Open
 10
991.5
 20
610.0
 30
0.0
 41
30.0
 42
30.0
 43
30.0
 50
90.0
  0
LINE
  5
246E
330
1E
100
AcDbEntity
  8
02-外形線
100
AcDbLine
 10
1177.5
 20
580.0000000000004
 30
0.0
 11
1267.5
 21
610.0000000000004
 31
0.0
  0
LINE
  5
246F
330
1E
100
AcDbEntity
  8
02-外形線
100
AcDbLine
 10
1267.5
 20
610.0000000000004
 30
0.0
 11
1291.5
 21
550.0000000000004
 31
0.0
  0
LINE
  5
2470
330
1E
100
AcDbEntity
  8
01-寸法線
100
AcDbLine
 10
1235.695524930182
 20
475.0000000000004
 30
0.0
 11
1254.896643697637
 21
494.2011187674552
 31
0.0
  0
INSERT
  5
2471
330
1E
100
AcDbEntity
  8
01-寸法線
 62
     4
370
    13
100
AcDbBlockReference
  2
_Open
 10
1267.5
 20
415.0000000000004
 30
0.0
 41
30.0
 42
30.0
 43
30.0
  0
INSERT
  5
2472
330
1E
100
AcDbEntity
  8
01-寸法線
 62
     4
370
    13
100
AcDbBlockReference
  2
_Open
 10
1267.5
 20
415.0000000000004
 30
0.0
 41
30.0
 42
30.0
 43
30.0
  0
LINE
  5
2473
330
1E
100
AcDbEntity
  8
01-寸法線
100
AcDbLine
 10
1246.5
 20
358.5252544562186
 30
0.0
 11
1306.5
 21
418.5252544562185
 31
0.0
  0
LINE
  5
2474
330
1E
100
AcDbEntity
  8
01-寸法線
100
AcDbLine
 10
1212.70633778497
 20
282.3051853700162
 30
0.0
 11
1445.194814629931
 21
514.7936622149764
 31
0.0
  0
LINE
  5
2475
330
1E
100
AcDbEntity
  8
01-寸法線
 62
     4
370
    13
100
AcDbLine
 10
1171.5
 20
340.0000000000005
 30
0.0
 11
1261.5
 21
340.0000000000005
 31
0.0
  0
LINE
  5
2476
330
1E
100
AcDbEntity
  8
02-外形線
100
AcDbLine
 10
1177.5
 20
520.0000000000004
 30
0.0
 11
1267.5
 21
490.0000000000004
 31
0.0
  0
MTEXT
  5
2477
330
1E
100
AcDbEntity
  8
01-寸法線
 62
     4
100
AcDbMText
 10
1216.5
 20
370.0000000000006
 30
0.0
 40
45.0
 41
0.0
 71
     5
 72
     1
  1
25
  7
寸法ｽﾀｲﾙ
 73
     1
 44
1.0
  0
LINE
  5
2478
330
1E
100
AcDbEntity
  8
02-外形線
100
AcDbLine
 10
1141.5
 20
520.0000000000004
 30
0.0
 11
1141.5
 21
282.4107625482675
 31
0.0
  0
INSERT
  5
2479
330
1E
100
AcDbEntity
  8
01-寸法線
 62
     4
370
    13
100
AcDbBlockReference
  2
_Open
 10
1141.5
 20
340.0000000000005
 30
0.0
 41
30.0
 42
30.0
 43
30.0
 50
180.0
  0
LINE
  5
247A
330
1E
100
AcDbEntity
  8
01-寸法線
100
AcDbLine
 10
1141.5
 20
338.3780681986186
 30
0.0
 11
1186.5
 21
383.3780681986186
 31
0.0
  0
LINE
  5
247B
330
1E
100
AcDbEntity
  8
01-寸法線
100
AcDbLine
 10
1141.5
 20
295.9516613274186
 30
0.0
 11
1186.5
 21
340.9516613274186
 31
0.0
  0
LINE
  5
247C
330
1E
100
AcDbEntity
  8
01-寸法線
100
AcDbLine
 10
1168.137133755316
 20
280.162388211535
 30
0.0
 11
1227.974745543782
 21
340.0000000000005
 31
0.0
  0
LINE
  5
247D
330
1E
100
AcDbEntity
  8
01-寸法線
 62
     4
370
    13
100
AcDbLine
 10
1126.5
 20
520.0000000000004
 30
0.0
 11
1051.5
 21
520.0000000000004
 31
0.0
  0
LINE
  5
247E
330
1E
100
AcDbEntity
  8
01-寸法線
 62
     4
370
    13
100
AcDbLine
 10
1126.5
 20
520.0000000000004
 30
0.0
 11
1051.5
 21
520.0000000000004
 31
0.0
  0
LINE
  5
247F
330
1E
100
AcDbEntity
  8
01-寸法線
 62
     4
370
    13
100
AcDbLine
 10
1126.5
 20
580.0000000000004
 30
0.0
 11
1051.5
 21
580.0000000000004
 31
0.0
  0
LINE
  5
2480
330
1E
100
AcDbEntity
  8
01-寸法線
 62
     4
370
    13
100
AcDbLine
 10
1126.5
 20
580.0000000000004
 30
0.0
 11
1051.5
 21
580.0000000000004
 31
0.0
  0
LINE
  5
2481
330
1E
100
AcDbEntity
  8
01-寸法線
 62
     4
370
    13
100
AcDbLine
 10
1252.5
 20
490.0000000000004
 30
0.0
 11
1051.5
 21
490.0000000000004
 31
0.0
  0
LINE
  5
2482
330
1E
100
AcDbEntity
  8
01-寸法線
 62
     4
370
    13
100
AcDbLine
 10
1066.5
 20
490.0000000000004
 30
0.0
 11
1066.5
 21
460.0000000000004
 31
0.0
  0
INSERT
  5
2483
330
1E
100
AcDbEntity
  8
01-寸法線
 62
     4
370
    13
100
AcDbBlockReference
  2
_Open
 10
1066.5
 20
490.0000000000004
 30
0.0
 41
30.0
 42
30.0
 43
30.0
 50
90.0
  0
MTEXT
  5
2484
330
1E
100
AcDbEntity
  8
01-寸法線
 62
     4
100
AcDbMText
 10
1036.5
 20
460.0000000000005
 30
0.0
 40
45.0
 41
0.0
 71
     5
 72
     1
  1
5
  7
寸法ｽﾀｲﾙ
 11
0.0000000000000001
 21
1.0
 31
0.0
 73
     1
 44
1.0
  0
LINE
  5
2485
330
1E
100
AcDbEntity
  8
01-寸法線
 62
     4
370
    13
100
AcDbLine
 10
1066.5
 20
460.0000000000004
 30
0.0
 11
1066.5
 21
430.0000000000004
 31
0.0
  0
INSERT
  5
2486
330
1E
100
AcDbEntity
  8
01-寸法線
 62
     4
370
    13
100
AcDbBlockReference
  2
_Open
 10
991.5
 20
490.0000000000004
 30
0.0
 41
30.0
 42
30.0
 43
30.0
 50
270.0
  0
MTEXT
  5
2487
330
1E
100
AcDbEntity
  8
01-寸法線
 62
     4
100
AcDbMText
 10
961.5
 20
550.0000000000006
 30
0.0
 40
45.0
 41
0.0
 71
     5
 72
     1
  1
20
  7
寸法ｽﾀｲﾙ
 11
0.0000000000000001
 21
1.0
 31
0.0
 73
     1
 44
1.0
  0
LINE
  5
2488
330
1E
100
AcDbEntity
  8
01-寸法線
 62
     4
370
    13
100
AcDbLine
 10
1051.5
 20
490.0000000000004
 30
0.0
 11
976.5
 21
490.0000000000004
 31
0.0
  0
LINE
  5
2489
330
1E
100
AcDbEntity
  8
01-寸法線
 62
     4
370
    13
100
AcDbLine
 10
991.5
 20
520.0000000000004
 30
0.0
 11
991.5
 21
580.0
 31
0.0
  0
LINE
  5
248A
330
1E
100
AcDbEntity
  8
01-寸法線
 62
     4
370
    13
100
AcDbLine
 10
1066.5
 20
550.0000000000004
 30
0.0
 11
1066.5
 21
520.0000000000004
 31
0.0
  0
LINE
  5
248B
330
1E
100
AcDbEntity
  8
01-寸法線
 62
     4
370
    13
100
AcDbLine
 10
1066.5
 20
520.0000000000004
 30
0.0
 11
1066.5
 21
580.0000000000004
 31
0.0
  0
INSERT
  5
248C
330
1E
100
AcDbEntity
  8
01-寸法線
 62
     4
370
    13
100
AcDbBlockReference
  2
_Open
 10
1066.5
 20
520.0000000000004
 30
0.0
 41
30.0
 42
30.0
 43
30.0
 50
270.0
  0
MTEXT
  5
248D
330
1E
100
AcDbEntity
  8
01-寸法線
 62
     4
100
AcDbMText
 10
1036.5
 20
550.000000000001
 30
0.0
 40
45.0
 41
0.0
 71
     5
 72
     1
  1
10
  7
寸法ｽﾀｲﾙ
 11
0.0000000000000001
 21
1.0
 31
0.0
 73
     1
 44
1.0
  0
LINE
  5
248E
330
1E
100
AcDbEntity
  8
01-寸法線
 62
     4
370
    13
100
AcDbLine
 10
1066.5
 20
490.0000000000004
 30
0.0
 11
1066.5
 21
520.0000000000004
 31
0.0
  0
LINE
  5
248F
330
1E
100
AcDbEntity
  8
01-寸法線
 62
     4
370
    13
100
AcDbLine
 10
1066.5
 20
550.0000000000004
 30
0.0
 11
1066.5
 21
580.0000000000004
 31
0.0
  0
INSERT
  5
2490
330
1E
100
AcDbEntity
  8
01-寸法線
 62
     4
370
    13
100
AcDbBlockReference
  2
_Open
 10
1066.5
 20
580.0000000000004
 30
0.0
 41
30.0
 42
30.0
 43
30.0
 50
90.0
  0
MTEXT
  5
2491
330
1E
100
AcDbEntity
  8
01-寸法線
 62
     4
100
AcDbMText
 10
1222.5
 20
445.0000000000005
 30
0.0
 40
45.0
 41
0.0
 71
     5
 72
     1
  1
15
  7
寸法ｽﾀｲﾙ
 73
     1
 44
1.0
  0
LINE
  5
2492
330
1E
100
AcDbEntity
  8
01-寸法線
 62
     4
370
    13
100
AcDbLine
 10
1177.5
 20
505.0000000000004
 30
0.0
 11
1177.5
 21
400.0000000000004
 31
0.0
  0
LINE
  5
2493
330
1E
100
AcDbEntity
  8
01-寸法線
 62
     4
370
    13
100
AcDbLine
 10
1177.5
 20
505.0000000000004
 30
0.0
 11
1177.5
 21
400.0000000000004
 31
0.0
  0
MTEXT
  5
2494
330
1E
100
AcDbEntity
  8
01-寸法線
 62
     4
100
AcDbMText
 10
1111.5
 20
445.0000000000005
 30
0.0
 40
45.0
 41
0.0
 71
     5
 72
     1
  1
6
  7
寸法ｽﾀｲﾙ
 73
     1
 44
1.0
  0
LINE
  5
2495
330
1E
100
AcDbEntity
  8
01-寸法線
100
AcDbLine
 10
1141.5
 20
465.6572888121913
 30
0.0
 11
1191.257033390857
 21
515.4143222030484
 31
0.0
  0
LINE
  5
2496
330
1E
100
AcDbEntity
  8
01-寸法線
100
AcDbLine
 10
1141.5
 20
423.2308819409913
 30
0.0
 11
1223.076838544257
 21
504.807720485248
 31
0.0
  0
LINE
  5
2497
330
1E
100
AcDbEntity
  8
01-寸法線
 62
     4
370
    13
100
AcDbLine
 10
1141.5
 20
415.0000000000004
 30
0.0
 11
1177.5
 21
415.0000000000004
 31
0.0
  0
LINE
  5
2498
330
1E
100
AcDbEntity
  8
01-寸法線
100
AcDbLine
 10
1141.5
 20
380.8044750698186
 30
0.0
 11
1192.5
 21
431.8044750698186
 31
0.0
  0
INSERT
  5
2499
330
1E
100
AcDbEntity
  8
01-寸法線
 62
     4
370
    13
100
AcDbBlockReference
  2
_Open
 10
1141.5
 20
415.0000000000004
 30
0.0
 41
30.0
 42
30.0
 43
30.0
  0
LINE
  5
249A
330
1E
100
AcDbEntity
  8
01-寸法線
 62
     4
370
    13
100
AcDbLine
 10
1111.5
 20
415.0000000000004
 30
0.0
 11
1081.5
 21
415.0000000000004
 31
0.0
  0
LINE
  5
249B
330
1E
100
AcDbEntity
  8
01-寸法線
100
AcDbLine
 10
1203.121931801382
 20
400.0000000000004
 30
0.0
 11
1218.121931801382
 21
415.0000000000004
 31
0.0
  0
LINE
  5
249C
330
1E
100
AcDbEntity
  8
01-寸法線
 62
     4
370
    13
100
AcDbLine
 10
1207.5
 20
415.0000000000004
 30
0.0
 11
1237.5
 21
415.0000000000004
 31
0.0
  0
LINE
  5
249D
330
1E
100
AcDbEntity
  8
01-寸法線
 62
     4
370
    13
100
AcDbLine
 10
1207.5
 20
415.0000000000004
 30
0.0
 11
1237.5
 21
415.0000000000004
 31
0.0
  0
LINE
  5
249E
330
1E
100
AcDbEntity
  8
01-寸法線
 62
     4
370
    13
100
AcDbLine
 10
1237.5
 20
415.0000000000004
 30
0.0
 11
1207.5
 21
415.0000000000004
 31
0.0
  0
INSERT
  5
249F
330
1E
100
AcDbEntity
  8
01-寸法線
 62
     4
370
    13
100
AcDbBlockReference
  2
_Open
 10
1177.5
 20
415.0000000000004
 30
0.0
 41
30.0
 42
30.0
 43
30.0
 50
180.0
  0
INSERT
  5
24A0
330
1E
100
AcDbEntity
  8
01-寸法線
 62
     4
370
    13
100
AcDbBlockReference
  2
_Open
 10
1177.5
 20
415.0000000000004
 30
0.0
 41
30.0
 42
30.0
 43
30.0
 50
180.0
  0
LINE
  5
24A1
330
1E
100
AcDbEntity
  8
02-外形線
100
AcDbLine
 10
1141.5
 20
580.0000000000004
 30
0.0
 11
1177.5
 21
580.0000000000004
 31
0.0
  0
LINE
  5
24A2
330
1E
100
AcDbEntity
  8
02-外形線
100
AcDbLine
 10
1141.5
 20
520.0000000000004
 30
0.0
 11
1177.5
 21
520.0000000000004
 31
0.0
  0
LINE
  5
24A3
330
1E
100
AcDbEntity
  8
01-寸法線
100
AcDbLine
 10
1141.5
 20
508.0836956833914
 30
0.0
 11
1153.416304316609
 21
520.0000000000004
 31
0.0
  0
LINE
  5
24A4
330
1E
100
AcDbEntity
  8
01-寸法線
100
AcDbLine
 10
1268.694649296852
 20
295.867090010699
 30
0.0
 11
1431.632909989247
 21
458.8053507030931
 31
0.0
  0
LINE
  5
24A5
330
1E
100
AcDbEntity
  8
01-寸法線
 62
     4
370
    13
100
AcDbLine
 10
1291.5
 20
400.0000000000004
 30
0.0
 11
1291.5
 21
325.0000000000004
 31
0.0
  0
INSERT
  5
24A6
330
1E
100
AcDbEntity
  8
01-寸法線
 62
     4
370
    13
100
AcDbBlockReference
  2
_Open
 10
1291.5
 20
340.0000000000005
 30
0.0
 41
30.0
 42
30.0
 43
30.0
  0
LINE
  5
24A7
330
1E
100
AcDbEntity
  8
01-寸法線
100
AcDbLine
 10
1336.5
 20
448.5252544562185
 30
0.0
 11
1447.337611788411
 21
559.3628662446294
 31
0.0
  0
LINE
  5
24A8
330
1E
100
AcDbEntity
  8
02-外形線
100
AcDbLine
 10
1291.5
 20
550.0000000000004
 30
0.0
 11
1447.5
 21
550.0000000000004
 31
0.0
  0
MTEXT
  5
24A9
330
1E
100
AcDbEntity
  8
01-寸法線
 62
     4
100
AcDbMText
 10
1321.5
 20
445.0000000000005
 30
0.0
 40
45.0
 41
0.0
 71
     5
 72
     1
  1
4
  7
寸法ｽﾀｲﾙ
 73
     1
 44
1.0
  0
LINE
  5
24AA
330
1E
100
AcDbEntity
  8
01-寸法線
 62
     4
370
    13
100
AcDbLine
 10
1291.5
 20
535.0000000000004
 30
0.0
 11
1291.5
 21
400.0000000000004
 31
0.0
  0
LINE
  5
24AB
330
1E
100
AcDbEntity
  8
01-寸法線
 62
     4
370
    13
100
AcDbLine
 10
1267.5
 20
475.0000000000004
 30
0.0
 11
1267.5
 21
400.0000000000004
 31
0.0
  0
LINE
  5
24AC
330
1E
100
AcDbEntity
  8
01-寸法線
 62
     4
370
    13
100
AcDbLine
 10
1267.5
 20
475.0000000000004
 30
0.0
 11
1267.5
 21
400.0000000000004
 31
0.0
  0
LINE
  5
24AD
330
1E
100
AcDbEntity
  8
01-寸法線
 62
     4
370
    13
100
AcDbLine
 10
1321.5
 20
415.0000000000004
 30
0.0
 11
1351.5
 21
415.0000000000004
 31
0.0
  0
INSERT
  5
24AE
330
1E
100
AcDbEntity
  8
01-寸法線
 62
     4
370
    13
100
AcDbBlockReference
  2
_Open
 10
1291.5
 20
415.0000000000004
 30
0.0
 41
30.0
 42
30.0
 43
30.0
 50
180.0
  0
LINE
  5
24AF
330
1E
100
AcDbEntity
  8
01-寸法線
 62
     4
370
    13
100
AcDbLine
 10
1267.5
 20
415.0000000000004
 30
0.0
 11
1291.5
 21
415.0000000000004
 31
0.0
  0
LINE
  5
24B0
330
1E
100
AcDbEntity
  8
02-外形線
100
AcDbLine
 10
1291.5
 20
550.0000000000004
 30
0.0
 11
1267.5
 21
490.0000000000004
 31
0.0
  0
LINE
  5
24B1
330
1E
100
AcDbEntity
  8
01-寸法線
100
AcDbLine
 10
1384.5
 20
550.0000000000004
 30
0.0
 11
1376.291516560184
 21
572.5526228988623
 31
0.0
  0
LINE
  5
24B2
330
1E
100
AcDbEntity
  8
01-寸法線
100
AcDbLine
 10
1384.5
 20
550.0000000000004
 30
0.0
 11
1369.073097367523
 21
568.3850666348562
 31
0.0
  0
LINE
  5
24B3
330
1E
100
AcDbEntity
  8
01-寸法線
100
AcDbLine
 10
1208.710676831836
 20
745.0000000000004
 30
0.0
 11
1268.067694899945
 21
804.3570180681095
 31
0.0
  0
LINE
  5
24B4
330
1E
100
AcDbEntity
  8
01-寸法線
100
AcDbLine
 10
1251.137083703036
 20
745.0000000000004
 30
0.0
 11
1297.837216680863
 21
791.7001329778273
 31
0.0
  0
LINE
  5
24B5
330
1E
100
AcDbEntity
  8
01-寸法線
100
AcDbLine
 10
1231.374456474914
 20
597.9581521583054
 30
0.0
 11
1371.35406446604
 21
737.9377601494311
 31
0.0
  0
TEXT
  5
24B6
330
1E
100
AcDbEntity
  8
08-下線
100
AcDbText
 10
1164.282857142857
 20
695.0000000000004
 30
0.0
 40
40.0
  1
接合面
 41
0.8
  7
ｵﾘｼﾞﾅﾙｽﾀｲﾙ
 72
     1
 11
1234.5
 21
715.0000000000004
 31
0.0
100
AcDbText
 73
     2
  0
LINE
  5
24B7
330
1E
100
AcDbEntity
  8
01-寸法線
100
AcDbLine
 10
1159.5
 20
685.0000000000004
 30
0.0
 11
1306.5577136594
 21
685.0000000000004
 31
0.0
  0
LINE
  5
24B8
330
1E
100
AcDbEntity
  8
01-寸法線
100
AcDbLine
 10
1159.5
 20
685.0000000000004
 30
0.0
 11
1306.5577136594
 21
685.0000000000004
 31
0.0
  0
TEXT
  5
24B9
330
1E
100
AcDbEntity
  8
08-下線
100
AcDbText
 10
647.0030445380536
 20
761.7571428571433
 30
0.0
 40
45.0
  1
%%U目地部詳細図
 41
0.8
  7
ｵﾘｼﾞﾅﾙｽﾀｲﾙ
 72
     2
 11
962.9801873951965
 21
752.5000000000004
 31
0.0
100
AcDbText
 73
     1
  0
TEXT
  5
24BA
330
1E
100
AcDbEntity
  8
08-下線
100
AcDbText
 10
995.6885714285714
 20
695.0000000000004
 30
0.0
 40
40.0
  1
内面
 41
0.8
  7
ｵﾘｼﾞﾅﾙｽﾀｲﾙ
 72
     1
 11
1042.5
 21
715.0000000000004
 31
0.0
100
AcDbText
 73
     2
  0
LINE
  5
24BB
330
1E
100
AcDbEntity
  8
01-寸法線
100
AcDbLine
 10
988.4999999999999
 20
685.0000000000004
 30
0.0
 11
1096.5
 21
685.0000000000004
 31
0.0
  0
LINE
  5
24BC
330
1E
100
AcDbEntity
  8
01-寸法線
 62
     4
370
    13
100
AcDbLine
 10
1252.5
 20
610.0000000000004
 30
0.0
 11
1051.5
 21
610.0000000000004
 31
0.0
  0
LINE
  5
24BD
330
1E
100
AcDbEntity
  8
01-寸法線
 62
     4
370
    13
100
AcDbLine
 10
1051.5
 20
610.0
 30
0.0
 11
976.5
 21
610.0
 31
0.0
  0
LINE
  5
24BE
330
1E
100
AcDbEntity
  8
01-寸法線
 62
     4
370
    13
100
AcDbLine
 10
1066.5
 20
640.0000000000004
 30
0.0
 11
1066.5
 21
670.0000000000004
 31
0.0
  0
MTEXT
  5
24BF
330
1E
100
AcDbEntity
  8
01-寸法線
 62
     4
100
AcDbMText
 10
1036.5
 20
640.0000000000005
 30
0.0
 40
45.0
 41
0.0
 71
     5
 72
     1
  1
5
  7
寸法ｽﾀｲﾙ
 11
0.0000000000000001
 21
1.0
 31
0.0
 73
     1
 44
1.0
  0
LINE
  5
24C0
330
1E
100
AcDbEntity
  8
01-寸法線
 62
     4
370
    13
100
AcDbLine
 10
1066.5
 20
610.0000000000004
 30
0.0
 11
1066.5
 21
640.0000000000004
 31
0.0
  0
INSERT
  5
24C1
330
1E
100
AcDbEntity
  8
01-寸法線
 62
     4
370
    13
100
AcDbBlockReference
  2
_Open
 10
1066.5
 20
610.0000000000004
 30
0.0
 41
30.0
 42
30.0
 43
30.0
 50
270.0
  0
LINE
  5
24C2
330
1E
100
AcDbEntity
  8
01-寸法線
100
AcDbLine
 10
1141.5
 20
635.3629162969641
 30
0.0
 11
1191.137083703036
 21
685.0000000000004
 31
0.0
  0
LINE
  5
24C3
330
1E
100
AcDbEntity
  8
01-寸法線
100
AcDbLine
 10
1141.5
 20
592.9365094257641
 30
0.0
 11
1233.563490574236
 21
685.0000000000004
 31
0.0
  0
LINE
  5
24C4
330
1E
100
AcDbEntity
  8
01-寸法線
100
AcDbLine
 10
1141.5
 20
640.0000000000004
 30
0.0
 11
1096.5
 21
685.0000000000004
 31
0.0
  0
LINE
  5
24C5
330
1E
100
AcDbEntity
  8
01-寸法線
100
AcDbLine
 10
1141.5
 20
640.0000000000004
 30
0.0
 11
1127.734165527575
 21
659.6596490629362
 31
0.0
  0
LINE
  5
24C6
330
1E
100
AcDbEntity
  8
01-寸法線
100
AcDbLine
 10
1141.5
 20
640.0000000000004
 30
0.0
 11
1121.840350937064
 21
653.7658344724259
 31
0.0
  0
LINE
  5
24C7
330
1E
100
AcDbEntity
  8
01-寸法線
100
AcDbLine
 10
1141.5
 20
677.7893231681641
 30
0.0
 11
1159.5
 21
695.7893231681642
 31
0.0
  0
LINE
  5
24C8
330
1E
100
AcDbEntity
  8
01-寸法線
100
AcDbLine
 10
1141.5
 20
762.6421369105369
 30
0.0
 11
1198.072933967659
 21
819.215070878196
 31
0.0
  0
LINE
  5
24C9
330
1E
100
AcDbEntity
  8
01-寸法線
100
AcDbLine
 10
1141.5
 20
720.2157300393369
 30
0.0
 11
1235.074331166083
 21
813.7900612054195
 31
0.0
  0
LINE
  5
24CA
330
1E
100
AcDbEntity
  8
01-寸法線
100
AcDbLine
 10
1141.5
 20
805.0685437817369
 30
0.0
 11
1155.536662010221
 21
819.1052057919582
 31
0.0
  0
LINE
  5
24CB
330
1E
100
AcDbEntity
  8
01-寸法線
100
AcDbLine
 10
1272.740774625088
 20
596.8980634372797
 30
0.0
 11
1391.053893249149
 21
715.2111820613404
 31
0.0
  0
LINE
  5
24CC
330
1E
100
AcDbEntity
  8
01-寸法線
100
AcDbLine
 10
1306.5577136594
 20
715.5678162139915
 30
0.0
 11
1349.289030721738
 21
758.299133276329
 31
0.0
  0
LINE
  5
24CD
330
1E
100
AcDbEntity
  8
01-寸法線
100
AcDbLine
 10
1293.563490574236
 20
745.0000000000004
 30
0.0
 11
1324.826437047635
 21
776.2629464733995
 31
0.0
  0
LINE
  5
24CF
330
1E
100
AcDbEntity
  8
02-外形線
100
AcDbLine
 10
2477.5
 20
605.0000000000004
 30
0.0
 11
2477.5
 21
506.2435565298219
 31
0.0
  0
LINE
  5
24D0
330
1E
100
AcDbEntity
  8
01-寸法線
 48
4.0
370
    13
100
AcDbLine
 10
2577.500000000001
 20
506.2435565298228
 30
0.0
 11
2577.500000000001
 21
605.0000000000004
 31
0.0
  0
MTEXT
  5
24D1
330
1E
100
AcDbEntity
  8
01-寸法線
 48
4.0
100
AcDbMText
 10
2607.5
 20
555.621778264912
 30
0.0
 40
45.0
 41
0.0
 71
     5
 72
     1
  1
49.4
  7
寸法ｽﾀｲﾙ
 11
0.0000000000000001
 21
1.0
 31
0.0
 73
     1
 44
1.0
  0
INSERT
  5
24D2
330
1E
100
AcDbEntity
  8
01-寸法線
 48
4.0
370
    13
100
AcDbBlockReference
  2
_Open
 10
2577.500000000001
 20
605.0000000000004
 30
0.0
 41
30.0
 42
30.0
 43
30.0
 50
90.0
  0
LINE
  5
24D5
330
1E
100
AcDbEntity
  8
01-寸法線
 62
     4
 48
4.0
370
    13
100
AcDbLine
 10
2476.103646545266
 20
592.7127193356656
 30
0.0
 11
2602.290462542495
 21
412.4992695920854
 31
0.0
  0
LINE
  5
24D6
330
1E
100
AcDbEntity
  8
10-罫線
 48
4.0
100
AcDbLine
 10
3077.500000000001
 20
750.0000000000004
 30
0.0
 11
3077.500000000001
 21
510.0000000000004
 31
0.0
  0
LINE
  5
24D7
330
1E
100
AcDbEntity
  8
01-寸法線
 62
     4
 48
4.0
370
    13
100
AcDbLine
 10
2217.5
 20
705.0000000000004
 30
0.0
 11
2217.5
 21
570.5854138189383
 31
0.0
  0
INSERT
  5
24D8
330
1E
100
AcDbEntity
  8
01-寸法線
 62
     4
 48
4.0
370
    13
100
AcDbBlockReference
  2
_Open
 10
2217.5
 20
570.5854138189381
 30
0.0
 41
30.0
 42
30.0
 43
30.0
 50
270.0
  0
MTEXT
  5
24D9
330
1E
100
AcDbEntity
  8
01-寸法線
 62
     4
 48
4.0
100
AcDbMText
 10
2187.5
 20
637.7927069094698
 30
0.0
 40
45.0
 41
0.0
 71
     5
 72
     1
  1
67.2
  7
寸法ｽﾀｲﾙ
 11
0.0000000000000001
 21
1.0
 31
0.0
 73
     1
 44
1.0
  0
CIRCLE
  5
24DA
330
1E
100
AcDbEntity
  8
01-寸法線
 48
4.0
100
AcDbCircle
 10
2427.5
 20
630.0000000000004
 30
0.0
 40
350.0
  0
LINE
  5
24DB
330
1E
100
AcDbEntity
  8
01-寸法線
 62
     4
 48
4.0
370
    13
100
AcDbLine
 10
2406.063596678327
 20
561.9817672736726
 30
0.0
 11
2260.424708263417
 21
460.0043197490703
 31
0.0
  0
ARC
  5
24DC
330
1E
100
AcDbEntity
  8
01-寸法線
 62
     4
 48
4.0
370
    13
100
AcDbCircle
 10
2477.5
 20
612.0020753820973
 30
0.0
 40
249.9999999999998
100
AcDbArc
 50
221.8796255350299
 51
263.1203744649619
  0
LINE
  5
24DE
330
1E
100
AcDbEntity
  8
01-寸法線
 62
     4
 48
4.0
370
    13
100
AcDbLine
 10
2403.350877342661
 20
570.5854138189381
 30
0.0
 11
2202.5
 21
570.5854138189383
 31
0.0
  0
INSERT
  5
24DF
330
1E
100
AcDbEntity
  8
01-寸法線
 62
     4
 48
4.0
370
    13
100
AcDbBlockReference
  2
_Open
 10
2272.711988927752
 20
468.607966294336
 30
0.0
 41
29.99999999999987
 42
29.99999999999987
 43
29.99999999999987
 50
128.4398127675148
  0
LINE
  5
24E1
330
1E
100
AcDbEntity
  8
02-外形線
100
AcDbLine
 10
2477.5
 20
506.2435565298228
 30
0.0
 11
2351.677002028886
 21
288.3117312832175
 31
0.0
  0
INSERT
  5
24E2
330
1E
100
AcDbEntity
  8
01-寸法線
 62
     4
 48
4.0
370
    13
100
AcDbBlockReference
  2
_Open
 10
2477.5
 20
362.0020753820974
 30
0.0
 41
30.00000000000023
 42
30.00000000000023
 43
30.00000000000023
 50
356.5601872324849
  0
LINE
  5
24E4
330
1E
100
AcDbEntity
  8
01-寸法線
 62
     4
 48
4.0
370
    13
100
AcDbLine
 10
2426.954523887927
 20
558.2981331546029
 30
0.0
 11
2553.141339885155
 21
378.0846834110235
 31
0.0
  0
MTEXT
  5
24E8
330
1E
100
AcDbEntity
  8
01-寸法線
 62
     4
 48
4.0
100
AcDbMText
 10
2399.139751326606
 20
406.3464914161068
 30
0.0
 40
45.0
 41
0.0
 71
     5
 72
     1
  1
55{\fNSimSun|b0|i0|c128|p49;\U+00B0}
  7
寸法ｽﾀｲﾙ
 11
0.8910065241883678
 21
-0.453990499739547
 31
0.0
 73
     1
 44
1.0
  0
LINE
  5
24F2
330
1E
100
AcDbEntity
  8
01-寸法線
 62
     4
 48
4.0
370
    13
100
AcDbLine
 10
2477.5
 20
491.2435565298216
 30
0.0
 11
2477.5
 21
347.0020753820976
 31
0.0
  0
MTEXT
  5
24F3
330
1E
100
AcDbEntity
  8
01-寸法線
 62
     4
 48
4.0
100
AcDbMText
 10
2551.904961578027
 20
432.1538184945594
 30
0.0
 40
45.0
 41
0.0
 71
     5
 72
     1
  1
30
  7
寸法ｽﾀｲﾙ
 11
0.8191520442889917
 21
0.5735764363510461
 31
0.0
 73
     1
 44
1.0
  0
LINE
  5
24F6
330
1E
100
AcDbEntity
  8
01-寸法線
 62
     4
 48
4.0
370
    13
100
AcDbLine
 10
2528.154652454108
 20
378.9004353483375
 30
0.0
 11
2503.580091125439
 21
361.6931422578065
 31
0.0
  0
LINE
  5
24F7
330
1E
100
AcDbEntity
  8
01-寸法線
 62
     4
 48
4.0
370
    13
100
AcDbLine
 10
2519.963132011219
 20
373.1646709848275
 30
0.0
 11
2495.388570682548
 21
355.9573778942964
 31
0.0
  0
INSERT
  5
24FB
330
1E
100
AcDbEntity
  8
01-寸法線
 62
     4
 48
4.0
370
    13
100
AcDbBlockReference
  2
_Open
 10
2544.537693339889
 20
390.3719640753585
 30
0.0
 41
29.99999999999996
 42
29.99999999999996
 43
29.99999999999996
 50
34.99999999999937
  0
INSERT
  5
24FD
330
1E
100
AcDbEntity
  8
01-寸法線
 62
     4
 48
4.0
370
    13
100
AcDbBlockReference
  2
_Open
 10
2593.686815997228
 20
424.7865502564203
 30
0.0
 41
29.99999999999995
 42
29.99999999999995
 43
29.99999999999995
 50
214.9999999999993
  0
LINE
  5
24FE
330
1E
100
AcDbEntity
  8
01-寸法線
 62
     4
 48
4.0
370
    13
100
AcDbLine
 10
2618.261377325898
 20
441.9938433469516
 30
0.0
 11
2642.835938654568
 21
459.2011364374826
 31
0.0
  0
LINE
  5
24FF
330
1E
100
AcDbEntity
  8
01-寸法線
 48
4.0
370
    13
100
AcDbLine
 10
2492.5
 20
506.2435565298228
 30
0.0
 11
2592.499999999999
 21
506.2435565298227
 31
0.0
  0
INSERT
  5
2500
330
1E
100
AcDbEntity
  8
01-寸法線
 48
4.0
370
    13
100
AcDbBlockReference
  2
_Open
 10
2577.500000000001
 20
506.2435565298229
 30
0.0
 41
30.0
 42
30.0
 43
30.0
 50
270.0
  0
LINE
  5
2501
330
1E
100
AcDbEntity
  8
01-寸法線
 62
     4
 48
4.0
370
    13
100
AcDbLine
 10
2302.5
 20
705.0000000000004
 30
0.0
 11
2202.5
 21
705.0000000000004
 31
0.0
  0
INSERT
  5
2502
330
1E
100
AcDbEntity
  8
01-寸法線
 62
     4
 48
4.0
370
    13
100
AcDbBlockReference
  2
_Open
 10
2217.5
 20
705.0000000000004
 30
0.0
 41
30.0
 42
30.0
 43
30.0
 50
90.0
  0
MTEXT
  5
2503
330
1E
100
AcDbEntity
  8
01-寸法線
 48
4.0
100
AcDbMText
 10
2507.5
 20
835.0000000000003
 30
0.0
 40
45.0
 41
0.0
 71
     5
 72
     1
  1
5
  7
寸法ｽﾀｲﾙ
 73
     1
 44
1.0
  0
LINE
  5
2504
330
1E
100
AcDbEntity
  8
01-寸法線
 48
4.0
370
    13
100
AcDbLine
 10
2407.5
 20
720.0000000000002
 30
0.0
 11
2407.5
 21
895.0000000000002
 31
0.0
  0
LINE
  5
2505
330
1E
100
AcDbEntity
  8
01-寸法線
 48
4.0
370
    13
100
AcDbLine
 10
2477.5
 20
620.0000000000004
 30
0.0
 11
2477.499999999999
 21
895.0000000000002
 31
0.0
  0
LINE
  5
2506
330
1E
100
AcDbEntity
  8
01-寸法線
 48
4.0
370
    13
100
AcDbLine
 10
2467.5
 20
805.0000000000002
 30
0.0
 11
2477.5
 21
805.0000000000002
 31
0.0
  0
LINE
  5
2508
330
1E
100
AcDbEntity
  8
01-寸法線
 48
4.0
370
    13
100
AcDbLine
 10
2422.5
 20
705.0000000000004
 30
0.0
 11
2592.5
 21
705.0000000000004
 31
0.0
  0
LINE
  5
2509
330
1E
100
AcDbEntity
  8
01-寸法線
 48
4.0
370
    13
100
AcDbLine
 10
2467.5
 20
620.0000000000004
 30
0.0
 11
2467.5
 21
820.0000000000002
 31
0.0
  0
LINE
  5
250B
330
1E
100
AcDbEntity
  8
01-寸法線
 48
4.0
370
    13
100
AcDbLine
 10
2437.5
 20
805.0000000000002
 30
0.0
 11
2407.5
 21
805.0000000000002
 31
0.0
  0
INSERT
  5
250C
330
1E
100
AcDbEntity
  8
01-寸法線
 48
4.0
370
    13
100
AcDbBlockReference
  2
_Open
 10
2467.5
 20
805.0000000000002
 30
0.0
 41
30.0
 42
30.0
 43
30.0
  0
LINE
  5
250D
330
1E
100
AcDbEntity
  8
01-寸法線
 62
     4
 48
4.0
370
    13
100
AcDbLine
 10
2492.5
 20
605.0000000000004
 30
0.0
 11
2592.5
 21
605.0000000000004
 31
0.0
  0
MTEXT
  5
250E
330
1E
100
AcDbEntity
  8
01-寸法線
 48
4.0
100
AcDbMText
 10
2547.5
 20
655.0000000000009
 30
0.0
 40
45.0
 41
0.0
 71
     5
 72
     1
  1
50
  7
寸法ｽﾀｲﾙ
 11
0.0000000000000001
 21
1.0
 31
0.0
 73
     1
 44
1.0
  0
LINE
  5
250F
330
1E
100
AcDbEntity
  8
01-寸法線
 48
4.0
370
    13
100
AcDbLine
 10
2492.5
 20
605.0000000000004
 30
0.0
 11
2592.499999999999
 21
605.0000000000003
 31
0.0
  0
LINE
  5
2510
330
1E
100
AcDbEntity
  8
01-寸法線
 48
4.0
370
    13
100
AcDbLine
 10
2577.500000000001
 20
635.0000000000004
 30
0.0
 11
2577.500000000001
 21
675.0000000000004
 31
0.0
  0
LINE
  5
2511
330
1E
100
AcDbEntity
  8
01-寸法線
 48
4.0
370
    13
100
AcDbLine
 10
2577.500000000001
 20
635.0000000000004
 30
0.0
 11
2577.500000000001
 21
665.0000000000004
 31
0.0
  0
INSERT
  5
2512
330
1E
100
AcDbEntity
  8
01-寸法線
 48
4.0
370
    13
100
AcDbBlockReference
  2
_Open
 10
2577.500000000001
 20
605.0000000000004
 30
0.0
 41
30.0
 42
30.0
 43
30.0
 50
270.0
  0
INSERT
  5
2513
330
1E
100
AcDbEntity
  8
01-寸法線
 48
4.0
370
    13
100
AcDbBlockReference
  2
_Open
 10
2577.500000000001
 20
605.0000000000004
 30
0.0
 41
30.0
 42
30.0
 43
30.0
 50
270.0
  0
INSERT
  5
2514
330
1E
100
AcDbEntity
  8
01-寸法線
 48
4.0
370
    13
100
AcDbBlockReference
  2
_Open
 10
2577.500000000001
 20
705.0000000000004
 30
0.0
 41
30.0
 42
30.0
 43
30.0
 50
90.0
  0
LINE
  5
2515
330
1E
100
AcDbEntity
  8
01-寸法線
 48
4.0
370
    13
100
AcDbLine
 10
2507.5
 20
805.0000000000002
 30
0.0
 11
2537.5
 21
805.0000000000002
 31
0.0
  0
INSERT
  5
2516
330
1E
100
AcDbEntity
  8
01-寸法線
 48
4.0
370
    13
100
AcDbBlockReference
  2
_Open
 10
2477.5
 20
805.0000000000002
 30
0.0
 41
30.0
 42
30.0
 43
30.0
 50
180.0
  0
INSERT
  5
2517
330
1E
100
AcDbEntity
  8
01-寸法線
 48
4.0
370
    13
100
AcDbBlockReference
  2
_Open
 10
2477.5
 20
880.0
 30
0.0
 41
30.0
 42
30.0
 43
30.0
  0
LINE
  5
2518
330
1E
100
AcDbEntity
  8
01-寸法線
 48
4.0
370
    13
100
AcDbLine
 10
2407.5
 20
880.0
 30
0.0
 11
2477.5
 21
880.0
 31
0.0
  0
MTEXT
  5
2519
330
1E
100
AcDbEntity
  8
01-寸法線
 62
     4
 48
4.0
100
AcDbMText
 10
2442.5
 20
910.0000000000001
 30
0.0
 40
45.0
 41
0.0
 71
     5
 72
     1
  1
35
  7
寸法ｽﾀｲﾙ
 73
     1
 44
1.0
  0
INSERT
  5
251A
330
1E
100
AcDbEntity
  8
01-寸法線
 48
4.0
370
    13
100
AcDbBlockReference
  2
_Open
 10
2407.5
 20
880.0
 30
0.0
 41
30.0
 42
30.0
 43
30.0
 50
180.0
  0
TEXT
  5
251B
330
1E
100
AcDbEntity
  8
08-下線
100
AcDbText
 10
3707.5
 20
552.5000000000004
 30
0.0
 40
45.0
  1
kg
 41
0.8
  7
ｵﾘｼﾞﾅﾙｽﾀｲﾙ
 11
3707.5
 21
575.0000000000004
 31
0.0
100
AcDbText
 73
     2
  0
LINE
  5
251C
330
1E
100
AcDbEntity
  8
10-罫線
 48
4.0
100
AcDbLine
 10
3807.5
 20
750.0000000000004
 30
0.0
 11
3807.5
 21
510.0000000000004
 31
0.0
  0
TEXT
  5
251D
330
1E
100
AcDbEntity
  8
08-下線
100
AcDbText
 10
3598.505714285714
 20
552.5000000000004
 30
0.0
 40
45.0
  1
357
 41
0.8
  7
ｵﾘｼﾞﾅﾙｽﾀｲﾙ
 72
     2
 11
3677.5
 21
575.0000000000004
 31
0.0
100
AcDbText
 73
     2
  0
TEXT
  5
251E
330
1E
100
AcDbEntity
  8
08-下線
100
AcDbText
 10
3545.842857142857
 20
662.4999999999988
 30
0.0
 40
45.0
  1
0.149
 41
0.8
  7
ｵﾘｼﾞﾅﾙｽﾀｲﾙ
 72
     2
 11
3677.5
 21
684.9999999999988
 31
0.0
100
AcDbText
 73
     2
  0
TEXT
  5
251F
330
1E
100
AcDbEntity
  8
08-下線
100
AcDbText
 10
3707.5
 20
662.4999999999988
 30
0.0
 40
45.0
  1
m
 41
0.8
  7
ｵﾘｼﾞﾅﾙｽﾀｲﾙ
 11
3707.5
 21
684.9999999999988
 31
0.0
100
AcDbText
 73
     2
  0
TEXT
  5
2520
330
1E
100
AcDbEntity
  8
08-下線
100
AcDbText
 10
3733.831428571429
 20
687.4999999999988
 30
0.0
 40
20.0
  1
3
 41
0.8
  7
ｵﾘｼﾞﾅﾙｽﾀｲﾙ
 11
3733.831428571429
 21
707.4999999999988
 31
0.0
100
AcDbText
 73
     3
  0
LINE
  5
2522
330
1E
100
AcDbEntity
  8
Defpoints
 48
4.0
100
AcDbLine
 10
4455.0
 20
3150.0
 30
0.0
 11
4455.0
 21
0.0
 31
0.0
  0
LINE
  5
255C
330
1E
100
AcDbEntity
  8
02-外形線
 48
4.0
100
AcDbLine
 10
2317.5
 20
705.0000000000004
 30
0.0
 11
2407.5
 21
705.0000000000004
 31
0.0
  0
LINE
  5
255D
330
1E
100
AcDbEntity
  8
02-外形線
100
AcDbLine
 10
2191.36629787757
 20
371.6574469392335
 30
0.0
 11
2197.5
 21
525.0000000000008
 31
0.0
  0
LINE
  5
255E
330
1E
100
AcDbEntity
  8
02-外形線
100
AcDbLine
 10
2307.5
 20
525.0000000000008
 30
0.0
 11
2317.5
 21
705.0000000000004
 31
0.0
  0
LINE
  5
255F
330
1E
100
AcDbEntity
  8
02-外形線
100
AcDbLine
 10
2197.5
 20
525.0000000000008
 30
0.0
 11
2307.5
 21
525.0000000000008
 31
0.0
  0
LINE
  5
2560
330
1E
100
AcDbEntity
  8
02-外形線
 48
4.0
100
AcDbLine
 10
2418.35087734266
 20
570.5854138189379
 30
0.0
 11
2467.5
 21
605.0000000000004
 31
0.0
  0
LINE
  5
2563
330
1E
100
AcDbEntity
  8
02-外形線
100
AcDbLine
 10
2467.5
 20
605.0000000000004
 30
0.0
 11
2477.5
 21
605.0000000000004
 31
0.0
  0
LINE
  5
257E
330
1E
100
AcDbEntity
  8
02-外形線
 48
4.0
100
AcDbLine
 10
1141.2
 20
1935.246858777524
 30
0.0
 11
1142.92543867133
 21
1932.792706909469
 31
0.0
  0
LINE
  5
2580
330
1E
100
AcDbEntity
  8
02-外形線
 48
4.0
100
AcDbLine
 10
1137.5
 20
2000.0
 30
0.0
 11
1141.2
 21
1935.246858777524
 31
0.0
  0
LINE
  5
2588
330
1E
100
AcDbEntity
  8
03-隠れ線
 48
4.0
100
AcDbLine
 10
1757.5
 20
1935.246858777524
 30
0.0
 11
3757.5
 21
1935.246858777524
 31
0.0
  0
LINE
  5
2589
330
1E
100
AcDbEntity
  8
03-隠れ線
 48
4.0
100
AcDbLine
 10
1757.5
 20
1932.792706909469
 30
0.0
 11
3757.5
 21
1932.792706909469
 31
0.0
  0
LINE
  5
25E3
330
1E
100
AcDbEntity
  8
01-寸法線
 48
4.0
100
AcDbLine
 10
2544.537693339889
 20
390.3719640753585
 30
0.0
 11
2593.686815997228
 21
424.7865502564203
 31
0.0
  0
LINE
  5
25F5
330
1E
100
AcDbEntity
  8
02-外形線
 48
4.0
100
AcDbLine
 10
2407.5
 20
705.0000000000004
 30
0.0
 11
2414.9
 21
575.4937175550483
 31
0.0
  0
LINE
  5
25F6
330
1E
100
AcDbEntity
  8
02-外形線
 48
4.0
100
AcDbLine
 10
2414.9
 20
575.4937175550483
 30
0.0
 11
2418.35087734266
 21
570.5854138189379
 31
0.0
  0
LINE
  5
260C
330
1E
100
AcDbEntity
  8
01-寸法線
 62
     4
 48
4.0
370
    13
100
AcDbLine
 10
2427.170759340277
 20
584.1209109116986
 30
0.0
 11
2459.892784247679
 21
607.1267598627656
 31
0.0
  0
LINE
  5
260E
330
1E
100
AcDbEntity
  8
01-寸法線
 62
     4
 48
4.0
370
    13
100
AcDbLine
 10
2430.325578021895
 20
623.1286848938019
 30
0.0
 11
2413.071191308594
 21
647.670203574354
 31
0.0
  0
LINE
  5
260F
330
1E
100
AcDbEntity
  8
01-寸法線
 62
     4
 48
4.0
370
    13
100
AcDbLine
 10
2468.285228791156
 20
569.1373437965876
 30
0.0
 11
2485.539615504456
 21
544.5958251160357
 31
0.0
  0
INSERT
  5
2611
330
1E
100
AcDbEntity
  8
01-寸法線
 62
     4
 48
4.0
370
    13
100
AcDbBlockReference
  2
_Open
 10
2447.579964735195
 20
598.58716621325
 30
0.0
 41
30.0
 42
30.0
 43
30.0
 50
305.1098729784326
  0
INSERT
  5
2612
330
1E
100
AcDbEntity
  8
01-寸法線
 62
     4
 48
4.0
370
    13
100
AcDbBlockReference
  2
_Open
 10
2451.030842077856
 20
593.6788624771396
 30
0.0
 41
30.0
 42
30.0
 43
30.0
 50
125.1098729784325
  0
MTEXT
  5
2613
330
1E
100
AcDbEntity
  8
01-寸法線
 62
     4
 48
4.0
100
AcDbMText
 10
2446.239903345797
 20
652.6538309473782
 30
0.0
 40
45.0
 41
0.0
 71
     5
 72
     1
  1
3
  7
寸法ｽﾀｲﾙ
 11
0.5735764363510462
 21
-0.819152044288992
 31
0.0
 73
     1
 44
1.0
  0
LINE
  5
2617
330
1E
100
AcDbEntity
  8
01-寸法線
 48
4.0
100
AcDbLine
 10
2447.622024907403
 20
598.4995665061155
 30
0.0
 11
2451.072902250063
 21
593.5912627700052
 31
0.0
  0
LINE
  5
2654
330
1E
100
AcDbEntity
  8
01-寸法線
 62
     4
 48
4.0
370
    13
100
AcDbLine
 10
2418.35087734266
 20
555.5854138189379
 30
0.0
 11
2418.35087734266
 21
475.5854138189379
 31
0.0
  0
LINE
  5
2655
330
1E
100
AcDbEntity
  8
01-寸法線
 62
     4
 48
4.0
370
    13
100
AcDbLine
 10
2467.5
 20
590.0000000000004
 30
0.0
 11
2467.5
 21
475.5854138189379
 31
0.0
  0
LINE
  5
2656
330
1E
100
AcDbEntity
  8
01-寸法線
 62
     4
 48
4.0
370
    13
100
AcDbLine
 10
2388.35087734266
 20
490.5854138189379
 30
0.0
 11
2358.35087734266
 21
490.5854138189379
 31
0.0
  0
LINE
  5
2657
330
1E
100
AcDbEntity
  8
01-寸法線
 62
     4
 48
4.0
370
    13
100
AcDbLine
 10
2497.5
 20
490.5854138189379
 30
0.0
 11
2527.5
 21
490.5854138189379
 31
0.0
  0
LINE
  5
2658
330
1E
100
AcDbEntity
  8
01-寸法線
 62
     4
 48
4.0
370
    13
100
AcDbLine
 10
2418.35087734266
 20
490.5854138189379
 30
0.0
 11
2467.5
 21
490.5854138189379
 31
0.0
  0
INSERT
  5
265A
330
1E
100
AcDbEntity
  8
01-寸法線
 62
     4
 48
4.0
370
    13
100
AcDbBlockReference
  2
_Open
 10
2467.5
 20
490.5854138189379
 30
0.0
 41
30.0
 42
30.0
 43
30.0
 50
180.0
  0
MTEXT
  5
265B
330
1E
100
AcDbEntity
  8
01-寸法線
 62
     4
 48
4.0
100
AcDbMText
 10
2442.92543867133
 20
460.5854138189378
 30
0.0
 40
45.0
 41
0.0
 71
     5
 72
     1
  1
24.6
  7
寸法ｽﾀｲﾙ
 73
     1
 44
1.0
  0
LINE
  5
265C
330
1E
100
AcDbEntity
  8
01-寸法線
 62
     4
 48
4.0
370
    13
100
AcDbLine
 10
2414.9
 20
560.4937175550483
 30
0.0
 11
2414.9
 21
475.5854138189379
 31
0.0
  0
LINE
  5
265D
330
1E
100
AcDbEntity
  8
01-寸法線
 62
     4
 48
4.0
370
    13
100
AcDbLine
 10
2418.35087734266
 20
555.5854138189379
 30
0.0
 11
2418.35087734266
 21
475.5854138189379
 31
0.0
  0
LINE
  5
265E
330
1E
100
AcDbEntity
  8
01-寸法線
 62
     4
 48
4.0
370
    13
100
AcDbLine
 10
2384.9
 20
490.5854138189379
 30
0.0
 11
2334.9
 21
490.5854138189379
 31
0.0
  0
LINE
  5
265F
330
1E
100
AcDbEntity
  8
01-寸法線
 62
     4
 48
4.0
370
    13
100
AcDbLine
 10
2448.35087734266
 20
490.5854138189379
 30
0.0
 11
2478.350877342661
 21
490.5854138189379
 31
0.0
  0
LINE
  5
2660
330
1E
100
AcDbEntity
  8
01-寸法線
 62
     4
 48
4.0
370
    13
100
AcDbLine
 10
2414.9
 20
490.5854138189379
 30
0.0
 11
2418.35087734266
 21
490.5854138189379
 31
0.0
  0
INSERT
  5
2661
330
1E
100
AcDbEntity
  8
01-寸法線
 62
     4
 48
4.0
370
    13
100
AcDbBlockReference
  2
_Open
 10
2414.9
 20
490.5854138189379
 30
0.0
 41
30.0
 42
30.0
 43
30.0
  0
MTEXT
  5
2663
330
1E
100
AcDbEntity
  8
01-寸法線
 62
     4
 48
4.0
100
AcDbMText
 10
2374.9
 20
520.5854138189379
 30
0.0
 40
45.0
 41
0.0
 71
     5
 72
     1
  1
1.7
  7
寸法ｽﾀｲﾙ
 73
     1
 44
1.0
  0
CIRCLE
  5
2666
330
1E
100
AcDbEntity
  8
01-寸法線
100
AcDbCircle
 10
2418.35087734266
 20
490.5854138189382
 30
0.0
 40
1.5
  0
HATCH
  5
2667
330
1E
100
AcDbEntity
  8
01-寸法線
100
AcDbHatch
 10
0.0
 20
0.0
 30
0.0
210
0.0
220
0.0
230
1.0
  2
SOLID
 70
     1
 71
     0
 91
        1
 92
        7
 72
     1
 73
     1
 93
        2
 10
2419.850877342661
 20
490.5854138189382
 42
1.0
 10
2416.85087734266
 20
490.5854138189382
 42
1.0
 97
        0
 75
     0
 76
     1
 47
0.056586623337664
 98
        1
 10
2418.170196120457
 20
490.4958655297499
450
        0
451
        0
460
0.0
461
0.0
452
        0
462
0.0
453
        0
470

  0
ENDSEC
  0
SECTION
  2
OBJECTS
  0
DICTIONARY
  5
C
330
0
100
AcDbDictionary
281
     1
  3
ACAD_CIP_PREVIOUS_PRODUCT_INFO
350
27CA
  3
ACAD_COLOR
350
27A7
  3
ACAD_DETAILVIEWSTYLE
350
27C0
  3
ACAD_GROUP
350
D
  3
ACAD_LAYOUT
350
19
  3
ACAD_MATERIAL
350
2775
  3
ACAD_MLEADERSTYLE
350
27BC
  3
ACAD_MLINESTYLE
350
16
  3
ACAD_PLOTSETTINGS
350
18
  3
ACAD_PLOTSTYLENAME
350
E
  3
ACAD_SCALELIST
350
27AA
  3
ACAD_SECTIONVIEWSTYLE
350
27BE
  3
ACAD_TABLESTYLE
350
27A8
  3
ACAD_VISUALSTYLE
350
278E
  3
ACDB_RECOMPOSE_DATA
350
27F0
  3
AcDbVariableDictionary
350
3FC
  0
DICTIONARY
  5
4CB
330
2
100
AcDbDictionary
280
     1
281
     1
  3
ACAD_LAYERFILTERS
360
56C
  3
ACAD_LAYERSTATES
360
4CC
  0
DICTIONARY
  5
27CB
330
10
100
AcDbDictionary
280
     1
281
     1
  3
ADSK_XREC_LAYER_RECONCILED
360
27CC
  0
DICTIONARY
  5
27CD
330
45
100
AcDbDictionary
280
     1
281
     1
  3
ADSK_XREC_LAYER_RECONCILED
360
27CE
  0
DICTIONARY
  5
27CF
330
46
100
AcDbDictionary
280
     1
281
     1
  3
ADSK_XREC_LAYER_RECONCILED
360
27D0
  0
DICTIONARY
  5
27D1
330
4B0
100
AcDbDictionary
280
     1
281
     1
  3
ADSK_XREC_LAYER_RECONCILED
360
27D2
  0
DICTIONARY
  5
27D3
330
4B1
100
AcDbDictionary
280
     1
281
     1
  3
ADSK_XREC_LAYER_RECONCILED
360
27D4
  0
DICTIONARY
  5
27D5
330
4B2
100
AcDbDictionary
280
     1
281
     1
  3
ADSK_XREC_LAYER_RECONCILED
360
27D6
  0
DICTIONARY
  5
27D7
330
4B3
100
AcDbDictionary
280
     1
281
     1
  3
ADSK_XREC_LAYER_RECONCILED
360
27D8
  0
DICTIONARY
  5
27D9
330
4B4
100
AcDbDictionary
280
     1
281
     1
  3
ADSK_XREC_LAYER_RECONCILED
360
27DA
  0
DICTIONARY
  5
27DB
330
4B5
100
AcDbDictionary
280
     1
281
     1
  3
ADSK_XREC_LAYER_RECONCILED
360
27DC
  0
DICTIONARY
  5
27DD
330
4B6
100
AcDbDictionary
280
     1
281
     1
  3
ADSK_XREC_LAYER_RECONCILED
360
27DE
  0
DICTIONARY
  5
27DF
330
4B7
100
AcDbDictionary
280
     1
281
     1
  3
ADSK_XREC_LAYER_RECONCILED
360
27E0
  0
DICTIONARY
  5
27E1
330
4B8
100
AcDbDictionary
280
     1
281
     1
  3
ADSK_XREC_LAYER_RECONCILED
360
27E2
  0
DICTIONARY
  5
27E3
330
4B9
100
AcDbDictionary
280
     1
281
     1
  3
ADSK_XREC_LAYER_RECONCILED
360
27E4
  0
DICTIONARY
  5
27E5
330
4BA
100
AcDbDictionary
280
     1
281
     1
  3
ADSK_XREC_LAYER_RECONCILED
360
27E6
  0
XRECORD
  5
27CA
102
{ACAD_REACTORS
330
C
102
}
330
C
100
AcDbXrecord
280
     1
300
ACDLT
300
2013
300
ACDLT_F_S
  0
DICTIONARY
  5
27A7
102
{ACAD_REACTORS
330
C
102
}
330
C
100
AcDbDictionary
281
     1
  0
DICTIONARY
  5
27C0
102
{ACAD_REACTORS
330
C
102
}
330
C
100
AcDbDictionary
281
     1
  3
Imperial24
350
27C1
  0
DICTIONARY
  5
D
102
{ACAD_REACTORS
330
C
102
}
330
C
100
AcDbDictionary
281
     1
  0
DICTIONARY
  5
19
102
{ACAD_REACTORS
330
C
102
}
330
C
100
AcDbDictionary
281
     1
  3
Model
350
21
  3
ﾚｲｱｳﾄ1
350
1D
  0
DICTIONARY
  5
2775
102
{ACAD_REACTORS
330
C
102
}
330
C
100
AcDbDictionary
281
     1
  3
ByBlock
350
277E
  3
ByLayer
350
2776
  3
Global
350
2786
  0
DICTIONARY
  5
27BC
102
{ACAD_REACTORS
330
C
102
}
330
C
100
AcDbDictionary
281
     1
  3
Standard
350
27BD
  0
DICTIONARY
  5
16
102
{ACAD_REACTORS
330
C
102
}
330
C
100
AcDbDictionary
281
     1
  3
Standard
350
17
  0
DICTIONARY
  5
18
102
{ACAD_REACTORS
330
C
102
}
330
C
100
AcDbDictionary
281
     1
  0
ACDBDICTIONARYWDFLT
  5
E
102
{ACAD_REACTORS
330
C
102
}
330
C
100
AcDbDictionary
281
     1
  3
Normal
350
F
100
AcDbDictionaryWithDefault
340
F
  0
DICTIONARY
  5
27AA
102
{ACAD_REACTORS
330
C
102
}
330
C
100
AcDbDictionary
281
     1
  3
A0
350
27AB
  3
A1
350
27AC
  3
A2
350
27AD
  3
A3
350
27AE
  3
A4
350
27AF
  3
A5
350
27B0
  3
A6
350
27B1
  3
A7
350
27B2
  3
A8
350
27B3
  3
A9
350
27B4
  3
B0
350
27B5
  3
B1
350
27B6
  3
B2
350
27B7
  3
B3
350
27B8
  3
B4
350
27B9
  3
B5
350
27BA
  3
B6
350
27BB
  0
DICTIONARY
  5
27BE
102
{ACAD_REACTORS
330
C
102
}
330
C
100
AcDbDictionary
281
     1
  3
Imperial24
350
27BF
  0
DICTIONARY
  5
27A8
102
{ACAD_REACTORS
330
C
102
}
330
C
100
AcDbDictionary
281
     1
  3
Standard
350
27A9
  0
DICTIONARY
  5
278E
102
{ACAD_REACTORS
330
C
102
}
330
C
100
AcDbDictionary
281
     1
  3
2dWireframe
350
2794
  3
Basic
350
2793
  3
Brighten
350
279A
  3
ColorChange
350
279E
  3
Conceptual
350
2797
  3
Dim
350
2799
  3
EdgeColorOff
350
27A6
  3
Facepattern
350
279D
  3
Flat
350
278F
  3
FlatWithEdges
350
2790
  3
Gouraud
350
2791
  3
GouraudWithEdges
350
2792
  3
Hidden
350
2796
  3
JitterOff
350
27A4
  3
Linepattern
350
279C
  3
OverhangOff
350
27A5
  3
Realistic
350
2798
  3
Shaded
350
27A3
  3
Shaded with edges
350
27A2
  3
Shades of Gray
350
279F
  3
Sketchy
350
27A0
  3
Thicken
350
279B
  3
Wireframe
350
2795
  3
X-Ray
350
27A1
  0
XRECORD
  5
27F0
102
{ACAD_REACTORS
330
C
102
}
330
C
100
AcDbXrecord
280
     1
 90
        1
330
27A9
  0
DICTIONARY
  5
3FC
102
{ACAD_REACTORS
330
C
102
}
330
C
100
AcDbDictionary
281
     1
  3
CANNOSCALE
350
27EB
  3
CMLEADERSTYLE
350
27E8
  3
CTABLESTYLE
350
27E7
  3
CVIEWDETAILSTYLE
350
27E9
  3
CVIEWSECTIONSTYLE
350
27EA
  3
DIMASSOC
350
3FD
  3
XCLIPFRAME
350
27EC
  0
DICTIONARY
  5
56C
102
{ACAD_REACTORS
330
4CB
102
}
330
4CB
100
AcDbDictionary
280
     1
281
     1
  0
DICTIONARY
  5
4CC
102
{ACAD_REACTORS
330
4CB
102
}
330
4CB
100
AcDbDictionary
281
     1
  0
XRECORD
  5
27CC
102
{ACAD_REACTORS
330
27CB
102
}
330
27CB
100
AcDbXrecord
280
     1
290
     1
  0
XRECORD
  5
27CE
102
{ACAD_REACTORS
330
27CD
102
}
330
27CD
100
AcDbXrecord
280
     1
290
     1
  0
XRECORD
  5
27D0
102
{ACAD_REACTORS
330
27CF
102
}
330
27CF
100
AcDbXrecord
280
     1
290
     1
  0
XRECORD
  5
27D2
102
{ACAD_REACTORS
330
27D1
102
}
330
27D1
100
AcDbXrecord
280
     1
290
     1
  0
XRECORD
  5
27D4
102
{ACAD_REACTORS
330
27D3
102
}
330
27D3
100
AcDbXrecord
280
     1
290
     1
  0
XRECORD
  5
27D6
102
{ACAD_REACTORS
330
27D5
102
}
330
27D5
100
AcDbXrecord
280
     1
290
     1
  0
XRECORD
  5
27D8
102
{ACAD_REACTORS
330
27D7
102
}
330
27D7
100
AcDbXrecord
280
     1
290
     1
  0
XRECORD
  5
27DA
102
{ACAD_REACTORS
330
27D9
102
}
330
27D9
100
AcDbXrecord
280
     1
290
     1
  0
XRECORD
  5
27DC
102
{ACAD_REACTORS
330
27DB
102
}
330
27DB
100
AcDbXrecord
280
     1
290
     1
  0
XRECORD
  5
27DE
102
{ACAD_REACTORS
330
27DD
102
}
330
27DD
100
AcDbXrecord
280
     1
290
     1
  0
XRECORD
  5
27E0
102
{ACAD_REACTORS
330
27DF
102
}
330
27DF
100
AcDbXrecord
280
     1
290
     1
  0
XRECORD
  5
27E2
102
{ACAD_REACTORS
330
27E1
102
}
330
27E1
100
AcDbXrecord
280
     1
290
     1
  0
XRECORD
  5
27E4
102
{ACAD_REACTORS
330
27E3
102
}
330
27E3
100
AcDbXrecord
280
     1
290
     1
  0
XRECORD
  5
27E6
102
{ACAD_REACTORS
330
27E5
102
}
330
27E5
100
AcDbXrecord
280
     1
290
     1
  0
ACDBDETAILVIEWSTYLE
  5
27C1
102
{ACAD_REACTORS
330
27C0
102
}
330
27C0
100
AcDbModelDocViewStyle
 70
     0
  3
Imperial24
290
     0
100
AcDbDetailViewStyle
 70
     0
 71
     0
 90
        3
 71
     1
340
11
 62
   256
 40
0.24
340
0
 62
   256
 40
0.24
300

 40
0.36
280
     3
 71
     2
340
15
 90
       25
 62
   256
 71
     3
340
11
 62
   256
 40
0.24
 90
        1
 40
0.75
 90
        1
300
%<\AcVar ViewType \f "%tc1">% %<\AcVar ViewDetailId>%\PSCALE %<\AcVar ViewScale \f "%sn">%
 71
     4
340
15
 90
       25
 62
   256
340
15
 90
       25
 62
   256
280
     0
  0
LAYOUT
  5
21
102
{ACAD_REACTORS
330
19
102
}
330
19
100
AcDbPlotSettings
  1

  2
RICOH SEIZOU
  4
A4
  6

 40
5.873749732971191
 41
5.873747825622558
 42
5.873748779296875
 43
5.873748779296875
 44
209.9733276367187
 45
296.9259948730469
 46
-5.889999999999999
 47
-5.919999999999999
 48
0.0
 49
0.0
140
0.0
141
0.0
142
1.0
143
15.0
 70
 11940
 72
     1
 73
     1
 74
     1
  7
monochrome.ctb
 75
     0
147
0.0666666666666667
 76
     0
 77
     2
 78
   300
148
0.0679301887084876
149
0.0480314465621632
100
AcDbLayout
  1
Model
 70
     1
 71
     0
 10
0.0
 20
0.0
 11
12.0
 21
9.0
 12
0.0
 22
0.0
 32
0.0
 14
0.0
 24
0.0
 34
0.0
 15
0.0
 25
0.0
 35
0.0
146
0.0
 13
0.0
 23
0.0
 33
0.0
 16
1.0
 26
0.0
 36
0.0
 17
0.0
 27
1.0
 37
0.0
 76
     0
330
1E
331
2773
  0
LAYOUT
  5
1D
102
{ACAD_REACTORS
330
19
102
}
330
19
100
AcDbPlotSettings
  1

  2
\\DBSERVER1\Canon SEIZOU
  4

  6

 40
0.0
 41
0.0
 42
0.0
 43
0.0
 44
0.0
 45
0.0
 46
0.0
 47
0.0
 48
0.0
 49
0.0
140
0.0
141
0.0
142
1.0
143
1.0
 70
   688
 72
     0
 73
     0
 74
     5
  7
monochrome.ctb
 75
    16
147
1.0
 76
     0
 77
     2
 78
   300
148
0.0
149
0.0
100
AcDbLayout
  1
ﾚｲｱｳﾄ1
 70
     1
 71
     1
 10
0.0
 20
0.0
 11
12.0
 21
9.0
 12
0.0
 22
0.0
 32
0.0
 14
1.000000000000000E+20
 24
1.000000000000000E+20
 34
1.000000000000000E+20
 15
-1.000000000000000E+20
 25
-1.000000000000000E+20
 35
-1.000000000000000E+20
146
0.0
 13
0.0
 23
0.0
 33
0.0
 16
1.0
 26
0.0
 36
0.0
 17
0.0
 27
1.0
 37
0.0
 76
     0
330
1A
  0
MATERIAL
  5
277E
102
{ACAD_XDICTIONARY
360
277F
102
}
102
{ACAD_REACTORS
330
2775
102
}
330
2775
100
AcDbMaterial
  1
ByBlock
 72
     0
 43
0.0208333333333333
 43
0.0
 43
0.0
 43
0.0
 43
0.0
 43
0.0208333333333333
 43
0.0
 43
0.0
 43
0.0
 43
0.0
 43
1.0
 43
0.0
 43
0.0
 43
0.0
 43
0.0
 43
1.0
 77
     0
 47
0.0208333333333333
 47
0.0
 47
0.0
 47
0.0
 47
0.0
 47
0.0208333333333333
 47
0.0
 47
0.0
 47
0.0
 47
0.0
 47
1.0
 47
0.0
 47
0.0
 47
0.0
 47
0.0
 47
1.0
171
     0
 49
0.0208333333333333
 49
0.0
 49
0.0
 49
0.0
 49
0.0
 49
0.0208333333333333
 49
0.0
 49
0.0
 49
0.0
 49
0.0
 49
1.0
 49
0.0
 49
0.0
 49
0.0
 49
0.0
 49
1.0
175
     0
142
0.0208333333333333
142
0.0
142
0.0
142
0.0
142
0.0
142
0.0208333333333333
142
0.0
142
0.0
142
0.0
142
0.0
142
1.0
142
0.0
142
0.0
142
0.0
142
0.0
142
1.0
179
     0
144
0.0208333333333333
144
0.0
144
0.0
144
0.0
144
0.0
144
0.0208333333333333
144
0.0
144
0.0
144
0.0
144
0.0
144
1.0
144
0.0
144
0.0
144
0.0
144
0.0
144
1.0
147
0.0208333333333333
147
0.0
147
0.0
147
0.0
147
0.0
147
0.0208333333333333
147
0.0
147
0.0
147
0.0
147
0.0
147
1.0
147
0.0
147
0.0
147
0.0
147
0.0
147
1.0
  0
MATERIAL
  5
2776
102
{ACAD_XDICTIONARY
360
2777
102
}
102
{ACAD_REACTORS
330
2775
102
}
330
2775
100
AcDbMaterial
  1
ByLayer
 72
     0
 43
0.0208333333333333
 43
0.0
 43
0.0
 43
0.0
 43
0.0
 43
0.0208333333333333
 43
0.0
 43
0.0
 43
0.0
 43
0.0
 43
1.0
 43
0.0
 43
0.0
 43
0.0
 43
0.0
 43
1.0
 77
     0
 47
0.0208333333333333
 47
0.0
 47
0.0
 47
0.0
 47
0.0
 47
0.0208333333333333
 47
0.0
 47
0.0
 47
0.0
 47
0.0
 47
1.0
 47
0.0
 47
0.0
 47
0.0
 47
0.0
 47
1.0
171
     0
 49
0.0208333333333333
 49
0.0
 49
0.0
 49
0.0
 49
0.0
 49
0.0208333333333333
 49
0.0
 49
0.0
 49
0.0
 49
0.0
 49
1.0
 49
0.0
 49
0.0
 49
0.0
 49
0.0
 49
1.0
175
     0
142
0.0208333333333333
142
0.0
142
0.0
142
0.0
142
0.0
142
0.0208333333333333
142
0.0
142
0.0
142
0.0
142
0.0
142
1.0
142
0.0
142
0.0
142
0.0
142
0.0
142
1.0
179
     0
144
0.0208333333333333
144
0.0
144
0.0
144
0.0
144
0.0
144
0.0208333333333333
144
0.0
144
0.0
144
0.0
144
0.0
144
1.0
144
0.0
144
0.0
144
0.0
144
0.0
144
1.0
147
0.0208333333333333
147
0.0
147
0.0
147
0.0
147
0.0
147
0.0208333333333333
147
0.0
147
0.0
147
0.0
147
0.0
147
1.0
147
0.0
147
0.0
147
0.0
147
0.0
147
1.0
  0
MATERIAL
  5
2786
102
{ACAD_XDICTIONARY
360
2787
102
}
102
{ACAD_REACTORS
330
2775
102
}
330
2775
100
AcDbMaterial
  1
Global
 72
     0
 43
0.0208333333333333
 43
0.0
 43
0.0
 43
0.0
 43
0.0
 43
0.0208333333333333
 43
0.0
 43
0.0
 43
0.0
 43
0.0
 43
1.0
 43
0.0
 43
0.0
 43
0.0
 43
0.0
 43
1.0
 77
     0
 47
0.0208333333333333
 47
0.0
 47
0.0
 47
0.0
 47
0.0
 47
0.0208333333333333
 47
0.0
 47
0.0
 47
0.0
 47
0.0
 47
1.0
 47
0.0
 47
0.0
 47
0.0
 47
0.0
 47
1.0
171
     0
 49
0.0208333333333333
 49
0.0
 49
0.0
 49
0.0
 49
0.0
 49
0.0208333333333333
 49
0.0
 49
0.0
 49
0.0
 49
0.0
 49
1.0
 49
0.0
 49
0.0
 49
0.0
 49
0.0
 49
1.0
175
     0
142
0.0208333333333333
142
0.0
142
0.0
142
0.0
142
0.0
142
0.0208333333333333
142
0.0
142
0.0
142
0.0
142
0.0
142
1.0
142
0.0
142
0.0
142
0.0
142
0.0
142
1.0
179
     0
144
0.0208333333333333
144
0.0
144
0.0
144
0.0
144
0.0
144
0.0208333333333333
144
0.0
144
0.0
144
0.0
144
0.0
144
1.0
144
0.0
144
0.0
144
0.0
144
0.0
144
1.0
147
0.0208333333333333
147
0.0
147
0.0
147
0.0
147
0.0
147
0.0208333333333333
147
0.0
147
0.0
147
0.0
147
0.0
147
1.0
147
0.0
147
0.0
147
0.0
147
0.0
147
1.0
  0
MLEADERSTYLE
  5
27BD
102
{ACAD_XDICTIONARY
360
2827
102
}
102
{ACAD_REACTORS
330
27BC
102
}
330
27BC
100
AcDbMLeaderStyle
170
     2
171
     1
172
     0
 90
        2
 40
0.0
 41
0.0
173
     1
 91
-1056964608
340
13
 92
       -2
290
     1
 42
0.09
291
     1
 43
0.36
  3
Standard
 44
0.18
300

342
11
174
     1
178
     6
175
     1
176
     0
 93
-1056964608
 45
0.18
292
     0
297
     0
 46
0.18
 94
-1056964608
 47
1.0
 49
1.0
140
1.0
293
     1
141
0.0
294
     1
177
     0
142
1.0
295
     0
296
     0
143
0.125
1001
ACAD_MLEADERVER
1070
     2
  0
MLINESTYLE
  5
17
102
{ACAD_REACTORS
330
16
102
}
330
16
100
AcDbMlineStyle
  2
STANDARD
 70
     0
  3

 62
   256
 51
90.0
 52
90.0
 71
     2
 49
0.5
 62
   256
  6
BYLAYER
 49
-0.5
 62
   256
  6
BYLAYER
  0
ACDBPLACEHOLDER
  5
F
102
{ACAD_REACTORS
330
E
102
}
330
E
  0
SCALE
  5
27AB
102
{ACAD_REACTORS
330
27AA
102
}
330
27AA
100
AcDbScale
 70
     0
300
1:1
140
1.0
141
1.0
290
     1
  0
SCALE
  5
27AC
102
{ACAD_REACTORS
330
27AA
102
}
330
27AA
100
AcDbScale
 70
     0
300
1/128" = 1'-0"
140
0.0078125
141
12.0
290
     0
  0
SCALE
  5
27AD
102
{ACAD_REACTORS
330
27AA
102
}
330
27AA
100
AcDbScale
 70
     0
300
1/64" = 1'-0"
140
0.015625
141
12.0
290
     0
  0
SCALE
  5
27AE
102
{ACAD_REACTORS
330
27AA
102
}
330
27AA
100
AcDbScale
 70
     0
300
1/32" = 1'-0"
140
0.03125
141
12.0
290
     0
  0
SCALE
  5
27AF
102
{ACAD_REACTORS
330
27AA
102
}
330
27AA
100
AcDbScale
 70
     0
300
1/16" = 1'-0"
140
0.0625
141
12.0
290
     0
  0
SCALE
  5
27B0
102
{ACAD_REACTORS
330
27AA
102
}
330
27AA
100
AcDbScale
 70
     0
300
3/32" = 1'-0"
140
0.09375
141
12.0
290
     0
  0
SCALE
  5
27B1
102
{ACAD_REACTORS
330
27AA
102
}
330
27AA
100
AcDbScale
 70
     0
300
1/8" = 1'-0"
140
0.125
141
12.0
290
     0
  0
SCALE
  5
27B2
102
{ACAD_REACTORS
330
27AA
102
}
330
27AA
100
AcDbScale
 70
     0
300
3/16" = 1'-0"
140
0.1875
141
12.0
290
     0
  0
SCALE
  5
27B3
102
{ACAD_REACTORS
330
27AA
102
}
330
27AA
100
AcDbScale
 70
     0
300
1/4" = 1'-0"
140
0.25
141
12.0
290
     0
  0
SCALE
  5
27B4
102
{ACAD_REACTORS
330
27AA
102
}
330
27AA
100
AcDbScale
 70
     0
300
3/8" = 1'-0"
140
0.375
141
12.0
290
     0
  0
SCALE
  5
27B5
102
{ACAD_REACTORS
330
27AA
102
}
330
27AA
100
AcDbScale
 70
     0
300
1/2" = 1'-0"
140
0.5
141
12.0
290
     0
  0
SCALE
  5
27B6
102
{ACAD_REACTORS
330
27AA
102
}
330
27AA
100
AcDbScale
 70
     0
300
3/4" = 1'-0"
140
0.75
141
12.0
290
     0
  0
SCALE
  5
27B7
102
{ACAD_REACTORS
330
27AA
102
}
330
27AA
100
AcDbScale
 70
     0
300
1" = 1'-0"
140
1.0
141
12.0
290
     0
  0
SCALE
  5
27B8
102
{ACAD_REACTORS
330
27AA
102
}
330
27AA
100
AcDbScale
 70
     0
300
1-1/2" = 1'-0"
140
1.5
141
12.0
290
     0
  0
SCALE
  5
27B9
102
{ACAD_REACTORS
330
27AA
102
}
330
27AA
100
AcDbScale
 70
     0
300
3" = 1'-0"
140
3.0
141
12.0
290
     0
  0
SCALE
  5
27BA
102
{ACAD_REACTORS
330
27AA
102
}
330
27AA
100
AcDbScale
 70
     0
300
6" = 1'-0"
140
6.0
141
12.0
290
     0
  0
SCALE
  5
27BB
102
{ACAD_REACTORS
330
27AA
102
}
330
27AA
100
AcDbScale
 70
     0
300
1'-0" = 1'-0"
140
12.0
141
12.0
290
     0
  0
ACDBSECTIONVIEWSTYLE
  5
27BF
102
{ACAD_REACTORS
330
27BE
102
}
330
27BE
100
AcDbModelDocViewStyle
 70
     0
  3
Imperial24
290
     0
100
AcDbSectionViewStyle
 70
     0
 71
     0
 90
       78
 71
     1
340
11
 62
   256
 40
0.24
340
0
340
0
 62
   256
 40
0.24
300
I, O, Q, S, X, Z
 40
0.48
 90
        3
 40
0.18
 90
        1
 71
     2
340
28
 90
       25
 62
   256
340
15
 90
       50
 62
   256
 40
0.24
 40
0.0
 40
0.24
 71
     3
340
11
 62
   256
 40
0.24
 90
        1
 40
0.75
 90
        1
300
%<\AcVar ViewType \f "%tc1">% %<\AcVar ViewSectionStartId>%-%<\AcVar ViewSectionEndId>%\PSCALE %<\AcVar ViewScale \f "%sn">%
 71
     4
 62
   256
 62
   257
300
ANSI31
 40
1.0
 90
        0
290
     0
290
     0
 90
        6
 40
0.0
 40
1.570796326794896
 40
0.2617993877991494
 40
1.308996938995747
 40
-0.2617993877991494
 40
1.832595714594046
  0
TABLESTYLE
  5
27A9
102
{ACAD_XDICTIONARY
360
27EE
102
}
102
{ACAD_REACTORS
330
27A8
102
}
330
27A8
100
AcDbTableStyle
  3
Standard
 70
     0
 71
     0
 40
0.06
 41
0.06
280
     0
281
     0
  7
STANDARD
140
0.18
170
     2
 62
     0
 63
     7
283
     0
274
    -2
284
     1
 64
     0
275
    -2
285
     1
 65
     0
276
    -2
286
     1
 66
     0
277
    -2
287
     1
 67
     0
278
    -2
288
     1
 68
     0
279
    -2
289
     1
 69
     0
  7
STANDARD
140
0.25
170
     5
 62
     0
 63
     7
283
     0
274
    -2
284
     1
 64
     0
275
    -2
285
     1
 65
     0
276
    -2
286
     1
 66
     0
277
    -2
287
     1
 67
     0
278
    -2
288
     1
 68
     0
279
    -2
289
     1
 69
     0
  7
STANDARD
140
0.18
170
     5
 62
     0
 63
     7
283
     0
274
    -2
284
     1
 64
     0
275
    -2
285
     1
 65
     0
276
    -2
286
     1
 66
     0
277
    -2
287
     1
 67
     0
278
    -2
288
     1
 68
     0
279
    -2
289
     1
 69
     0
  0
VISUALSTYLE
  5
2794
102
{ACAD_XDICTIONARY
360
27FF
102
}
102
{ACAD_REACTORS
330
278E
102
}
330
278E
100
AcDbVisualStyle
  2
2dWireframe
 70
     4
 71
     0
 72
     2
 73
     0
 90
        0
 40
-0.6
 41
-30.0
 62
     5
 63
     7
421
 16777215
 74
     1
 91
        4
 64
     7
 65
   257
 75
     1
175
     1
 42
1.0
 92
        0
 66
   257
 43
1.0
 76
     1
 77
     6
 78
     2
 67
     7
 79
     5
170
     0
171
     0
290
     0
174
     0
 93
        1
 44
0.0
173
     0
291
     0
 45
0.0
1001
ACAD
1000
AcDbSavedByObjectVersion
1070
     0
  0
VISUALSTYLE
  5
2793
102
{ACAD_XDICTIONARY
360
27FD
102
}
102
{ACAD_REACTORS
330
278E
102
}
330
278E
100
AcDbVisualStyle
  2
Basic
 70
     7
 71
     1
 72
     0
 73
     1
 90
        0
 40
-0.6
 41
-30.0
 62
     5
 63
     7
421
 16777215
 74
     0
 91
        4
 64
     7
 65
   257
 75
     1
175
     1
 42
1.0
 92
        8
 66
     7
 43
1.0
 76
     1
 77
     6
 78
     2
 67
     7
 79
     5
170
     0
171
     0
290
     0
174
     0
 93
        1
 44
0.0
173
     0
291
     1
 45
0.0
1001
ACAD
1000
AcDbSavedByObjectVersion
1070
     0
  0
VISUALSTYLE
  5
279A
102
{ACAD_XDICTIONARY
360
280B
102
}
102
{ACAD_REACTORS
330
278E
102
}
330
278E
100
AcDbVisualStyle
  2
Brighten
 70
    12
 71
     2
 72
     2
 73
     0
 90
        0
 40
-0.6
 41
-30.0
 62
     5
 63
     7
421
 16777215
 74
     1
 91
        4
 64
     7
 65
   257
 75
     1
175
     1
 42
1.0
 92
        8
 66
     7
 43
1.0
 76
     1
 77
     6
 78
     2
 67
     7
 79
     5
170
     0
171
     0
290
     0
174
     0
 93
        1
 44
50.0
173
     0
291
     1
 45
0.0
1001
ACAD
1000
AcDbSavedByObjectVersion
1070
     0
  0
VISUALSTYLE
  5
279E
102
{ACAD_XDICTIONARY
360
2813
102
}
102
{ACAD_REACTORS
330
278E
102
}
330
278E
100
AcDbVisualStyle
  2
ColorChange
 70
    16
 71
     2
 72
     2
 73
     3
 90
        0
 40
-0.6
 41
-30.0
 62
     5
 63
     8
421
  8421504
 74
     1
 91
        4
 64
     7
 65
   257
 75
     1
175
     1
 42
1.0
 92
        8
 66
     8
424
  8421504
 43
1.0
 76
     1
 77
     6
 78
     2
 67
     7
 79
     5
170
     0
171
     0
290
     0
174
     0
 93
        1
 44
0.0
173
     0
291
     1
 45
0.0
1001
ACAD
1000
AcDbSavedByObjectVersion
1070
     0
  0
VISUALSTYLE
  5
2797
102
{ACAD_XDICTIONARY
360
2805
102
}
102
{ACAD_REACTORS
330
278E
102
}
330
278E
100
AcDbVisualStyle
  2
Conceptual
 70
     9
 71
     3
 72
     2
 73
     0
 90
        0
 40
-0.6
 41
-30.0
 62
     5
 63
     7
421
 16777215
 74
     2
 91
        2
 64
     7
 65
   257
 75
     1
175
     1
 42
179.0
 92
        8
 66
     7
 43
1.0
 76
     1
 77
     6
 78
     2
 67
     7
 79
     3
170
     0
171
     0
290
     0
174
     0
 93
        1
 44
0.0
173
     0
291
     0
 45
0.0
1001
ACAD
1000
AcDbSavedByObjectVersion
1070
     0
  0
VISUALSTYLE
  5
2799
102
{ACAD_XDICTIONARY
360
2809
102
}
102
{ACAD_REACTORS
330
278E
102
}
330
278E
100
AcDbVisualStyle
  2
Dim
 70
    11
 71
     2
 72
     2
 73
     0
 90
        0
 40
-0.6
 41
-30.0
 62
     5
 63
     7
421
 16777215
 74
     1
 91
        4
 64
     7
 65
   257
 75
     1
175
     1
 42
1.0
 92
        8
 66
     7
 43
1.0
 76
     1
 77
     6
 78
     2
 67
     7
 79
     5
170
     0
171
     0
290
     0
174
     0
 93
        1
 44
-50.0
173
     0
291
     1
 45
0.0
1001
ACAD
1000
AcDbSavedByObjectVersion
1070
     0
  0
VISUALSTYLE
  5
27A6
102
{ACAD_XDICTIONARY
360
2823
102
}
102
{ACAD_REACTORS
330
278E
102
}
330
278E
100
AcDbVisualStyle
  2
EdgeColorOff
 70
    22
 71
     2
 72
     2
 73
     0
 90
        0
 40
-0.6
 41
-30.0
 62
     5
 63
     7
421
 16777215
 74
     1
 91
        4
 64
     7
 65
   257
 75
     1
175
     1
 42
1.0
 92
        8
 66
     7
 43
1.0
 76
     1
 77
     6
 78
     2
 67
     7
 79
     5
170
     0
171
     0
290
     0
174
     0
 93
        1
 44
0.0
173
     0
291
     1
 45
0.0
1001
ACAD
1000
AcDbSavedByObjectVersion
1070
     0
  0
VISUALSTYLE
  5
279D
102
{ACAD_XDICTIONARY
360
2811
102
}
102
{ACAD_REACTORS
330
278E
102
}
330
278E
100
AcDbVisualStyle
  2
Facepattern
 70
    15
 71
     2
 72
     2
 73
     0
 90
        0
 40
-0.6
 41
-30.0
 62
     5
 63
     7
421
 16777215
 74
     1
 91
        4
 64
     7
 65
   257
 75
     1
175
     1
 42
1.0
 92
        8
 66
     7
 43
1.0
 76
     1
 77
     6
 78
     2
 67
     7
 79
     5
170
     0
171
     0
290
     0
174
     0
 93
        1
 44
0.0
173
     0
291
     1
 45
0.0
1001
ACAD
1000
AcDbSavedByObjectVersion
1070
     0
  0
VISUALSTYLE
  5
278F
102
{ACAD_XDICTIONARY
360
27F5
102
}
102
{ACAD_REACTORS
330
278E
102
}
330
278E
100
AcDbVisualStyle
  2
Flat
 70
     0
 71
     2
 72
     1
 73
     1
 90
        2
 40
-0.6
 41
30.0
 62
     5
 63
     7
421
 16777215
 74
     0
 91
        0
 64
     7
 65
   257
 75
     1
175
     1
 42
1.0
 92
        8
 66
     7
 43
1.0
 76
     1
 77
     6
 78
     2
 67
     7
 79
     5
170
     0
171
     0
290
     0
174
     0
 93
       13
 44
0.0
173
     0
291
     1
 45
0.0
1001
ACAD
1000
AcDbSavedByObjectVersion
1070
     0
  0
VISUALSTYLE
  5
2790
102
{ACAD_XDICTIONARY
360
27F7
102
}
102
{ACAD_REACTORS
330
278E
102
}
330
278E
100
AcDbVisualStyle
  2
FlatWithEdges
 70
     1
 71
     2
 72
     1
 73
     1
 90
        2
 40
-0.6
 41
30.0
 62
     5
 63
     7
421
 16777215
 74
     1
 91
        0
 64
     7
 65
   257
 75
     1
175
     1
 42
1.0
 92
        0
 66
   257
 43
1.0
 76
     1
 77
     6
 78
     2
 67
     7
 79
     5
170
     0
171
     0
290
     0
174
     0
 93
       13
 44
0.0
173
     0
291
     1
 45
0.0
1001
ACAD
1000
AcDbSavedByObjectVersion
1070
     0
  0
VISUALSTYLE
  5
2791
102
{ACAD_XDICTIONARY
360
27F9
102
}
102
{ACAD_REACTORS
330
278E
102
}
330
278E
100
AcDbVisualStyle
  2
Gouraud
 70
     2
 71
     2
 72
     2
 73
     1
 90
        2
 40
-0.6
 41
30.0
 62
     5
 63
     7
421
 16777215
 74
     0
 91
        0
 64
     7
 65
   257
 75
     1
175
     1
 42
1.0
 92
        0
 66
     7
 43
1.0
 76
     1
 77
     6
 78
     2
 67
     7
 79
     5
170
     0
171
     0
290
     0
174
     0
 93
       13
 44
0.0
173
     0
291
     1
 45
0.0
1001
ACAD
1000
AcDbSavedByObjectVersion
1070
     0
  0
VISUALSTYLE
  5
2792
102
{ACAD_XDICTIONARY
360
27FB
102
}
102
{ACAD_REACTORS
330
278E
102
}
330
278E
100
AcDbVisualStyle
  2
GouraudWithEdges
 70
     3
 71
     2
 72
     2
 73
     1
 90
        2
 40
-0.6
 41
30.0
 62
     5
 63
     7
421
 16777215
 74
     1
 91
        0
 64
     7
 65
   257
 75
     1
175
     1
 42
1.0
 92
        0
 66
   257
 43
1.0
 76
     1
 77
     6
 78
     2
 67
     7
 79
     5
170
     0
171
     0
290
     0
174
     0
 93
       13
 44
0.0
173
     0
291
     1
 45
0.0
1001
ACAD
1000
AcDbSavedByObjectVersion
1070
     0
  0
VISUALSTYLE
  5
2796
102
{ACAD_XDICTIONARY
360
2803
102
}
102
{ACAD_REACTORS
330
278E
102
}
330
278E
100
AcDbVisualStyle
  2
Hidden
 70
     6
 71
     1
 72
     2
 73
     2
 90
        0
 40
-0.6
 41
-30.0
 62
     5
 63
     7
421
 16777215
 74
     2
 91
        2
 64
     7
 65
   257
 75
     2
175
     1
 42
40.0
 92
        0
 66
   257
 43
1.0
 76
     1
 77
     6
 78
     2
 67
     7
 79
     3
170
     0
171
     0
290
     0
174
     0
 93
        1
 44
0.0
173
     0
291
     0
 45
0.0
1001
ACAD
1000
AcDbSavedByObjectVersion
1070
     0
  0
VISUALSTYLE
  5
27A4
102
{ACAD_XDICTIONARY
360
281F
102
}
102
{ACAD_REACTORS
330
278E
102
}
330
278E
100
AcDbVisualStyle
  2
JitterOff
 70
    20
 71
     2
 72
     2
 73
     0
 90
        0
 40
-0.6
 41
-30.0
 62
     5
 63
     7
421
 16777215
 74
     1
 91
        4
 64
     7
 65
   257
 75
     1
175
     1
 42
1.0
 92
       10
 66
     7
 43
1.0
 76
     1
 77
     6
 78
     2
 67
     7
 79
     5
170
     0
171
     0
290
     0
174
     0
 93
        1
 44
0.0
173
     0
291
     1
 45
0.0
1001
ACAD
1000
AcDbSavedByObjectVersion
1070
     0
  0
VISUALSTYLE
  5
279C
102
{ACAD_XDICTIONARY
360
280F
102
}
102
{ACAD_REACTORS
330
278E
102
}
330
278E
100
AcDbVisualStyle
  2
Linepattern
 70
    14
 71
     2
 72
     2
 73
     0
 90
        0
 40
-0.6
 41
-30.0
 62
     5
 63
     7
421
 16777215
 74
     1
 91
        4
 64
     7
 65
   257
 75
     7
175
     7
 42
1.0
 92
        8
 66
     7
 43
1.0
 76
     1
 77
     6
 78
     2
 67
     7
 79
     5
170
     0
171
     0
290
     0
174
     0
 93
        1
 44
0.0
173
     0
291
     1
 45
0.0
1001
ACAD
1000
AcDbSavedByObjectVersion
1070
     0
  0
VISUALSTYLE
  5
27A5
102
{ACAD_XDICTIONARY
360
2821
102
}
102
{ACAD_REACTORS
330
278E
102
}
330
278E
100
AcDbVisualStyle
  2
OverhangOff
 70
    21
 71
     2
 72
     2
 73
     0
 90
        0
 40
-0.6
 41
-30.0
 62
     5
 63
     7
421
 16777215
 74
     1
 91
        4
 64
     7
 65
   257
 75
     1
175
     1
 42
1.0
 92
        9
 66
     7
 43
1.0
 76
     1
 77
     6
 78
     2
 67
     7
 79
     5
170
     0
171
     0
290
     0
174
     0
 93
        1
 44
0.0
173
     0
291
     1
 45
0.0
1001
ACAD
1000
AcDbSavedByObjectVersion
1070
     0
  0
VISUALSTYLE
  5
2798
102
{ACAD_XDICTIONARY
360
2807
102
}
102
{ACAD_REACTORS
330
278E
102
}
330
278E
100
AcDbVisualStyle
  2
Realistic
 70
     8
 71
     2
 72
     3
 73
     0
 90
        2
 40
-0.6
 41
30.0
 62
     5
 63
     7
421
 16777215
 74
     0
 91
        0
 64
     7
 65
   257
 75
     1
175
     1
 42
1.0
 92
        8
 66
   257
 43
1.0
 76
     1
 77
     6
 78
     2
 67
     7
 79
     3
170
     0
171
     0
290
     0
174
     0
 93
       13
 44
0.0
173
     0
291
     0
 45
0.0
1001
ACAD
1000
AcDbSavedByObjectVersion
1070
     0
  0
VISUALSTYLE
  5
27A3
102
{ACAD_XDICTIONARY
360
281D
102
}
102
{ACAD_REACTORS
330
278E
102
}
330
278E
100
AcDbVisualStyle
  2
Shaded
 70
    27
 71
     2
 72
     2
 73
     1
 90
        2
 40
-0.6
 41
30.0
 62
     5
 63
     7
421
 16777215
 74
     0
 91
        4
 64
     7
 65
   257
 75
     1
175
     1
 42
1.0
 92
        8
 66
   257
 43
1.0
 76
     1
 77
     6
 78
     2
 67
     8
425
  7895160
 79
     3
170
     0
171
     0
290
     0
174
     0
 93
        5
 44
0.0
173
     0
291
     0
 45
0.0
1001
ACAD
1000
AcDbSavedByObjectVersion
1070
     0
  0
VISUALSTYLE
  5
27A2
102
{ACAD_XDICTIONARY
360
281B
102
}
102
{ACAD_REACTORS
330
278E
102
}
330
278E
100
AcDbVisualStyle
  2
Shaded with edges
 70
    26
 71
     2
 72
     2
 73
     1
 90
        2
 40
-0.6
 41
30.0
 62
     5
 63
     7
421
 16777215
 74
     1
 91
       10
 64
     7
 65
   257
 75
     2
175
     1
 42
1.0
 92
        8
 66
   257
 43
1.0
 76
     1
 77
     6
 78
     2
 67
     7
 79
     3
170
     0
171
     0
290
     0
174
     0
 93
        5
 44
0.0
173
     0
291
     0
 45
0.0
1001
ACAD
1000
AcDbSavedByObjectVersion
1070
     0
  0
VISUALSTYLE
  5
279F
102
{ACAD_XDICTIONARY
360
2815
102
}
102
{ACAD_REACTORS
330
278E
102
}
330
278E
100
AcDbVisualStyle
  2
Shades of Gray
 70
    23
 71
     2
 72
     2
 73
     3
 90
        0
 40
-0.6
 41
-30.0
 62
     5
 63
     7
421
 16777215
 74
     2
 91
        2
 64
     7
 65
     7
 75
     1
175
     1
 42
40.0
 92
        8
 66
     7
 43
1.0
 76
     1
 77
     6
 78
     2
 67
     7
 79
     3
170
     0
171
     0
290
     0
174
     0
 93
        1
 44
0.0
173
     0
291
     0
 45
0.0
1001
ACAD
1000
AcDbSavedByObjectVersion
1070
     0
  0
VISUALSTYLE
  5
27A0
102
{ACAD_XDICTIONARY
360
2817
102
}
102
{ACAD_REACTORS
330
278E
102
}
330
278E
100
AcDbVisualStyle
  2
Sketchy
 70
    24
 71
     1
 72
     2
 73
     2
 90
        0
 40
-0.6
 41
-30.0
 62
     5
 63
     7
421
 16777215
 74
     2
 91
        2
 64
     7
 65
     7
 75
     1
175
     1
 42
40.0
 92
       11
 66
     7
 43
1.0
 76
     1
 77
     6
 78
     2
 67
     7
 79
     6
170
     0
171
     0
290
     0
174
     0
 93
        1
 44
0.0
173
     0
291
     0
 45
0.0
1001
ACAD
1000
AcDbSavedByObjectVersion
1070
     0
  0
VISUALSTYLE
  5
279B
102
{ACAD_XDICTIONARY
360
280D
102
}
102
{ACAD_REACTORS
330
278E
102
}
330
278E
100
AcDbVisualStyle
  2
Thicken
 70
    13
 71
     2
 72
     2
 73
     0
 90
        0
 40
-0.6
 41
-30.0
 62
     5
 63
     7
421
 16777215
 74
     1
 91
        4
 64
     7
 65
   257
 75
     1
175
     1
 42
1.0
 92
       12
 66
     7
 43
1.0
 76
     1
 77
     6
 78
     2
 67
     7
 79
     5
170
     0
171
     0
290
     0
174
     0
 93
        1
 44
0.0
173
     0
291
     1
 45
0.0
1001
ACAD
1000
AcDbSavedByObjectVersion
1070
     0
  0
VISUALSTYLE
  5
2795
102
{ACAD_XDICTIONARY
360
2801
102
}
102
{ACAD_REACTORS
330
278E
102
}
330
278E
100
AcDbVisualStyle
  2
Wireframe
 70
     5
 71
     0
 72
     2
 73
     0
 90
        0
 40
-0.6
 41
-30.0
 62
     5
 63
     7
421
 16777215
 74
     1
 91
        4
 64
     7
 65
   257
 75
     1
175
     1
 42
1.0
 92
        0
 66
   257
 43
1.0
 76
     1
 77
     6
 78
     2
 67
     7
 79
     3
170
     0
171
     0
290
     0
174
     0
 93
        1
 44
0.0
173
     0
291
     0
 45
0.0
1001
ACAD
1000
AcDbSavedByObjectVersion
1070
     0
  0
VISUALSTYLE
  5
27A1
102
{ACAD_XDICTIONARY
360
2819
102
}
102
{ACAD_REACTORS
330
278E
102
}
330
278E
100
AcDbVisualStyle
  2
X-Ray
 70
    25
 71
     2
 72
     2
 73
     1
 90
        1
 40
0.5
 41
-30.0
 62
     5
 63
     7
421
 16777215
 74
     1
 91
        0
 64
     7
 65
   257
 75
     1
175
     1
 42
1.0
 92
        8
 66
     7
 43
1.0
 76
     1
 77
     6
 78
     2
 67
     7
 79
     3
170
     0
171
     0
290
     0
174
     0
 93
       13
 44
0.0
173
     0
291
     0
 45
0.0
1001
ACAD
1000
AcDbSavedByObjectVersion
1070
     0
  0
DICTIONARYVAR
  5
27EB
102
{ACAD_REACTORS
330
3FC
102
}
330
3FC
100
DictionaryVariables
280
     0
  1
1:1
  0
DICTIONARYVAR
  5
27E8
102
{ACAD_REACTORS
330
3FC
102
}
330
3FC
100
DictionaryVariables
280
     0
  1
STANDARD
  0
DICTIONARYVAR
  5
27E7
102
{ACAD_REACTORS
330
3FC
102
}
330
3FC
100
DictionaryVariables
280
     0
  1
STANDARD
  0
DICTIONARYVAR
  5
27E9
102
{ACAD_REACTORS
330
3FC
102
}
330
3FC
100
DictionaryVariables
280
     0
  1
Imperial24
  0
DICTIONARYVAR
  5
27EA
102
{ACAD_REACTORS
330
3FC
102
}
330
3FC
100
DictionaryVariables
280
     0
  1
Imperial24
  0
DICTIONARYVAR
  5
3FD
102
{ACAD_REACTORS
330
3FC
102
}
330
3FC
100
DictionaryVariables
280
     0
  1
1
  0
DICTIONARYVAR
  5
27EC
102
{ACAD_REACTORS
330
3FC
102
}
330
3FC
100
DictionaryVariables
280
     0
  1
2
  0
DICTIONARY
  5
277F
330
277E
100
AcDbDictionary
280
     1
281
     1
  3
ACAD_XREC_ROUNDTRIP
360
27F3
  3
BUMPTILE
360
2781
  3
DIFFUSETILE
360
2780
  3
OPACITYTILE
360
2784
  3
REFLECTIONTILE
360
2783
  3
REFRACTIONTILE
360
2785
  3
SPECULARTILE
360
2782
  0
DICTIONARY
  5
2777
330
2776
100
AcDbDictionary
280
     1
281
     1
  3
ACAD_XREC_ROUNDTRIP
360
27F2
  3
BUMPTILE
360
2779
  3
DIFFUSETILE
360
2778
  3
OPACITYTILE
360
277C
  3
REFLECTIONTILE
360
277B
  3
REFRACTIONTILE
360
277D
  3
SPECULARTILE
360
277A
  0
DICTIONARY
  5
2787
330
2786
100
AcDbDictionary
280
     1
281
     1
  3
ACAD_XREC_ROUNDTRIP
360
27F4
  3
BUMPTILE
360
2789
  3
DIFFUSETILE
360
2788
  3
OPACITYTILE
360
278C
  3
REFLECTIONTILE
360
278B
  3
REFRACTIONTILE
360
278D
  3
SPECULARTILE
360
278A
  0
DICTIONARY
  5
2827
330
27BD
100
AcDbDictionary
280
     1
281
     1
  3
ACAD_XREC_ROUNDTRIP
360
2828
  0
DICTIONARY
  5
27EE
330
27A9
100
AcDbDictionary
280
     1
281
     1
  3
ACAD_ROUNDTRIP_2008_TABLESTYLE_CELLSTYLEMAP
360
27EF
  3
ACAD_XREC_ROUNDTRIP
360
2825
  0
DICTIONARY
  5
27FF
330
2794
100
AcDbDictionary
280
     1
281
     1
  3
ACAD_XREC_ROUNDTRIP
360
2800
  0
DICTIONARY
  5
27FD
330
2793
100
AcDbDictionary
280
     1
281
     1
  3
ACAD_XREC_ROUNDTRIP
360
27FE
  0
DICTIONARY
  5
280B
330
279A
100
AcDbDictionary
280
     1
281
     1
  3
ACAD_XREC_ROUNDTRIP
360
280C
  0
DICTIONARY
  5
2813
330
279E
100
AcDbDictionary
280
     1
281
     1
  3
ACAD_XREC_ROUNDTRIP
360
2814
  0
DICTIONARY
  5
2805
330
2797
100
AcDbDictionary
280
     1
281
     1
  3
ACAD_XREC_ROUNDTRIP
360
2806
  0
DICTIONARY
  5
2809
330
2799
100
AcDbDictionary
280
     1
281
     1
  3
ACAD_XREC_ROUNDTRIP
360
280A
  0
DICTIONARY
  5
2823
330
27A6
100
AcDbDictionary
280
     1
281
     1
  3
ACAD_XREC_ROUNDTRIP
360
2824
  0
DICTIONARY
  5
2811
330
279D
100
AcDbDictionary
280
     1
281
     1
  3
ACAD_XREC_ROUNDTRIP
360
2812
  0
DICTIONARY
  5
27F5
330
278F
100
AcDbDictionary
280
     1
281
     1
  3
ACAD_XREC_ROUNDTRIP
360
27F6
  0
DICTIONARY
  5
27F7
330
2790
100
AcDbDictionary
280
     1
281
     1
  3
ACAD_XREC_ROUNDTRIP
360
27F8
  0
DICTIONARY
  5
27F9
330
2791
100
AcDbDictionary
280
     1
281
     1
  3
ACAD_XREC_ROUNDTRIP
360
27FA
  0
DICTIONARY
  5
27FB
330
2792
100
AcDbDictionary
280
     1
281
     1
  3
ACAD_XREC_ROUNDTRIP
360
27FC
  0
DICTIONARY
  5
2803
330
2796
100
AcDbDictionary
280
     1
281
     1
  3
ACAD_XREC_ROUNDTRIP
360
2804
  0
DICTIONARY
  5
281F
330
27A4
100
AcDbDictionary
280
     1
281
     1
  3
ACAD_XREC_ROUNDTRIP
360
2820
  0
DICTIONARY
  5
280F
330
279C
100
AcDbDictionary
280
     1
281
     1
  3
ACAD_XREC_ROUNDTRIP
360
2810
  0
DICTIONARY
  5
2821
330
27A5
100
AcDbDictionary
280
     1
281
     1
  3
ACAD_XREC_ROUNDTRIP
360
2822
  0
DICTIONARY
  5
2807
330
2798
100
AcDbDictionary
280
     1
281
     1
  3
ACAD_XREC_ROUNDTRIP
360
2808
  0
DICTIONARY
  5
281D
330
27A3
100
AcDbDictionary
280
     1
281
     1
  3
ACAD_XREC_ROUNDTRIP
360
281E
  0
DICTIONARY
  5
281B
330
27A2
100
AcDbDictionary
280
     1
281
     1
  3
ACAD_XREC_ROUNDTRIP
360
281C
  0
DICTIONARY
  5
2815
330
279F
100
AcDbDictionary
280
     1
281
     1
  3
ACAD_XREC_ROUNDTRIP
360
2816
  0
DICTIONARY
  5
2817
330
27A0
100
AcDbDictionary
280
     1
281
     1
  3
ACAD_XREC_ROUNDTRIP
360
2818
  0
DICTIONARY
  5
280D
330
279B
100
AcDbDictionary
280
     1
281
     1
  3
ACAD_XREC_ROUNDTRIP
360
280E
  0
DICTIONARY
  5
2801
330
2795
100
AcDbDictionary
280
     1
281
     1
  3
ACAD_XREC_ROUNDTRIP
360
2802
  0
DICTIONARY
  5
2819
330
27A1
100
AcDbDictionary
280
     1
281
     1
  3
ACAD_XREC_ROUNDTRIP
360
281A
  0
XRECORD
  5
27F3
102
{ACAD_REACTORS
330
277F
102
}
330
277F
100
AcDbXrecord
280
     1
102
MATERIAL
148
0.0
149
0.0
149
0.0
 93
        0
 94
      127
282
     0
 72
     0
 77
     0
171
     0
175
     0
179
     0
273
     0
  0
XRECORD
  5
2781
102
{ACAD_REACTORS
330
277F
102
}
330
277F
100
AcDbXrecord
280
     1
270
     1
271
     1
  0
XRECORD
  5
2780
102
{ACAD_REACTORS
330
277F
102
}
330
277F
100
AcDbXrecord
280
     1
270
     1
271
     1
  0
XRECORD
  5
2784
102
{ACAD_REACTORS
330
277F
102
}
330
277F
100
AcDbXrecord
280
     1
270
     1
271
     1
  0
XRECORD
  5
2783
102
{ACAD_REACTORS
330
277F
102
}
330
277F
100
AcDbXrecord
280
     1
270
     1
271
     1
  0
XRECORD
  5
2785
102
{ACAD_REACTORS
330
277F
102
}
330
277F
100
AcDbXrecord
280
     1
270
     1
271
     1
  0
XRECORD
  5
2782
102
{ACAD_REACTORS
330
277F
102
}
330
277F
100
AcDbXrecord
280
     1
270
     1
271
     1
  0
XRECORD
  5
27F2
102
{ACAD_REACTORS
330
2777
102
}
330
2777
100
AcDbXrecord
280
     1
102
MATERIAL
148
0.0
149
0.0
149
0.0
 93
        0
 94
      127
282
     0
 72
     0
 77
     0
171
     0
175
     0
179
     0
273
     0
  0
XRECORD
  5
2779
102
{ACAD_REACTORS
330
2777
102
}
330
2777
100
AcDbXrecord
280
     1
270
     1
271
     1
  0
XRECORD
  5
2778
102
{ACAD_REACTORS
330
2777
102
}
330
2777
100
AcDbXrecord
280
     1
270
     1
271
     1
  0
XRECORD
  5
277C
102
{ACAD_REACTORS
330
2777
102
}
330
2777
100
AcDbXrecord
280
     1
270
     1
271
     1
  0
XRECORD
  5
277B
102
{ACAD_REACTORS
330
2777
102
}
330
2777
100
AcDbXrecord
280
     1
270
     1
271
     1
  0
XRECORD
  5
277D
102
{ACAD_REACTORS
330
2777
102
}
330
2777
100
AcDbXrecord
280
     1
270
     1
271
     1
  0
XRECORD
  5
277A
102
{ACAD_REACTORS
330
2777
102
}
330
2777
100
AcDbXrecord
280
     1
270
     1
271
     1
  0
XRECORD
  5
27F4
102
{ACAD_REACTORS
330
2787
102
}
330
2787
100
AcDbXrecord
280
     1
102
MATERIAL
148
0.0
149
0.0
149
0.0
 93
        0
 94
      127
282
     0
 72
     0
 77
     0
171
     0
175
     0
179
     0
273
     0
  0
XRECORD
  5
2789
102
{ACAD_REACTORS
330
2787
102
}
330
2787
100
AcDbXrecord
280
     1
270
     1
271
     1
  0
XRECORD
  5
2788
102
{ACAD_REACTORS
330
2787
102
}
330
2787
100
AcDbXrecord
280
     1
270
     1
271
     1
  0
XRECORD
  5
278C
102
{ACAD_REACTORS
330
2787
102
}
330
2787
100
AcDbXrecord
280
     1
270
     1
271
     1
  0
XRECORD
  5
278B
102
{ACAD_REACTORS
330
2787
102
}
330
2787
100
AcDbXrecord
280
     1
270
     1
271
     1
  0
XRECORD
  5
278D
102
{ACAD_REACTORS
330
2787
102
}
330
2787
100
AcDbXrecord
280
     1
270
     1
271
     1
  0
XRECORD
  5
278A
102
{ACAD_REACTORS
330
2787
102
}
330
2787
100
AcDbXrecord
280
     1
270
     1
271
     1
  0
XRECORD
  5
2828
102
{ACAD_REACTORS
330
2827
102
}
330
2827
100
AcDbXrecord
280
     1
102
ACAD_ROUNDTRIP_2012_MLEADER_STYLE
298
     1
  0
CELLSTYLEMAP
  5
27EF
102
{ACAD_REACTORS
330
27EE
102
}
330
27EE
100
AcDbCellStyleMap
 90
        3
300
CELLSTYLE
  1
TABLEFORMAT_BEGIN
 90
        5
170
     1
 91
        0
 92
    32768
 62
   257
 93
        1
300
CONTENTFORMAT
  1
CONTENTFORMAT_BEGIN
 90
        0
 91
        0
 92
      512
 93
        0
300

 40
0.0
140
1.0
 94
        5
 62
     0
340
11
144
0.25
309
CONTENTFORMAT_END
171
     0
 94
        0
309
TABLEFORMAT_END
  1
CELLSTYLE_BEGIN
 90
        1
 91
        1
300
_TITLE
309
CELLSTYLE_END
300
CELLSTYLE
  1
TABLEFORMAT_BEGIN
 90
        5
170
     1
 91
        0
 92
        0
 62
   257
 93
        1
300
CONTENTFORMAT
  1
CONTENTFORMAT_BEGIN
 90
        0
 91
        0
 92
      512
 93
        0
300

 40
0.0
140
1.0
 94
        5
 62
     0
340
11
144
0.18
309
CONTENTFORMAT_END
171
     0
 94
        0
309
TABLEFORMAT_END
  1
CELLSTYLE_BEGIN
 90
        2
 91
        1
300
_HEADER
309
CELLSTYLE_END
300
CELLSTYLE
  1
TABLEFORMAT_BEGIN
 90
        5
170
     1
 91
        0
 92
        0
 62
   257
 93
        1
300
CONTENTFORMAT
  1
CONTENTFORMAT_BEGIN
 90
        0
 91
        0
 92
      512
 93
        0
300

 40
0.0
140
1.0
 94
        2
 62
     0
340
11
144
0.18
309
CONTENTFORMAT_END
171
     0
 94
        0
309
TABLEFORMAT_END
  1
CELLSTYLE_BEGIN
 90
        3
 91
        2
300
_DATA
309
CELLSTYLE_END
  0
XRECORD
  5
2825
102
{ACAD_REACTORS
330
27EE
102
}
330
27EE
100
AcDbXrecord
280
     1
102
ACAD_ROUNDTRIP_PRE2007_TABLESTYLE
 90
      512
 91
        0
  1

 92
      512
 93
        0
  2

 94
      512
 95
        0
  3

  0
XRECORD
  5
2800
102
{ACAD_REACTORS
330
27FF
102
}
330
27FF
100
AcDbXrecord
280
     1
102
RTVSPost2010Prop28
280
     1
102
RTVSPost2010PropOp28
 70
     1
102
RTVSPost2010Prop29
280
     1
102
RTVSPost2010PropOp29
 70
     1
102
RTVSPost2010Prop30
280
     0
102
RTVSPost2010PropOp30
 70
     1
102
RTVSPost2010Prop31
280
     0
102
RTVSPost2010PropOp31
 70
     1
102
RTVSPost2010Prop32
280
     0
102
RTVSPost2010PropOp32
 70
     1
102
RTVSPost2010Prop33
280
     0
102
RTVSPost2010PropOp33
 70
     1
102
RTVSPost2010Prop34
280
     0
102
RTVSPost2010PropOp34
 70
     1
102
RTVSPost2010Prop35
280
     0
102
RTVSPost2010PropOp35
 70
     1
102
RTVSPost2010Prop36
280
     0
102
RTVSPost2010PropOp36
 70
     1
102
RTVSPost2010Prop37
 90
       50
102
RTVSPost2010PropOp37
 70
     1
102
RTVSPost2010Prop38
140
0.0
102
RTVSPost2010PropOp38
 70
     1
102
RTVSPost2010Prop39
140
1.0
102
RTVSPost2010PropOp39
 70
     1
102
RTVSPost2010Prop40
 90
        0
102
RTVSPost2010PropOp40
 70
     1
102
RTVSPost2010Prop41ColorIndex
 90
       18
102
RTVSPost2010Prop41ColorRGB
 90
        0
102
RTVSPost2010PropOp41
 70
     1
102
RTVSPost2010Prop42
 90
       50
102
RTVSPost2010PropOp42
 70
     1
102
RTVSPost2010Prop43
 90
        3
102
RTVSPost2010PropOp43
 70
     1
102
RTVSPost2010Prop44ColorIndex
 90
        5
102
RTVSPost2010Prop44ColorRGB
 90
      255
102
RTVSPost2010PropOp44
 70
     1
102
RTVSPost2010Prop45
280
     0
102
RTVSPost2010PropOp45
 70
     1
102
RTVSPost2010Prop46
 90
       50
102
RTVSPost2010PropOp46
 70
     1
102
RTVSPost2010Prop47
 90
       50
102
RTVSPost2010PropOp47
 70
     1
102
RTVSPost2010Prop48
 90
       50
102
RTVSPost2010PropOp48
 70
     1
102
RTVSPost2010Prop49
280
     0
102
RTVSPost2010PropOp49
 70
     1
102
RTVSPost2010Prop50
 90
       50
102
RTVSPost2010PropOp50
 70
     1
102
RTVSPost2010Prop51ColorIndex
 90
      256
102
RTVSPost2010Prop51ColorRGB
 90
-16777216
102
RTVSPost2010PropOp51
 70
     0
102
RTVSPost2010Prop52
140
1.0
102
RTVSPost2010PropOp52
 70
     0
102
RTVSPost2010Prop53
 90
        2
102
RTVSPost2010PropOp53
 70
     1
102
RTVSPost2010Prop54
  1
strokes_ogs.tif
102
RTVSPost2010PropOp54
 70
     1
102
RTVSPost2010Prop55
280
     0
102
RTVSPost2010PropOp55
 70
     1
102
RTVSPost2010Prop56
140
1.0
102
RTVSPost2010PropOp56
 70
     1
102
RTVSPost2010Prop57
140
1.0
102
RTVSPost2010PropOp57
 70
     1
102
RTVSPropertyOp0
 70
     1
102
RTVSPropertyOp1
 70
     1
102
RTVSPropertyOp2
 70
     1
102
RTVSPropertyOp3
 70
     1
102
RTVSPropertyOp4
 70
     1
102
RTVSPropertyOp5
 70
     1
102
RTVSPropertyOp6
 70
     1
102
RTVSPropertyOp7
 70
     1
102
RTVSPropertyOp8
 70
     1
102
RTVSPropertyOp9
 70
     1
102
RTVSPropertyOp10
 70
     1
102
RTVSPropertyOp11
 70
     1
102
RTVSPropertyOp12
 70
     1
102
RTVSPropertyOp13
 70
     1
102
RTVSPropertyOp14
 70
     1
102
RTVSPropertyOp15
 70
     1
102
RTVSPropertyOp16
 70
     1
102
RTVSPropertyOp17
 70
     1
102
RTVSPropertyOp18
 70
     1
102
RTVSPropertyOp19
 70
     1
102
RTVSPropertyOp20
 70
     1
102
RTVSPropertyOp21
 70
     1
102
RTVSPropertyOp22
 70
     1
102
RTVSPropertyOp23
 70
     1
102
RTVSPropertyOp24
 70
     1
102
RTVSPropertyOp25
 70
     1
102
RTVSPropertyOp26
 70
     1
102
RTVSPropertyOp27
 70
     1
102
RTVSPropertyOp28
 70
     1
102
RTVSPropertyOp29
 70
     1
102
RTVSPropertyOp30
 70
     1
102
RTVSPropertyOp31
 70
     1
102
RTVSPropertyOp32
 70
     1
102
RTVSPropertyOp33
 70
     1
102
RTVSPropertyOp34
 70
     1
102
RTVSPropertyOp35
 70
     1
102
RTVSPropertyOp36
 70
     1
102
RTVSPropertyOp37
 70
     1
102
RTVSPropertyOp38
 70
     1
102
RTVSPropertyOp39
 70
     1
102
RTVSPropertyOp40
 70
     1
102
RTVSPropertyOp41
 70
     1
102
RTVSPropertyOp42
 70
     1
102
RTVSPropertyOp43
 70
     1
102
RTVSPropertyOp44
 70
     1
102
RTVSPropertyOp45
 70
     1
102
RTVSPropertyOp46
 70
     1
102
RTVSPropertyOp47
 70
     1
102
RTVSPropertyOp48
 70
     1
102
RTVSPropertyOp49
 70
     1
102
RTVSPropertyOp50
 70
     1
102
RTVSPropertyOp51
 70
     0
102
RTVSPropertyOp52
 70
     0
102
RTVSPropertyOp53
 70
     1
102
RTVSPropertyOp54
 70
     1
102
RTVSPropertyOp55
 70
     1
102
RTVSPropertyOp56
 70
     1
102
RTVSPropertyOp57
 70
     1
102
RTVSPropertyOp58
 70
     1
102
RTVSPropertyOp59
 70
     1
102
RTVSPropertyOp60
 70
     1
102
RTVSPropertyOp61
 70
     1
102
RTVSPropertyOp62
 70
     1
  0
XRECORD
  5
27FE
102
{ACAD_REACTORS
330
27FD
102
}
330
27FD
100
AcDbXrecord
280
     1
102
RTVSPost2010Prop28
280
     0
102
RTVSPost2010PropOp28
 70
     1
102
RTVSPost2010Prop29
280
     1
102
RTVSPost2010PropOp29
 70
     1
102
RTVSPost2010Prop30
280
     1
102
RTVSPost2010PropOp30
 70
     1
102
RTVSPost2010Prop31
280
     0
102
RTVSPost2010PropOp31
 70
     1
102
RTVSPost2010Prop32
280
     0
102
RTVSPost2010PropOp32
 70
     1
102
RTVSPost2010Prop33
280
     0
102
RTVSPost2010PropOp33
 70
     1
102
RTVSPost2010Prop34
280
     0
102
RTVSPost2010PropOp34
 70
     1
102
RTVSPost2010Prop35
280
     0
102
RTVSPost2010PropOp35
 70
     1
102
RTVSPost2010Prop36
280
     0
102
RTVSPost2010PropOp36
 70
     1
102
RTVSPost2010Prop37
 90
       50
102
RTVSPost2010PropOp37
 70
     1
102
RTVSPost2010Prop38
140
0.0
102
RTVSPost2010PropOp38
 70
     1
102
RTVSPost2010Prop39
140
1.0
102
RTVSPost2010PropOp39
 70
     1
102
RTVSPost2010Prop40
 90
        0
102
RTVSPost2010PropOp40
 70
     1
102
RTVSPost2010Prop41ColorIndex
 90
       18
102
RTVSPost2010Prop41ColorRGB
 90
        0
102
RTVSPost2010PropOp41
 70
     1
102
RTVSPost2010Prop42
 90
       50
102
RTVSPost2010PropOp42
 70
     1
102
RTVSPost2010Prop43
 90
        3
102
RTVSPost2010PropOp43
 70
     1
102
RTVSPost2010Prop44ColorIndex
 90
        5
102
RTVSPost2010Prop44ColorRGB
 90
      255
102
RTVSPost2010PropOp44
 70
     1
102
RTVSPost2010Prop45
280
     0
102
RTVSPost2010PropOp45
 70
     1
102
RTVSPost2010Prop46
 90
       50
102
RTVSPost2010PropOp46
 70
     1
102
RTVSPost2010Prop47
 90
       50
102
RTVSPost2010PropOp47
 70
     1
102
RTVSPost2010Prop48
 90
       50
102
RTVSPost2010PropOp48
 70
     1
102
RTVSPost2010Prop49
280
     0
102
RTVSPost2010PropOp49
 70
     1
102
RTVSPost2010Prop50
 90
       50
102
RTVSPost2010PropOp50
 70
     1
102
RTVSPost2010Prop51ColorIndex
 90
      256
102
RTVSPost2010Prop51ColorRGB
 90
-16777216
102
RTVSPost2010PropOp51
 70
     0
102
RTVSPost2010Prop52
140
1.0
102
RTVSPost2010PropOp52
 70
     0
102
RTVSPost2010Prop53
 90
        2
102
RTVSPost2010PropOp53
 70
     1
102
RTVSPost2010Prop54
  1
strokes_ogs.tif
102
RTVSPost2010PropOp54
 70
     1
102
RTVSPost2010Prop55
280
     0
102
RTVSPost2010PropOp55
 70
     1
102
RTVSPost2010Prop56
140
1.0
102
RTVSPost2010PropOp56
 70
     1
102
RTVSPost2010Prop57
140
1.0
102
RTVSPost2010PropOp57
 70
     1
102
RTVSPropertyOp0
 70
     1
102
RTVSPropertyOp1
 70
     1
102
RTVSPropertyOp2
 70
     1
102
RTVSPropertyOp3
 70
     1
102
RTVSPropertyOp4
 70
     1
102
RTVSPropertyOp5
 70
     1
102
RTVSPropertyOp6
 70
     1
102
RTVSPropertyOp7
 70
     1
102
RTVSPropertyOp8
 70
     1
102
RTVSPropertyOp9
 70
     1
102
RTVSPropertyOp10
 70
     1
102
RTVSPropertyOp11
 70
     1
102
RTVSPropertyOp12
 70
     1
102
RTVSPropertyOp13
 70
     1
102
RTVSPropertyOp14
 70
     1
102
RTVSPropertyOp15
 70
     1
102
RTVSPropertyOp16
 70
     1
102
RTVSPropertyOp17
 70
     1
102
RTVSPropertyOp18
 70
     1
102
RTVSPropertyOp19
 70
     1
102
RTVSPropertyOp20
 70
     1
102
RTVSPropertyOp21
 70
     1
102
RTVSPropertyOp22
 70
     1
102
RTVSPropertyOp23
 70
     1
102
RTVSPropertyOp24
 70
     1
102
RTVSPropertyOp25
 70
     1
102
RTVSPropertyOp26
 70
     1
102
RTVSPropertyOp27
 70
     1
102
RTVSPropertyOp28
 70
     1
102
RTVSPropertyOp29
 70
     1
102
RTVSPropertyOp30
 70
     1
102
RTVSPropertyOp31
 70
     1
102
RTVSPropertyOp32
 70
     1
102
RTVSPropertyOp33
 70
     1
102
RTVSPropertyOp34
 70
     1
102
RTVSPropertyOp35
 70
     1
102
RTVSPropertyOp36
 70
     1
102
RTVSPropertyOp37
 70
     1
102
RTVSPropertyOp38
 70
     1
102
RTVSPropertyOp39
 70
     1
102
RTVSPropertyOp40
 70
     1
102
RTVSPropertyOp41
 70
     1
102
RTVSPropertyOp42
 70
     1
102
RTVSPropertyOp43
 70
     1
102
RTVSPropertyOp44
 70
     1
102
RTVSPropertyOp45
 70
     1
102
RTVSPropertyOp46
 70
     1
102
RTVSPropertyOp47
 70
     1
102
RTVSPropertyOp48
 70
     1
102
RTVSPropertyOp49
 70
     1
102
RTVSPropertyOp50
 70
     1
102
RTVSPropertyOp51
 70
     0
102
RTVSPropertyOp52
 70
     0
102
RTVSPropertyOp53
 70
     1
102
RTVSPropertyOp54
 70
     1
102
RTVSPropertyOp55
 70
     1
102
RTVSPropertyOp56
 70
     1
102
RTVSPropertyOp57
 70
     1
102
RTVSPropertyOp58
 70
     1
102
RTVSPropertyOp59
 70
     1
102
RTVSPropertyOp60
 70
     1
102
RTVSPropertyOp61
 70
     1
102
RTVSPropertyOp62
 70
     1
  0
XRECORD
  5
280C
102
{ACAD_REACTORS
330
280B
102
}
330
280B
100
AcDbXrecord
280
     1
102
RTVSPost2010Prop28
280
     0
102
RTVSPost2010PropOp28
 70
     1
102
RTVSPost2010Prop29
280
     1
102
RTVSPost2010PropOp29
 70
     1
102
RTVSPost2010Prop30
280
     1
102
RTVSPost2010PropOp30
 70
     1
102
RTVSPost2010Prop31
280
     0
102
RTVSPost2010PropOp31
 70
     1
102
RTVSPost2010Prop32
280
     0
102
RTVSPost2010PropOp32
 70
     1
102
RTVSPost2010Prop33
280
     0
102
RTVSPost2010PropOp33
 70
     1
102
RTVSPost2010Prop34
280
     0
102
RTVSPost2010PropOp34
 70
     1
102
RTVSPost2010Prop35
280
     0
102
RTVSPost2010PropOp35
 70
     1
102
RTVSPost2010Prop36
280
     0
102
RTVSPost2010PropOp36
 70
     1
102
RTVSPost2010Prop37
 90
       50
102
RTVSPost2010PropOp37
 70
     1
102
RTVSPost2010Prop38
140
0.0
102
RTVSPost2010PropOp38
 70
     1
102
RTVSPost2010Prop39
140
1.0
102
RTVSPost2010PropOp39
 70
     1
102
RTVSPost2010Prop40
 90
        0
102
RTVSPost2010PropOp40
 70
     1
102
RTVSPost2010Prop41ColorIndex
 90
       18
102
RTVSPost2010Prop41ColorRGB
 90
        0
102
RTVSPost2010PropOp41
 70
     1
102
RTVSPost2010Prop42
 90
       50
102
RTVSPost2010PropOp42
 70
     1
102
RTVSPost2010Prop43
 90
        3
102
RTVSPost2010PropOp43
 70
     1
102
RTVSPost2010Prop44ColorIndex
 90
        5
102
RTVSPost2010Prop44ColorRGB
 90
      255
102
RTVSPost2010PropOp44
 70
     1
102
RTVSPost2010Prop45
280
     0
102
RTVSPost2010PropOp45
 70
     1
102
RTVSPost2010Prop46
 90
       50
102
RTVSPost2010PropOp46
 70
     1
102
RTVSPost2010Prop47
 90
       50
102
RTVSPost2010PropOp47
 70
     1
102
RTVSPost2010Prop48
 90
       50
102
RTVSPost2010PropOp48
 70
     1
102
RTVSPost2010Prop49
280
     0
102
RTVSPost2010PropOp49
 70
     1
102
RTVSPost2010Prop50
 90
       50
102
RTVSPost2010PropOp50
 70
     1
102
RTVSPost2010Prop51ColorIndex
 90
      256
102
RTVSPost2010Prop51ColorRGB
 90
-16777216
102
RTVSPost2010PropOp51
 70
     0
102
RTVSPost2010Prop52
140
1.0
102
RTVSPost2010PropOp52
 70
     0
102
RTVSPost2010Prop53
 90
        2
102
RTVSPost2010PropOp53
 70
     1
102
RTVSPost2010Prop54
  1
strokes_ogs.tif
102
RTVSPost2010PropOp54
 70
     1
102
RTVSPost2010Prop55
280
     0
102
RTVSPost2010PropOp55
 70
     1
102
RTVSPost2010Prop56
140
1.0
102
RTVSPost2010PropOp56
 70
     1
102
RTVSPost2010Prop57
140
1.0
102
RTVSPost2010PropOp57
 70
     1
102
RTVSPropertyOp0
 70
     1
102
RTVSPropertyOp1
 70
     1
102
RTVSPropertyOp2
 70
     1
102
RTVSPropertyOp3
 70
     1
102
RTVSPropertyOp4
 70
     1
102
RTVSPropertyOp5
 70
     1
102
RTVSPropertyOp6
 70
     1
102
RTVSPropertyOp7
 70
     1
102
RTVSPropertyOp8
 70
     1
102
RTVSPropertyOp9
 70
     1
102
RTVSPropertyOp10
 70
     1
102
RTVSPropertyOp11
 70
     1
102
RTVSPropertyOp12
 70
     1
102
RTVSPropertyOp13
 70
     1
102
RTVSPropertyOp14
 70
     1
102
RTVSPropertyOp15
 70
     1
102
RTVSPropertyOp16
 70
     1
102
RTVSPropertyOp17
 70
     1
102
RTVSPropertyOp18
 70
     1
102
RTVSPropertyOp19
 70
     1
102
RTVSPropertyOp20
 70
     1
102
RTVSPropertyOp21
 70
     1
102
RTVSPropertyOp22
 70
     1
102
RTVSPropertyOp23
 70
     1
102
RTVSPropertyOp24
 70
     1
102
RTVSPropertyOp25
 70
     1
102
RTVSPropertyOp26
 70
     1
102
RTVSPropertyOp27
 70
     1
102
RTVSPropertyOp28
 70
     1
102
RTVSPropertyOp29
 70
     1
102
RTVSPropertyOp30
 70
     1
102
RTVSPropertyOp31
 70
     1
102
RTVSPropertyOp32
 70
     1
102
RTVSPropertyOp33
 70
     1
102
RTVSPropertyOp34
 70
     1
102
RTVSPropertyOp35
 70
     1
102
RTVSPropertyOp36
 70
     1
102
RTVSPropertyOp37
 70
     1
102
RTVSPropertyOp38
 70
     1
102
RTVSPropertyOp39
 70
     1
102
RTVSPropertyOp40
 70
     1
102
RTVSPropertyOp41
 70
     1
102
RTVSPropertyOp42
 70
     1
102
RTVSPropertyOp43
 70
     1
102
RTVSPropertyOp44
 70
     1
102
RTVSPropertyOp45
 70
     1
102
RTVSPropertyOp46
 70
     1
102
RTVSPropertyOp47
 70
     1
102
RTVSPropertyOp48
 70
     1
102
RTVSPropertyOp49
 70
     1
102
RTVSPropertyOp50
 70
     1
102
RTVSPropertyOp51
 70
     0
102
RTVSPropertyOp52
 70
     0
102
RTVSPropertyOp53
 70
     1
102
RTVSPropertyOp54
 70
     1
102
RTVSPropertyOp55
 70
     1
102
RTVSPropertyOp56
 70
     1
102
RTVSPropertyOp57
 70
     1
102
RTVSPropertyOp58
 70
     1
102
RTVSPropertyOp59
 70
     1
102
RTVSPropertyOp60
 70
     1
102
RTVSPropertyOp61
 70
     1
102
RTVSPropertyOp62
 70
     1
  0
XRECORD
  5
2814
102
{ACAD_REACTORS
330
2813
102
}
330
2813
100
AcDbXrecord
280
     1
102
RTVSPost2010Prop28
280
     0
102
RTVSPost2010PropOp28
 70
     1
102
RTVSPost2010Prop29
280
     1
102
RTVSPost2010PropOp29
 70
     1
102
RTVSPost2010Prop30
280
     1
102
RTVSPost2010PropOp30
 70
     1
102
RTVSPost2010Prop31
280
     0
102
RTVSPost2010PropOp31
 70
     1
102
RTVSPost2010Prop32
280
     0
102
RTVSPost2010PropOp32
 70
     1
102
RTVSPost2010Prop33
280
     0
102
RTVSPost2010PropOp33
 70
     1
102
RTVSPost2010Prop34
280
     0
102
RTVSPost2010PropOp34
 70
     1
102
RTVSPost2010Prop35
280
     0
102
RTVSPost2010PropOp35
 70
     1
102
RTVSPost2010Prop36
280
     0
102
RTVSPost2010PropOp36
 70
     1
102
RTVSPost2010Prop37
 90
       50
102
RTVSPost2010PropOp37
 70
     1
102
RTVSPost2010Prop38
140
0.0
102
RTVSPost2010PropOp38
 70
     1
102
RTVSPost2010Prop39
140
1.0
102
RTVSPost2010PropOp39
 70
     1
102
RTVSPost2010Prop40
 90
        0
102
RTVSPost2010PropOp40
 70
     1
102
RTVSPost2010Prop41ColorIndex
 90
       18
102
RTVSPost2010Prop41ColorRGB
 90
        0
102
RTVSPost2010PropOp41
 70
     1
102
RTVSPost2010Prop42
 90
       50
102
RTVSPost2010PropOp42
 70
     1
102
RTVSPost2010Prop43
 90
        3
102
RTVSPost2010PropOp43
 70
     1
102
RTVSPost2010Prop44ColorIndex
 90
        5
102
RTVSPost2010Prop44ColorRGB
 90
      255
102
RTVSPost2010PropOp44
 70
     1
102
RTVSPost2010Prop45
280
     0
102
RTVSPost2010PropOp45
 70
     1
102
RTVSPost2010Prop46
 90
       50
102
RTVSPost2010PropOp46
 70
     1
102
RTVSPost2010Prop47
 90
       50
102
RTVSPost2010PropOp47
 70
     1
102
RTVSPost2010Prop48
 90
       50
102
RTVSPost2010PropOp48
 70
     1
102
RTVSPost2010Prop49
280
     0
102
RTVSPost2010PropOp49
 70
     1
102
RTVSPost2010Prop50
 90
       50
102
RTVSPost2010PropOp50
 70
     1
102
RTVSPost2010Prop51ColorIndex
 90
      256
102
RTVSPost2010Prop51ColorRGB
 90
-16777216
102
RTVSPost2010PropOp51
 70
     0
102
RTVSPost2010Prop52
140
1.0
102
RTVSPost2010PropOp52
 70
     0
102
RTVSPost2010Prop53
 90
        2
102
RTVSPost2010PropOp53
 70
     1
102
RTVSPost2010Prop54
  1
strokes_ogs.tif
102
RTVSPost2010PropOp54
 70
     1
102
RTVSPost2010Prop55
280
     0
102
RTVSPost2010PropOp55
 70
     1
102
RTVSPost2010Prop56
140
1.0
102
RTVSPost2010PropOp56
 70
     1
102
RTVSPost2010Prop57
140
1.0
102
RTVSPost2010PropOp57
 70
     1
102
RTVSPropertyOp0
 70
     1
102
RTVSPropertyOp1
 70
     1
102
RTVSPropertyOp2
 70
     1
102
RTVSPropertyOp3
 70
     1
102
RTVSPropertyOp4
 70
     1
102
RTVSPropertyOp5
 70
     1
102
RTVSPropertyOp6
 70
     1
102
RTVSPropertyOp7
 70
     1
102
RTVSPropertyOp8
 70
     1
102
RTVSPropertyOp9
 70
     1
102
RTVSPropertyOp10
 70
     1
102
RTVSPropertyOp11
 70
     1
102
RTVSPropertyOp12
 70
     1
102
RTVSPropertyOp13
 70
     1
102
RTVSPropertyOp14
 70
     1
102
RTVSPropertyOp15
 70
     1
102
RTVSPropertyOp16
 70
     1
102
RTVSPropertyOp17
 70
     1
102
RTVSPropertyOp18
 70
     1
102
RTVSPropertyOp19
 70
     1
102
RTVSPropertyOp20
 70
     1
102
RTVSPropertyOp21
 70
     1
102
RTVSPropertyOp22
 70
     1
102
RTVSPropertyOp23
 70
     1
102
RTVSPropertyOp24
 70
     1
102
RTVSPropertyOp25
 70
     1
102
RTVSPropertyOp26
 70
     1
102
RTVSPropertyOp27
 70
     1
102
RTVSPropertyOp28
 70
     1
102
RTVSPropertyOp29
 70
     1
102
RTVSPropertyOp30
 70
     1
102
RTVSPropertyOp31
 70
     1
102
RTVSPropertyOp32
 70
     1
102
RTVSPropertyOp33
 70
     1
102
RTVSPropertyOp34
 70
     1
102
RTVSPropertyOp35
 70
     1
102
RTVSPropertyOp36
 70
     1
102
RTVSPropertyOp37
 70
     1
102
RTVSPropertyOp38
 70
     1
102
RTVSPropertyOp39
 70
     1
102
RTVSPropertyOp40
 70
     1
102
RTVSPropertyOp41
 70
     1
102
RTVSPropertyOp42
 70
     1
102
RTVSPropertyOp43
 70
     1
102
RTVSPropertyOp44
 70
     1
102
RTVSPropertyOp45
 70
     1
102
RTVSPropertyOp46
 70
     1
102
RTVSPropertyOp47
 70
     1
102
RTVSPropertyOp48
 70
     1
102
RTVSPropertyOp49
 70
     1
102
RTVSPropertyOp50
 70
     1
102
RTVSPropertyOp51
 70
     0
102
RTVSPropertyOp52
 70
     0
102
RTVSPropertyOp53
 70
     1
102
RTVSPropertyOp54
 70
     1
102
RTVSPropertyOp55
 70
     1
102
RTVSPropertyOp56
 70
     1
102
RTVSPropertyOp57
 70
     1
102
RTVSPropertyOp58
 70
     1
102
RTVSPropertyOp59
 70
     1
102
RTVSPropertyOp60
 70
     1
102
RTVSPropertyOp61
 70
     1
102
RTVSPropertyOp62
 70
     1
  0
XRECORD
  5
2806
102
{ACAD_REACTORS
330
2805
102
}
330
2805
100
AcDbXrecord
280
     1
102
RTVSPost2010Prop28
280
     0
102
RTVSPost2010PropOp28
 70
     1
102
RTVSPost2010Prop29
280
     1
102
RTVSPost2010PropOp29
 70
     1
102
RTVSPost2010Prop30
280
     1
102
RTVSPost2010PropOp30
 70
     1
102
RTVSPost2010Prop31
280
     0
102
RTVSPost2010PropOp31
 70
     1
102
RTVSPost2010Prop32
280
     0
102
RTVSPost2010PropOp32
 70
     1
102
RTVSPost2010Prop33
280
     0
102
RTVSPost2010PropOp33
 70
     1
102
RTVSPost2010Prop34
280
     0
102
RTVSPost2010PropOp34
 70
     1
102
RTVSPost2010Prop35
280
     0
102
RTVSPost2010PropOp35
 70
     1
102
RTVSPost2010Prop36
280
     0
102
RTVSPost2010PropOp36
 70
     1
102
RTVSPost2010Prop37
 90
       50
102
RTVSPost2010PropOp37
 70
     1
102
RTVSPost2010Prop38
140
0.0
102
RTVSPost2010PropOp38
 70
     1
102
RTVSPost2010Prop39
140
1.0
102
RTVSPost2010PropOp39
 70
     1
102
RTVSPost2010Prop40
 90
        0
102
RTVSPost2010PropOp40
 70
     1
102
RTVSPost2010Prop41ColorIndex
 90
       18
102
RTVSPost2010Prop41ColorRGB
 90
        0
102
RTVSPost2010PropOp41
 70
     1
102
RTVSPost2010Prop42
 90
       50
102
RTVSPost2010PropOp42
 70
     1
102
RTVSPost2010Prop43
 90
        3
102
RTVSPost2010PropOp43
 70
     1
102
RTVSPost2010Prop44ColorIndex
 90
        5
102
RTVSPost2010Prop44ColorRGB
 90
      255
102
RTVSPost2010PropOp44
 70
     1
102
RTVSPost2010Prop45
280
     0
102
RTVSPost2010PropOp45
 70
     1
102
RTVSPost2010Prop46
 90
       50
102
RTVSPost2010PropOp46
 70
     1
102
RTVSPost2010Prop47
 90
       50
102
RTVSPost2010PropOp47
 70
     1
102
RTVSPost2010Prop48
 90
       50
102
RTVSPost2010PropOp48
 70
     1
102
RTVSPost2010Prop49
280
     0
102
RTVSPost2010PropOp49
 70
     1
102
RTVSPost2010Prop50
 90
       50
102
RTVSPost2010PropOp50
 70
     1
102
RTVSPost2010Prop51ColorIndex
 90
      256
102
RTVSPost2010Prop51ColorRGB
 90
-16777216
102
RTVSPost2010PropOp51
 70
     0
102
RTVSPost2010Prop52
140
1.0
102
RTVSPost2010PropOp52
 70
     0
102
RTVSPost2010Prop53
 90
        2
102
RTVSPost2010PropOp53
 70
     1
102
RTVSPost2010Prop54
  1
strokes_ogs.tif
102
RTVSPost2010PropOp54
 70
     1
102
RTVSPost2010Prop55
280
     0
102
RTVSPost2010PropOp55
 70
     1
102
RTVSPost2010Prop56
140
1.0
102
RTVSPost2010PropOp56
 70
     1
102
RTVSPost2010Prop57
140
1.0
102
RTVSPost2010PropOp57
 70
     1
102
RTVSPropertyOp0
 70
     1
102
RTVSPropertyOp1
 70
     1
102
RTVSPropertyOp2
 70
     1
102
RTVSPropertyOp3
 70
     1
102
RTVSPropertyOp4
 70
     1
102
RTVSPropertyOp5
 70
     1
102
RTVSPropertyOp6
 70
     1
102
RTVSPropertyOp7
 70
     1
102
RTVSPropertyOp8
 70
     1
102
RTVSPropertyOp9
 70
     1
102
RTVSPropertyOp10
 70
     1
102
RTVSPropertyOp11
 70
     1
102
RTVSPropertyOp12
 70
     1
102
RTVSPropertyOp13
 70
     1
102
RTVSPropertyOp14
 70
     1
102
RTVSPropertyOp15
 70
     1
102
RTVSPropertyOp16
 70
     1
102
RTVSPropertyOp17
 70
     1
102
RTVSPropertyOp18
 70
     1
102
RTVSPropertyOp19
 70
     1
102
RTVSPropertyOp20
 70
     1
102
RTVSPropertyOp21
 70
     1
102
RTVSPropertyOp22
 70
     1
102
RTVSPropertyOp23
 70
     1
102
RTVSPropertyOp24
 70
     1
102
RTVSPropertyOp25
 70
     1
102
RTVSPropertyOp26
 70
     1
102
RTVSPropertyOp27
 70
     1
102
RTVSPropertyOp28
 70
     1
102
RTVSPropertyOp29
 70
     1
102
RTVSPropertyOp30
 70
     1
102
RTVSPropertyOp31
 70
     1
102
RTVSPropertyOp32
 70
     1
102
RTVSPropertyOp33
 70
     1
102
RTVSPropertyOp34
 70
     1
102
RTVSPropertyOp35
 70
     1
102
RTVSPropertyOp36
 70
     1
102
RTVSPropertyOp37
 70
     1
102
RTVSPropertyOp38
 70
     1
102
RTVSPropertyOp39
 70
     1
102
RTVSPropertyOp40
 70
     1
102
RTVSPropertyOp41
 70
     1
102
RTVSPropertyOp42
 70
     1
102
RTVSPropertyOp43
 70
     1
102
RTVSPropertyOp44
 70
     1
102
RTVSPropertyOp45
 70
     1
102
RTVSPropertyOp46
 70
     1
102
RTVSPropertyOp47
 70
     1
102
RTVSPropertyOp48
 70
     1
102
RTVSPropertyOp49
 70
     1
102
RTVSPropertyOp50
 70
     1
102
RTVSPropertyOp51
 70
     0
102
RTVSPropertyOp52
 70
     0
102
RTVSPropertyOp53
 70
     1
102
RTVSPropertyOp54
 70
     1
102
RTVSPropertyOp55
 70
     1
102
RTVSPropertyOp56
 70
     1
102
RTVSPropertyOp57
 70
     1
102
RTVSPropertyOp58
 70
     1
102
RTVSPropertyOp59
 70
     1
102
RTVSPropertyOp60
 70
     1
102
RTVSPropertyOp61
 70
     1
102
RTVSPropertyOp62
 70
     1
  0
XRECORD
  5
280A
102
{ACAD_REACTORS
330
2809
102
}
330
2809
100
AcDbXrecord
280
     1
102
RTVSPost2010Prop28
280
     0
102
RTVSPost2010PropOp28
 70
     1
102
RTVSPost2010Prop29
280
     1
102
RTVSPost2010PropOp29
 70
     1
102
RTVSPost2010Prop30
280
     1
102
RTVSPost2010PropOp30
 70
     1
102
RTVSPost2010Prop31
280
     0
102
RTVSPost2010PropOp31
 70
     1
102
RTVSPost2010Prop32
280
     0
102
RTVSPost2010PropOp32
 70
     1
102
RTVSPost2010Prop33
280
     0
102
RTVSPost2010PropOp33
 70
     1
102
RTVSPost2010Prop34
280
     0
102
RTVSPost2010PropOp34
 70
     1
102
RTVSPost2010Prop35
280
     0
102
RTVSPost2010PropOp35
 70
     1
102
RTVSPost2010Prop36
280
     0
102
RTVSPost2010PropOp36
 70
     1
102
RTVSPost2010Prop37
 90
       50
102
RTVSPost2010PropOp37
 70
     1
102
RTVSPost2010Prop38
140
0.0
102
RTVSPost2010PropOp38
 70
     1
102
RTVSPost2010Prop39
140
1.0
102
RTVSPost2010PropOp39
 70
     1
102
RTVSPost2010Prop40
 90
        0
102
RTVSPost2010PropOp40
 70
     1
102
RTVSPost2010Prop41ColorIndex
 90
       18
102
RTVSPost2010Prop41ColorRGB
 90
        0
102
RTVSPost2010PropOp41
 70
     1
102
RTVSPost2010Prop42
 90
       50
102
RTVSPost2010PropOp42
 70
     1
102
RTVSPost2010Prop43
 90
        3
102
RTVSPost2010PropOp43
 70
     1
102
RTVSPost2010Prop44ColorIndex
 90
        5
102
RTVSPost2010Prop44ColorRGB
 90
      255
102
RTVSPost2010PropOp44
 70
     1
102
RTVSPost2010Prop45
280
     0
102
RTVSPost2010PropOp45
 70
     1
102
RTVSPost2010Prop46
 90
       50
102
RTVSPost2010PropOp46
 70
     1
102
RTVSPost2010Prop47
 90
       50
102
RTVSPost2010PropOp47
 70
     1
102
RTVSPost2010Prop48
 90
       50
102
RTVSPost2010PropOp48
 70
     1
102
RTVSPost2010Prop49
280
     0
102
RTVSPost2010PropOp49
 70
     1
102
RTVSPost2010Prop50
 90
       50
102
RTVSPost2010PropOp50
 70
     1
102
RTVSPost2010Prop51ColorIndex
 90
      256
102
RTVSPost2010Prop51ColorRGB
 90
-16777216
102
RTVSPost2010PropOp51
 70
     0
102
RTVSPost2010Prop52
140
1.0
102
RTVSPost2010PropOp52
 70
     0
102
RTVSPost2010Prop53
 90
        2
102
RTVSPost2010PropOp53
 70
     1
102
RTVSPost2010Prop54
  1
strokes_ogs.tif
102
RTVSPost2010PropOp54
 70
     1
102
RTVSPost2010Prop55
280
     0
102
RTVSPost2010PropOp55
 70
     1
102
RTVSPost2010Prop56
140
1.0
102
RTVSPost2010PropOp56
 70
     1
102
RTVSPost2010Prop57
140
1.0
102
RTVSPost2010PropOp57
 70
     1
102
RTVSPropertyOp0
 70
     1
102
RTVSPropertyOp1
 70
     1
102
RTVSPropertyOp2
 70
     1
102
RTVSPropertyOp3
 70
     1
102
RTVSPropertyOp4
 70
     1
102
RTVSPropertyOp5
 70
     1
102
RTVSPropertyOp6
 70
     1
102
RTVSPropertyOp7
 70
     1
102
RTVSPropertyOp8
 70
     1
102
RTVSPropertyOp9
 70
     1
102
RTVSPropertyOp10
 70
     1
102
RTVSPropertyOp11
 70
     1
102
RTVSPropertyOp12
 70
     1
102
RTVSPropertyOp13
 70
     1
102
RTVSPropertyOp14
 70
     1
102
RTVSPropertyOp15
 70
     1
102
RTVSPropertyOp16
 70
     1
102
RTVSPropertyOp17
 70
     1
102
RTVSPropertyOp18
 70
     1
102
RTVSPropertyOp19
 70
     1
102
RTVSPropertyOp20
 70
     1
102
RTVSPropertyOp21
 70
     1
102
RTVSPropertyOp22
 70
     1
102
RTVSPropertyOp23
 70
     1
102
RTVSPropertyOp24
 70
     1
102
RTVSPropertyOp25
 70
     1
102
RTVSPropertyOp26
 70
     1
102
RTVSPropertyOp27
 70
     1
102
RTVSPropertyOp28
 70
     1
102
RTVSPropertyOp29
 70
     1
102
RTVSPropertyOp30
 70
     1
102
RTVSPropertyOp31
 70
     1
102
RTVSPropertyOp32
 70
     1
102
RTVSPropertyOp33
 70
     1
102
RTVSPropertyOp34
 70
     1
102
RTVSPropertyOp35
 70
     1
102
RTVSPropertyOp36
 70
     1
102
RTVSPropertyOp37
 70
     1
102
RTVSPropertyOp38
 70
     1
102
RTVSPropertyOp39
 70
     1
102
RTVSPropertyOp40
 70
     1
102
RTVSPropertyOp41
 70
     1
102
RTVSPropertyOp42
 70
     1
102
RTVSPropertyOp43
 70
     1
102
RTVSPropertyOp44
 70
     1
102
RTVSPropertyOp45
 70
     1
102
RTVSPropertyOp46
 70
     1
102
RTVSPropertyOp47
 70
     1
102
RTVSPropertyOp48
 70
     1
102
RTVSPropertyOp49
 70
     1
102
RTVSPropertyOp50
 70
     1
102
RTVSPropertyOp51
 70
     0
102
RTVSPropertyOp52
 70
     0
102
RTVSPropertyOp53
 70
     1
102
RTVSPropertyOp54
 70
     1
102
RTVSPropertyOp55
 70
     1
102
RTVSPropertyOp56
 70
     1
102
RTVSPropertyOp57
 70
     1
102
RTVSPropertyOp58
 70
     1
102
RTVSPropertyOp59
 70
     1
102
RTVSPropertyOp60
 70
     1
102
RTVSPropertyOp61
 70
     1
102
RTVSPropertyOp62
 70
     1
  0
XRECORD
  5
2824
102
{ACAD_REACTORS
330
2823
102
}
330
2823
100
AcDbXrecord
280
     1
102
RTVSPost2010Prop28
280
     0
102
RTVSPost2010PropOp28
 70
     0
102
RTVSPost2010Prop29
280
     1
102
RTVSPost2010PropOp29
 70
     0
102
RTVSPost2010Prop30
280
     1
102
RTVSPost2010PropOp30
 70
     0
102
RTVSPost2010Prop31
280
     0
102
RTVSPost2010PropOp31
 70
     0
102
RTVSPost2010Prop32
280
     0
102
RTVSPost2010PropOp32
 70
     0
102
RTVSPost2010Prop33
280
     0
102
RTVSPost2010PropOp33
 70
     0
102
RTVSPost2010Prop34
280
     0
102
RTVSPost2010PropOp34
 70
     0
102
RTVSPost2010Prop35
280
     0
102
RTVSPost2010PropOp35
 70
     0
102
RTVSPost2010Prop36
280
     0
102
RTVSPost2010PropOp36
 70
     0
102
RTVSPost2010Prop37
 90
       50
102
RTVSPost2010PropOp37
 70
     0
102
RTVSPost2010Prop38
140
0.0
102
RTVSPost2010PropOp38
 70
     0
102
RTVSPost2010Prop39
140
1.0
102
RTVSPost2010PropOp39
 70
     0
102
RTVSPost2010Prop40
 90
        0
102
RTVSPost2010PropOp40
 70
     0
102
RTVSPost2010Prop41ColorIndex
 90
       18
102
RTVSPost2010Prop41ColorRGB
 90
        0
102
RTVSPost2010PropOp41
 70
     0
102
RTVSPost2010Prop42
 90
       50
102
RTVSPost2010PropOp42
 70
     0
102
RTVSPost2010Prop43
 90
        3
102
RTVSPost2010PropOp43
 70
     0
102
RTVSPost2010Prop44ColorIndex
 90
        5
102
RTVSPost2010Prop44ColorRGB
 90
      255
102
RTVSPost2010PropOp44
 70
     0
102
RTVSPost2010Prop45
280
     0
102
RTVSPost2010PropOp45
 70
     0
102
RTVSPost2010Prop46
 90
       50
102
RTVSPost2010PropOp46
 70
     0
102
RTVSPost2010Prop47
 90
       50
102
RTVSPost2010PropOp47
 70
     0
102
RTVSPost2010Prop48
 90
       50
102
RTVSPost2010PropOp48
 70
     0
102
RTVSPost2010Prop49
280
     0
102
RTVSPost2010PropOp49
 70
     0
102
RTVSPost2010Prop50
 90
       50
102
RTVSPost2010PropOp50
 70
     0
102
RTVSPost2010Prop51ColorIndex
 90
      256
102
RTVSPost2010Prop51ColorRGB
 90
-16777216
102
RTVSPost2010PropOp51
 70
     0
102
RTVSPost2010Prop52
140
1.0
102
RTVSPost2010PropOp52
 70
     0
102
RTVSPost2010Prop53
 90
        2
102
RTVSPost2010PropOp53
 70
     0
102
RTVSPost2010Prop54
  1
strokes_ogs.tif
102
RTVSPost2010PropOp54
 70
     0
102
RTVSPost2010Prop55
280
     0
102
RTVSPost2010PropOp55
 70
     0
102
RTVSPost2010Prop56
140
1.0
102
RTVSPost2010PropOp56
 70
     0
102
RTVSPost2010Prop57
140
1.0
102
RTVSPost2010PropOp57
 70
     0
102
RTVSPropertyOp0
 70
     0
102
RTVSPropertyOp1
 70
     0
102
RTVSPropertyOp2
 70
     0
102
RTVSPropertyOp3
 70
     0
102
RTVSPropertyOp4
 70
     0
102
RTVSPropertyOp5
 70
     0
102
RTVSPropertyOp6
 70
     0
102
RTVSPropertyOp7
 70
     0
102
RTVSPropertyOp8
 70
     0
102
RTVSPropertyOp9
 70
     0
102
RTVSPropertyOp10
 70
     0
102
RTVSPropertyOp11
 70
     0
102
RTVSPropertyOp12
 70
     0
102
RTVSPropertyOp13
 70
     0
102
RTVSPropertyOp14
 70
     2
102
RTVSPropertyOp15
 70
     0
102
RTVSPropertyOp16
 70
     0
102
RTVSPropertyOp17
 70
     0
102
RTVSPropertyOp18
 70
     0
102
RTVSPropertyOp19
 70
     0
102
RTVSPropertyOp20
 70
     0
102
RTVSPropertyOp21
 70
     0
102
RTVSPropertyOp22
 70
     0
102
RTVSPropertyOp23
 70
     0
102
RTVSPropertyOp24
 70
     0
102
RTVSPropertyOp25
 70
     0
102
RTVSPropertyOp26
 70
     0
102
RTVSPropertyOp27
 70
     0
102
RTVSPropertyOp28
 70
     0
102
RTVSPropertyOp29
 70
     0
102
RTVSPropertyOp30
 70
     0
102
RTVSPropertyOp31
 70
     0
102
RTVSPropertyOp32
 70
     0
102
RTVSPropertyOp33
 70
     0
102
RTVSPropertyOp34
 70
     0
102
RTVSPropertyOp35
 70
     0
102
RTVSPropertyOp36
 70
     0
102
RTVSPropertyOp37
 70
     0
102
RTVSPropertyOp38
 70
     0
102
RTVSPropertyOp39
 70
     0
102
RTVSPropertyOp40
 70
     0
102
RTVSPropertyOp41
 70
     0
102
RTVSPropertyOp42
 70
     0
102
RTVSPropertyOp43
 70
     0
102
RTVSPropertyOp44
 70
     0
102
RTVSPropertyOp45
 70
     0
102
RTVSPropertyOp46
 70
     0
102
RTVSPropertyOp47
 70
     0
102
RTVSPropertyOp48
 70
     0
102
RTVSPropertyOp49
 70
     0
102
RTVSPropertyOp50
 70
     0
102
RTVSPropertyOp51
 70
     0
102
RTVSPropertyOp52
 70
     0
102
RTVSPropertyOp53
 70
     0
102
RTVSPropertyOp54
 70
     0
102
RTVSPropertyOp55
 70
     0
102
RTVSPropertyOp56
 70
     0
102
RTVSPropertyOp57
 70
     0
102
RTVSPropertyOp58
 70
     0
102
RTVSPropertyOp59
 70
     0
102
RTVSPropertyOp60
 70
     0
102
RTVSPropertyOp61
 70
     0
102
RTVSPropertyOp62
 70
     0
  0
XRECORD
  5
2812
102
{ACAD_REACTORS
330
2811
102
}
330
2811
100
AcDbXrecord
280
     1
102
RTVSPost2010Prop28
280
     0
102
RTVSPost2010PropOp28
 70
     1
102
RTVSPost2010Prop29
280
     1
102
RTVSPost2010PropOp29
 70
     1
102
RTVSPost2010Prop30
280
     1
102
RTVSPost2010PropOp30
 70
     1
102
RTVSPost2010Prop31
280
     0
102
RTVSPost2010PropOp31
 70
     1
102
RTVSPost2010Prop32
280
     0
102
RTVSPost2010PropOp32
 70
     1
102
RTVSPost2010Prop33
280
     0
102
RTVSPost2010PropOp33
 70
     1
102
RTVSPost2010Prop34
280
     0
102
RTVSPost2010PropOp34
 70
     1
102
RTVSPost2010Prop35
280
     0
102
RTVSPost2010PropOp35
 70
     1
102
RTVSPost2010Prop36
280
     0
102
RTVSPost2010PropOp36
 70
     1
102
RTVSPost2010Prop37
 90
       50
102
RTVSPost2010PropOp37
 70
     1
102
RTVSPost2010Prop38
140
0.0
102
RTVSPost2010PropOp38
 70
     1
102
RTVSPost2010Prop39
140
1.0
102
RTVSPost2010PropOp39
 70
     1
102
RTVSPost2010Prop40
 90
        0
102
RTVSPost2010PropOp40
 70
     1
102
RTVSPost2010Prop41ColorIndex
 90
       18
102
RTVSPost2010Prop41ColorRGB
 90
        0
102
RTVSPost2010PropOp41
 70
     1
102
RTVSPost2010Prop42
 90
       50
102
RTVSPost2010PropOp42
 70
     1
102
RTVSPost2010Prop43
 90
        3
102
RTVSPost2010PropOp43
 70
     1
102
RTVSPost2010Prop44ColorIndex
 90
        5
102
RTVSPost2010Prop44ColorRGB
 90
      255
102
RTVSPost2010PropOp44
 70
     1
102
RTVSPost2010Prop45
280
     0
102
RTVSPost2010PropOp45
 70
     1
102
RTVSPost2010Prop46
 90
       50
102
RTVSPost2010PropOp46
 70
     1
102
RTVSPost2010Prop47
 90
       50
102
RTVSPost2010PropOp47
 70
     1
102
RTVSPost2010Prop48
 90
       50
102
RTVSPost2010PropOp48
 70
     1
102
RTVSPost2010Prop49
280
     0
102
RTVSPost2010PropOp49
 70
     1
102
RTVSPost2010Prop50
 90
       50
102
RTVSPost2010PropOp50
 70
     1
102
RTVSPost2010Prop51ColorIndex
 90
      256
102
RTVSPost2010Prop51ColorRGB
 90
-16777216
102
RTVSPost2010PropOp51
 70
     0
102
RTVSPost2010Prop52
140
1.0
102
RTVSPost2010PropOp52
 70
     0
102
RTVSPost2010Prop53
 90
        2
102
RTVSPost2010PropOp53
 70
     1
102
RTVSPost2010Prop54
  1
strokes_ogs.tif
102
RTVSPost2010PropOp54
 70
     1
102
RTVSPost2010Prop55
280
     0
102
RTVSPost2010PropOp55
 70
     1
102
RTVSPost2010Prop56
140
1.0
102
RTVSPost2010PropOp56
 70
     1
102
RTVSPost2010Prop57
140
1.0
102
RTVSPost2010PropOp57
 70
     1
102
RTVSPropertyOp0
 70
     1
102
RTVSPropertyOp1
 70
     1
102
RTVSPropertyOp2
 70
     1
102
RTVSPropertyOp3
 70
     1
102
RTVSPropertyOp4
 70
     1
102
RTVSPropertyOp5
 70
     1
102
RTVSPropertyOp6
 70
     1
102
RTVSPropertyOp7
 70
     1
102
RTVSPropertyOp8
 70
     1
102
RTVSPropertyOp9
 70
     1
102
RTVSPropertyOp10
 70
     1
102
RTVSPropertyOp11
 70
     1
102
RTVSPropertyOp12
 70
     1
102
RTVSPropertyOp13
 70
     1
102
RTVSPropertyOp14
 70
     1
102
RTVSPropertyOp15
 70
     1
102
RTVSPropertyOp16
 70
     1
102
RTVSPropertyOp17
 70
     1
102
RTVSPropertyOp18
 70
     1
102
RTVSPropertyOp19
 70
     1
102
RTVSPropertyOp20
 70
     1
102
RTVSPropertyOp21
 70
     1
102
RTVSPropertyOp22
 70
     1
102
RTVSPropertyOp23
 70
     1
102
RTVSPropertyOp24
 70
     1
102
RTVSPropertyOp25
 70
     1
102
RTVSPropertyOp26
 70
     1
102
RTVSPropertyOp27
 70
     1
102
RTVSPropertyOp28
 70
     1
102
RTVSPropertyOp29
 70
     1
102
RTVSPropertyOp30
 70
     1
102
RTVSPropertyOp31
 70
     1
102
RTVSPropertyOp32
 70
     1
102
RTVSPropertyOp33
 70
     1
102
RTVSPropertyOp34
 70
     1
102
RTVSPropertyOp35
 70
     1
102
RTVSPropertyOp36
 70
     1
102
RTVSPropertyOp37
 70
     1
102
RTVSPropertyOp38
 70
     1
102
RTVSPropertyOp39
 70
     1
102
RTVSPropertyOp40
 70
     1
102
RTVSPropertyOp41
 70
     1
102
RTVSPropertyOp42
 70
     1
102
RTVSPropertyOp43
 70
     1
102
RTVSPropertyOp44
 70
     1
102
RTVSPropertyOp45
 70
     1
102
RTVSPropertyOp46
 70
     1
102
RTVSPropertyOp47
 70
     1
102
RTVSPropertyOp48
 70
     1
102
RTVSPropertyOp49
 70
     1
102
RTVSPropertyOp50
 70
     1
102
RTVSPropertyOp51
 70
     0
102
RTVSPropertyOp52
 70
     0
102
RTVSPropertyOp53
 70
     1
102
RTVSPropertyOp54
 70
     1
102
RTVSPropertyOp55
 70
     1
102
RTVSPropertyOp56
 70
     1
102
RTVSPropertyOp57
 70
     1
102
RTVSPropertyOp58
 70
     1
102
RTVSPropertyOp59
 70
     1
102
RTVSPropertyOp60
 70
     1
102
RTVSPropertyOp61
 70
     1
102
RTVSPropertyOp62
 70
     1
  0
XRECORD
  5
27F6
102
{ACAD_REACTORS
330
27F5
102
}
330
27F5
100
AcDbXrecord
280
     1
102
RTVSPost2010Prop28
280
     0
102
RTVSPost2010PropOp28
 70
     1
102
RTVSPost2010Prop29
280
     1
102
RTVSPost2010PropOp29
 70
     1
102
RTVSPost2010Prop30
280
     1
102
RTVSPost2010PropOp30
 70
     1
102
RTVSPost2010Prop31
280
     0
102
RTVSPost2010PropOp31
 70
     1
102
RTVSPost2010Prop32
280
     0
102
RTVSPost2010PropOp32
 70
     1
102
RTVSPost2010Prop33
280
     0
102
RTVSPost2010PropOp33
 70
     1
102
RTVSPost2010Prop34
280
     0
102
RTVSPost2010PropOp34
 70
     1
102
RTVSPost2010Prop35
280
     0
102
RTVSPost2010PropOp35
 70
     1
102
RTVSPost2010Prop36
280
     0
102
RTVSPost2010PropOp36
 70
     1
102
RTVSPost2010Prop37
 90
       50
102
RTVSPost2010PropOp37
 70
     1
102
RTVSPost2010Prop38
140
0.0
102
RTVSPost2010PropOp38
 70
     1
102
RTVSPost2010Prop39
140
1.0
102
RTVSPost2010PropOp39
 70
     1
102
RTVSPost2010Prop40
 90
        0
102
RTVSPost2010PropOp40
 70
     1
102
RTVSPost2010Prop41ColorIndex
 90
       18
102
RTVSPost2010Prop41ColorRGB
 90
        0
102
RTVSPost2010PropOp41
 70
     1
102
RTVSPost2010Prop42
 90
       50
102
RTVSPost2010PropOp42
 70
     1
102
RTVSPost2010Prop43
 90
        3
102
RTVSPost2010PropOp43
 70
     1
102
RTVSPost2010Prop44ColorIndex
 90
        5
102
RTVSPost2010Prop44ColorRGB
 90
      255
102
RTVSPost2010PropOp44
 70
     1
102
RTVSPost2010Prop45
280
     0
102
RTVSPost2010PropOp45
 70
     1
102
RTVSPost2010Prop46
 90
       50
102
RTVSPost2010PropOp46
 70
     1
102
RTVSPost2010Prop47
 90
       50
102
RTVSPost2010PropOp47
 70
     1
102
RTVSPost2010Prop48
 90
       50
102
RTVSPost2010PropOp48
 70
     1
102
RTVSPost2010Prop49
280
     0
102
RTVSPost2010PropOp49
 70
     1
102
RTVSPost2010Prop50
 90
       50
102
RTVSPost2010PropOp50
 70
     1
102
RTVSPost2010Prop51ColorIndex
 90
      256
102
RTVSPost2010Prop51ColorRGB
 90
-16777216
102
RTVSPost2010PropOp51
 70
     0
102
RTVSPost2010Prop52
140
1.0
102
RTVSPost2010PropOp52
 70
     0
102
RTVSPost2010Prop53
 90
        2
102
RTVSPost2010PropOp53
 70
     1
102
RTVSPost2010Prop54
  1
strokes_ogs.tif
102
RTVSPost2010PropOp54
 70
     1
102
RTVSPost2010Prop55
280
     0
102
RTVSPost2010PropOp55
 70
     1
102
RTVSPost2010Prop56
140
1.0
102
RTVSPost2010PropOp56
 70
     1
102
RTVSPost2010Prop57
140
1.0
102
RTVSPost2010PropOp57
 70
     1
102
RTVSPropertyOp0
 70
     1
102
RTVSPropertyOp1
 70
     1
102
RTVSPropertyOp2
 70
     1
102
RTVSPropertyOp3
 70
     1
102
RTVSPropertyOp4
 70
     1
102
RTVSPropertyOp5
 70
     1
102
RTVSPropertyOp6
 70
     1
102
RTVSPropertyOp7
 70
     1
102
RTVSPropertyOp8
 70
     1
102
RTVSPropertyOp9
 70
     1
102
RTVSPropertyOp10
 70
     1
102
RTVSPropertyOp11
 70
     1
102
RTVSPropertyOp12
 70
     1
102
RTVSPropertyOp13
 70
     1
102
RTVSPropertyOp14
 70
     1
102
RTVSPropertyOp15
 70
     1
102
RTVSPropertyOp16
 70
     1
102
RTVSPropertyOp17
 70
     1
102
RTVSPropertyOp18
 70
     1
102
RTVSPropertyOp19
 70
     1
102
RTVSPropertyOp20
 70
     1
102
RTVSPropertyOp21
 70
     1
102
RTVSPropertyOp22
 70
     1
102
RTVSPropertyOp23
 70
     1
102
RTVSPropertyOp24
 70
     1
102
RTVSPropertyOp25
 70
     1
102
RTVSPropertyOp26
 70
     1
102
RTVSPropertyOp27
 70
     1
102
RTVSPropertyOp28
 70
     1
102
RTVSPropertyOp29
 70
     1
102
RTVSPropertyOp30
 70
     1
102
RTVSPropertyOp31
 70
     1
102
RTVSPropertyOp32
 70
     1
102
RTVSPropertyOp33
 70
     1
102
RTVSPropertyOp34
 70
     1
102
RTVSPropertyOp35
 70
     1
102
RTVSPropertyOp36
 70
     1
102
RTVSPropertyOp37
 70
     1
102
RTVSPropertyOp38
 70
     1
102
RTVSPropertyOp39
 70
     1
102
RTVSPropertyOp40
 70
     1
102
RTVSPropertyOp41
 70
     1
102
RTVSPropertyOp42
 70
     1
102
RTVSPropertyOp43
 70
     1
102
RTVSPropertyOp44
 70
     1
102
RTVSPropertyOp45
 70
     1
102
RTVSPropertyOp46
 70
     1
102
RTVSPropertyOp47
 70
     1
102
RTVSPropertyOp48
 70
     1
102
RTVSPropertyOp49
 70
     1
102
RTVSPropertyOp50
 70
     1
102
RTVSPropertyOp51
 70
     0
102
RTVSPropertyOp52
 70
     0
102
RTVSPropertyOp53
 70
     1
102
RTVSPropertyOp54
 70
     1
102
RTVSPropertyOp55
 70
     1
102
RTVSPropertyOp56
 70
     1
102
RTVSPropertyOp57
 70
     1
102
RTVSPropertyOp58
 70
     1
102
RTVSPropertyOp59
 70
     1
102
RTVSPropertyOp60
 70
     1
102
RTVSPropertyOp61
 70
     1
102
RTVSPropertyOp62
 70
     1
  0
XRECORD
  5
27F8
102
{ACAD_REACTORS
330
27F7
102
}
330
27F7
100
AcDbXrecord
280
     1
102
RTVSPost2010Prop28
280
     0
102
RTVSPost2010PropOp28
 70
     1
102
RTVSPost2010Prop29
280
     1
102
RTVSPost2010PropOp29
 70
     1
102
RTVSPost2010Prop30
280
     1
102
RTVSPost2010PropOp30
 70
     1
102
RTVSPost2010Prop31
280
     0
102
RTVSPost2010PropOp31
 70
     1
102
RTVSPost2010Prop32
280
     0
102
RTVSPost2010PropOp32
 70
     1
102
RTVSPost2010Prop33
280
     0
102
RTVSPost2010PropOp33
 70
     1
102
RTVSPost2010Prop34
280
     0
102
RTVSPost2010PropOp34
 70
     1
102
RTVSPost2010Prop35
280
     0
102
RTVSPost2010PropOp35
 70
     1
102
RTVSPost2010Prop36
280
     0
102
RTVSPost2010PropOp36
 70
     1
102
RTVSPost2010Prop37
 90
       50
102
RTVSPost2010PropOp37
 70
     1
102
RTVSPost2010Prop38
140
0.0
102
RTVSPost2010PropOp38
 70
     1
102
RTVSPost2010Prop39
140
1.0
102
RTVSPost2010PropOp39
 70
     1
102
RTVSPost2010Prop40
 90
        0
102
RTVSPost2010PropOp40
 70
     1
102
RTVSPost2010Prop41ColorIndex
 90
       18
102
RTVSPost2010Prop41ColorRGB
 90
        0
102
RTVSPost2010PropOp41
 70
     1
102
RTVSPost2010Prop42
 90
       50
102
RTVSPost2010PropOp42
 70
     1
102
RTVSPost2010Prop43
 90
        3
102
RTVSPost2010PropOp43
 70
     1
102
RTVSPost2010Prop44ColorIndex
 90
        5
102
RTVSPost2010Prop44ColorRGB
 90
      255
102
RTVSPost2010PropOp44
 70
     1
102
RTVSPost2010Prop45
280
     0
102
RTVSPost2010PropOp45
 70
     1
102
RTVSPost2010Prop46
 90
       50
102
RTVSPost2010PropOp46
 70
     1
102
RTVSPost2010Prop47
 90
       50
102
RTVSPost2010PropOp47
 70
     1
102
RTVSPost2010Prop48
 90
       50
102
RTVSPost2010PropOp48
 70
     1
102
RTVSPost2010Prop49
280
     0
102
RTVSPost2010PropOp49
 70
     1
102
RTVSPost2010Prop50
 90
       50
102
RTVSPost2010PropOp50
 70
     1
102
RTVSPost2010Prop51ColorIndex
 90
      256
102
RTVSPost2010Prop51ColorRGB
 90
-16777216
102
RTVSPost2010PropOp51
 70
     0
102
RTVSPost2010Prop52
140
1.0
102
RTVSPost2010PropOp52
 70
     0
102
RTVSPost2010Prop53
 90
        2
102
RTVSPost2010PropOp53
 70
     1
102
RTVSPost2010Prop54
  1
strokes_ogs.tif
102
RTVSPost2010PropOp54
 70
     1
102
RTVSPost2010Prop55
280
     0
102
RTVSPost2010PropOp55
 70
     1
102
RTVSPost2010Prop56
140
1.0
102
RTVSPost2010PropOp56
 70
     1
102
RTVSPost2010Prop57
140
1.0
102
RTVSPost2010PropOp57
 70
     1
102
RTVSPropertyOp0
 70
     1
102
RTVSPropertyOp1
 70
     1
102
RTVSPropertyOp2
 70
     1
102
RTVSPropertyOp3
 70
     1
102
RTVSPropertyOp4
 70
     1
102
RTVSPropertyOp5
 70
     1
102
RTVSPropertyOp6
 70
     1
102
RTVSPropertyOp7
 70
     1
102
RTVSPropertyOp8
 70
     1
102
RTVSPropertyOp9
 70
     1
102
RTVSPropertyOp10
 70
     1
102
RTVSPropertyOp11
 70
     1
102
RTVSPropertyOp12
 70
     1
102
RTVSPropertyOp13
 70
     1
102
RTVSPropertyOp14
 70
     1
102
RTVSPropertyOp15
 70
     1
102
RTVSPropertyOp16
 70
     1
102
RTVSPropertyOp17
 70
     1
102
RTVSPropertyOp18
 70
     1
102
RTVSPropertyOp19
 70
     1
102
RTVSPropertyOp20
 70
     1
102
RTVSPropertyOp21
 70
     1
102
RTVSPropertyOp22
 70
     1
102
RTVSPropertyOp23
 70
     1
102
RTVSPropertyOp24
 70
     1
102
RTVSPropertyOp25
 70
     1
102
RTVSPropertyOp26
 70
     1
102
RTVSPropertyOp27
 70
     1
102
RTVSPropertyOp28
 70
     1
102
RTVSPropertyOp29
 70
     1
102
RTVSPropertyOp30
 70
     1
102
RTVSPropertyOp31
 70
     1
102
RTVSPropertyOp32
 70
     1
102
RTVSPropertyOp33
 70
     1
102
RTVSPropertyOp34
 70
     1
102
RTVSPropertyOp35
 70
     1
102
RTVSPropertyOp36
 70
     1
102
RTVSPropertyOp37
 70
     1
102
RTVSPropertyOp38
 70
     1
102
RTVSPropertyOp39
 70
     1
102
RTVSPropertyOp40
 70
     1
102
RTVSPropertyOp41
 70
     1
102
RTVSPropertyOp42
 70
     1
102
RTVSPropertyOp43
 70
     1
102
RTVSPropertyOp44
 70
     1
102
RTVSPropertyOp45
 70
     1
102
RTVSPropertyOp46
 70
     1
102
RTVSPropertyOp47
 70
     1
102
RTVSPropertyOp48
 70
     1
102
RTVSPropertyOp49
 70
     1
102
RTVSPropertyOp50
 70
     1
102
RTVSPropertyOp51
 70
     0
102
RTVSPropertyOp52
 70
     0
102
RTVSPropertyOp53
 70
     1
102
RTVSPropertyOp54
 70
     1
102
RTVSPropertyOp55
 70
     1
102
RTVSPropertyOp56
 70
     1
102
RTVSPropertyOp57
 70
     1
102
RTVSPropertyOp58
 70
     1
102
RTVSPropertyOp59
 70
     1
102
RTVSPropertyOp60
 70
     1
102
RTVSPropertyOp61
 70
     1
102
RTVSPropertyOp62
 70
     1
  0
XRECORD
  5
27FA
102
{ACAD_REACTORS
330
27F9
102
}
330
27F9
100
AcDbXrecord
280
     1
102
RTVSPost2010Prop28
280
     0
102
RTVSPost2010PropOp28
 70
     1
102
RTVSPost2010Prop29
280
     1
102
RTVSPost2010PropOp29
 70
     1
102
RTVSPost2010Prop30
280
     1
102
RTVSPost2010PropOp30
 70
     1
102
RTVSPost2010Prop31
280
     0
102
RTVSPost2010PropOp31
 70
     1
102
RTVSPost2010Prop32
280
     0
102
RTVSPost2010PropOp32
 70
     1
102
RTVSPost2010Prop33
280
     0
102
RTVSPost2010PropOp33
 70
     1
102
RTVSPost2010Prop34
280
     0
102
RTVSPost2010PropOp34
 70
     1
102
RTVSPost2010Prop35
280
     0
102
RTVSPost2010PropOp35
 70
     1
102
RTVSPost2010Prop36
280
     0
102
RTVSPost2010PropOp36
 70
     1
102
RTVSPost2010Prop37
 90
       50
102
RTVSPost2010PropOp37
 70
     1
102
RTVSPost2010Prop38
140
0.0
102
RTVSPost2010PropOp38
 70
     1
102
RTVSPost2010Prop39
140
1.0
102
RTVSPost2010PropOp39
 70
     1
102
RTVSPost2010Prop40
 90
        0
102
RTVSPost2010PropOp40
 70
     1
102
RTVSPost2010Prop41ColorIndex
 90
       18
102
RTVSPost2010Prop41ColorRGB
 90
        0
102
RTVSPost2010PropOp41
 70
     1
102
RTVSPost2010Prop42
 90
       50
102
RTVSPost2010PropOp42
 70
     1
102
RTVSPost2010Prop43
 90
        3
102
RTVSPost2010PropOp43
 70
     1
102
RTVSPost2010Prop44ColorIndex
 90
        5
102
RTVSPost2010Prop44ColorRGB
 90
      255
102
RTVSPost2010PropOp44
 70
     1
102
RTVSPost2010Prop45
280
     0
102
RTVSPost2010PropOp45
 70
     1
102
RTVSPost2010Prop46
 90
       50
102
RTVSPost2010PropOp46
 70
     1
102
RTVSPost2010Prop47
 90
       50
102
RTVSPost2010PropOp47
 70
     1
102
RTVSPost2010Prop48
 90
       50
102
RTVSPost2010PropOp48
 70
     1
102
RTVSPost2010Prop49
280
     0
102
RTVSPost2010PropOp49
 70
     1
102
RTVSPost2010Prop50
 90
       50
102
RTVSPost2010PropOp50
 70
     1
102
RTVSPost2010Prop51ColorIndex
 90
      256
102
RTVSPost2010Prop51ColorRGB
 90
-16777216
102
RTVSPost2010PropOp51
 70
     0
102
RTVSPost2010Prop52
140
1.0
102
RTVSPost2010PropOp52
 70
     0
102
RTVSPost2010Prop53
 90
        2
102
RTVSPost2010PropOp53
 70
     1
102
RTVSPost2010Prop54
  1
strokes_ogs.tif
102
RTVSPost2010PropOp54
 70
     1
102
RTVSPost2010Prop55
280
     0
102
RTVSPost2010PropOp55
 70
     1
102
RTVSPost2010Prop56
140
1.0
102
RTVSPost2010PropOp56
 70
     1
102
RTVSPost2010Prop57
140
1.0
102
RTVSPost2010PropOp57
 70
     1
102
RTVSPropertyOp0
 70
     1
102
RTVSPropertyOp1
 70
     1
102
RTVSPropertyOp2
 70
     1
102
RTVSPropertyOp3
 70
     1
102
RTVSPropertyOp4
 70
     1
102
RTVSPropertyOp5
 70
     1
102
RTVSPropertyOp6
 70
     1
102
RTVSPropertyOp7
 70
     1
102
RTVSPropertyOp8
 70
     1
102
RTVSPropertyOp9
 70
     1
102
RTVSPropertyOp10
 70
     1
102
RTVSPropertyOp11
 70
     1
102
RTVSPropertyOp12
 70
     1
102
RTVSPropertyOp13
 70
     1
102
RTVSPropertyOp14
 70
     1
102
RTVSPropertyOp15
 70
     1
102
RTVSPropertyOp16
 70
     1
102
RTVSPropertyOp17
 70
     1
102
RTVSPropertyOp18
 70
     1
102
RTVSPropertyOp19
 70
     1
102
RTVSPropertyOp20
 70
     1
102
RTVSPropertyOp21
 70
     1
102
RTVSPropertyOp22
 70
     1
102
RTVSPropertyOp23
 70
     1
102
RTVSPropertyOp24
 70
     1
102
RTVSPropertyOp25
 70
     1
102
RTVSPropertyOp26
 70
     1
102
RTVSPropertyOp27
 70
     1
102
RTVSPropertyOp28
 70
     1
102
RTVSPropertyOp29
 70
     1
102
RTVSPropertyOp30
 70
     1
102
RTVSPropertyOp31
 70
     1
102
RTVSPropertyOp32
 70
     1
102
RTVSPropertyOp33
 70
     1
102
RTVSPropertyOp34
 70
     1
102
RTVSPropertyOp35
 70
     1
102
RTVSPropertyOp36
 70
     1
102
RTVSPropertyOp37
 70
     1
102
RTVSPropertyOp38
 70
     1
102
RTVSPropertyOp39
 70
     1
102
RTVSPropertyOp40
 70
     1
102
RTVSPropertyOp41
 70
     1
102
RTVSPropertyOp42
 70
     1
102
RTVSPropertyOp43
 70
     1
102
RTVSPropertyOp44
 70
     1
102
RTVSPropertyOp45
 70
     1
102
RTVSPropertyOp46
 70
     1
102
RTVSPropertyOp47
 70
     1
102
RTVSPropertyOp48
 70
     1
102
RTVSPropertyOp49
 70
     1
102
RTVSPropertyOp50
 70
     1
102
RTVSPropertyOp51
 70
     0
102
RTVSPropertyOp52
 70
     0
102
RTVSPropertyOp53
 70
     1
102
RTVSPropertyOp54
 70
     1
102
RTVSPropertyOp55
 70
     1
102
RTVSPropertyOp56
 70
     1
102
RTVSPropertyOp57
 70
     1
102
RTVSPropertyOp58
 70
     1
102
RTVSPropertyOp59
 70
     1
102
RTVSPropertyOp60
 70
     1
102
RTVSPropertyOp61
 70
     1
102
RTVSPropertyOp62
 70
     1
  0
XRECORD
  5
27FC
102
{ACAD_REACTORS
330
27FB
102
}
330
27FB
100
AcDbXrecord
280
     1
102
RTVSPost2010Prop28
280
     0
102
RTVSPost2010PropOp28
 70
     1
102
RTVSPost2010Prop29
280
     1
102
RTVSPost2010PropOp29
 70
     1
102
RTVSPost2010Prop30
280
     1
102
RTVSPost2010PropOp30
 70
     1
102
RTVSPost2010Prop31
280
     0
102
RTVSPost2010PropOp31
 70
     1
102
RTVSPost2010Prop32
280
     0
102
RTVSPost2010PropOp32
 70
     1
102
RTVSPost2010Prop33
280
     0
102
RTVSPost2010PropOp33
 70
     1
102
RTVSPost2010Prop34
280
     0
102
RTVSPost2010PropOp34
 70
     1
102
RTVSPost2010Prop35
280
     0
102
RTVSPost2010PropOp35
 70
     1
102
RTVSPost2010Prop36
280
     0
102
RTVSPost2010PropOp36
 70
     1
102
RTVSPost2010Prop37
 90
       50
102
RTVSPost2010PropOp37
 70
     1
102
RTVSPost2010Prop38
140
0.0
102
RTVSPost2010PropOp38
 70
     1
102
RTVSPost2010Prop39
140
1.0
102
RTVSPost2010PropOp39
 70
     1
102
RTVSPost2010Prop40
 90
        0
102
RTVSPost2010PropOp40
 70
     1
102
RTVSPost2010Prop41ColorIndex
 90
       18
102
RTVSPost2010Prop41ColorRGB
 90
        0
102
RTVSPost2010PropOp41
 70
     1
102
RTVSPost2010Prop42
 90
       50
102
RTVSPost2010PropOp42
 70
     1
102
RTVSPost2010Prop43
 90
        3
102
RTVSPost2010PropOp43
 70
     1
102
RTVSPost2010Prop44ColorIndex
 90
        5
102
RTVSPost2010Prop44ColorRGB
 90
      255
102
RTVSPost2010PropOp44
 70
     1
102
RTVSPost2010Prop45
280
     0
102
RTVSPost2010PropOp45
 70
     1
102
RTVSPost2010Prop46
 90
       50
102
RTVSPost2010PropOp46
 70
     1
102
RTVSPost2010Prop47
 90
       50
102
RTVSPost2010PropOp47
 70
     1
102
RTVSPost2010Prop48
 90
       50
102
RTVSPost2010PropOp48
 70
     1
102
RTVSPost2010Prop49
280
     0
102
RTVSPost2010PropOp49
 70
     1
102
RTVSPost2010Prop50
 90
       50
102
RTVSPost2010PropOp50
 70
     1
102
RTVSPost2010Prop51ColorIndex
 90
      256
102
RTVSPost2010Prop51ColorRGB
 90
-16777216
102
RTVSPost2010PropOp51
 70
     0
102
RTVSPost2010Prop52
140
1.0
102
RTVSPost2010PropOp52
 70
     0
102
RTVSPost2010Prop53
 90
        2
102
RTVSPost2010PropOp53
 70
     1
102
RTVSPost2010Prop54
  1
strokes_ogs.tif
102
RTVSPost2010PropOp54
 70
     1
102
RTVSPost2010Prop55
280
     0
102
RTVSPost2010PropOp55
 70
     1
102
RTVSPost2010Prop56
140
1.0
102
RTVSPost2010PropOp56
 70
     1
102
RTVSPost2010Prop57
140
1.0
102
RTVSPost2010PropOp57
 70
     1
102
RTVSPropertyOp0
 70
     1
102
RTVSPropertyOp1
 70
     1
102
RTVSPropertyOp2
 70
     1
102
RTVSPropertyOp3
 70
     1
102
RTVSPropertyOp4
 70
     1
102
RTVSPropertyOp5
 70
     1
102
RTVSPropertyOp6
 70
     1
102
RTVSPropertyOp7
 70
     1
102
RTVSPropertyOp8
 70
     1
102
RTVSPropertyOp9
 70
     1
102
RTVSPropertyOp10
 70
     1
102
RTVSPropertyOp11
 70
     1
102
RTVSPropertyOp12
 70
     1
102
RTVSPropertyOp13
 70
     1
102
RTVSPropertyOp14
 70
     1
102
RTVSPropertyOp15
 70
     1
102
RTVSPropertyOp16
 70
     1
102
RTVSPropertyOp17
 70
     1
102
RTVSPropertyOp18
 70
     1
102
RTVSPropertyOp19
 70
     1
102
RTVSPropertyOp20
 70
     1
102
RTVSPropertyOp21
 70
     1
102
RTVSPropertyOp22
 70
     1
102
RTVSPropertyOp23
 70
     1
102
RTVSPropertyOp24
 70
     1
102
RTVSPropertyOp25
 70
     1
102
RTVSPropertyOp26
 70
     1
102
RTVSPropertyOp27
 70
     1
102
RTVSPropertyOp28
 70
     1
102
RTVSPropertyOp29
 70
     1
102
RTVSPropertyOp30
 70
     1
102
RTVSPropertyOp31
 70
     1
102
RTVSPropertyOp32
 70
     1
102
RTVSPropertyOp33
 70
     1
102
RTVSPropertyOp34
 70
     1
102
RTVSPropertyOp35
 70
     1
102
RTVSPropertyOp36
 70
     1
102
RTVSPropertyOp37
 70
     1
102
RTVSPropertyOp38
 70
     1
102
RTVSPropertyOp39
 70
     1
102
RTVSPropertyOp40
 70
     1
102
RTVSPropertyOp41
 70
     1
102
RTVSPropertyOp42
 70
     1
102
RTVSPropertyOp43
 70
     1
102
RTVSPropertyOp44
 70
     1
102
RTVSPropertyOp45
 70
     1
102
RTVSPropertyOp46
 70
     1
102
RTVSPropertyOp47
 70
     1
102
RTVSPropertyOp48
 70
     1
102
RTVSPropertyOp49
 70
     1
102
RTVSPropertyOp50
 70
     1
102
RTVSPropertyOp51
 70
     0
102
RTVSPropertyOp52
 70
     0
102
RTVSPropertyOp53
 70
     1
102
RTVSPropertyOp54
 70
     1
102
RTVSPropertyOp55
 70
     1
102
RTVSPropertyOp56
 70
     1
102
RTVSPropertyOp57
 70
     1
102
RTVSPropertyOp58
 70
     1
102
RTVSPropertyOp59
 70
     1
102
RTVSPropertyOp60
 70
     1
102
RTVSPropertyOp61
 70
     1
102
RTVSPropertyOp62
 70
     1
  0
XRECORD
  5
2804
102
{ACAD_REACTORS
330
2803
102
}
330
2803
100
AcDbXrecord
280
     1
102
RTVSPost2010Prop28
280
     0
102
RTVSPost2010PropOp28
 70
     1
102
RTVSPost2010Prop29
280
     1
102
RTVSPost2010PropOp29
 70
     1
102
RTVSPost2010Prop30
280
     1
102
RTVSPost2010PropOp30
 70
     1
102
RTVSPost2010Prop31
280
     0
102
RTVSPost2010PropOp31
 70
     1
102
RTVSPost2010Prop32
280
     0
102
RTVSPost2010PropOp32
 70
     1
102
RTVSPost2010Prop33
280
     0
102
RTVSPost2010PropOp33
 70
     1
102
RTVSPost2010Prop34
280
     0
102
RTVSPost2010PropOp34
 70
     1
102
RTVSPost2010Prop35
280
     0
102
RTVSPost2010PropOp35
 70
     1
102
RTVSPost2010Prop36
280
     0
102
RTVSPost2010PropOp36
 70
     1
102
RTVSPost2010Prop37
 90
       50
102
RTVSPost2010PropOp37
 70
     1
102
RTVSPost2010Prop38
140
0.0
102
RTVSPost2010PropOp38
 70
     1
102
RTVSPost2010Prop39
140
1.0
102
RTVSPost2010PropOp39
 70
     1
102
RTVSPost2010Prop40
 90
        0
102
RTVSPost2010PropOp40
 70
     1
102
RTVSPost2010Prop41ColorIndex
 90
       18
102
RTVSPost2010Prop41ColorRGB
 90
        0
102
RTVSPost2010PropOp41
 70
     1
102
RTVSPost2010Prop42
 90
       50
102
RTVSPost2010PropOp42
 70
     1
102
RTVSPost2010Prop43
 90
        3
102
RTVSPost2010PropOp43
 70
     1
102
RTVSPost2010Prop44ColorIndex
 90
        5
102
RTVSPost2010Prop44ColorRGB
 90
      255
102
RTVSPost2010PropOp44
 70
     1
102
RTVSPost2010Prop45
280
     0
102
RTVSPost2010PropOp45
 70
     1
102
RTVSPost2010Prop46
 90
       50
102
RTVSPost2010PropOp46
 70
     1
102
RTVSPost2010Prop47
 90
       50
102
RTVSPost2010PropOp47
 70
     1
102
RTVSPost2010Prop48
 90
       50
102
RTVSPost2010PropOp48
 70
     1
102
RTVSPost2010Prop49
280
     0
102
RTVSPost2010PropOp49
 70
     1
102
RTVSPost2010Prop50
 90
       50
102
RTVSPost2010PropOp50
 70
     1
102
RTVSPost2010Prop51ColorIndex
 90
      256
102
RTVSPost2010Prop51ColorRGB
 90
-16777216
102
RTVSPost2010PropOp51
 70
     0
102
RTVSPost2010Prop52
140
1.0
102
RTVSPost2010PropOp52
 70
     0
102
RTVSPost2010Prop53
 90
        2
102
RTVSPost2010PropOp53
 70
     1
102
RTVSPost2010Prop54
  1
strokes_ogs.tif
102
RTVSPost2010PropOp54
 70
     1
102
RTVSPost2010Prop55
280
     0
102
RTVSPost2010PropOp55
 70
     1
102
RTVSPost2010Prop56
140
1.0
102
RTVSPost2010PropOp56
 70
     1
102
RTVSPost2010Prop57
140
1.0
102
RTVSPost2010PropOp57
 70
     1
102
RTVSPropertyOp0
 70
     1
102
RTVSPropertyOp1
 70
     1
102
RTVSPropertyOp2
 70
     1
102
RTVSPropertyOp3
 70
     1
102
RTVSPropertyOp4
 70
     1
102
RTVSPropertyOp5
 70
     1
102
RTVSPropertyOp6
 70
     1
102
RTVSPropertyOp7
 70
     1
102
RTVSPropertyOp8
 70
     1
102
RTVSPropertyOp9
 70
     1
102
RTVSPropertyOp10
 70
     1
102
RTVSPropertyOp11
 70
     1
102
RTVSPropertyOp12
 70
     1
102
RTVSPropertyOp13
 70
     1
102
RTVSPropertyOp14
 70
     1
102
RTVSPropertyOp15
 70
     1
102
RTVSPropertyOp16
 70
     1
102
RTVSPropertyOp17
 70
     1
102
RTVSPropertyOp18
 70
     1
102
RTVSPropertyOp19
 70
     1
102
RTVSPropertyOp20
 70
     1
102
RTVSPropertyOp21
 70
     1
102
RTVSPropertyOp22
 70
     1
102
RTVSPropertyOp23
 70
     1
102
RTVSPropertyOp24
 70
     1
102
RTVSPropertyOp25
 70
     1
102
RTVSPropertyOp26
 70
     1
102
RTVSPropertyOp27
 70
     1
102
RTVSPropertyOp28
 70
     1
102
RTVSPropertyOp29
 70
     1
102
RTVSPropertyOp30
 70
     1
102
RTVSPropertyOp31
 70
     1
102
RTVSPropertyOp32
 70
     1
102
RTVSPropertyOp33
 70
     1
102
RTVSPropertyOp34
 70
     1
102
RTVSPropertyOp35
 70
     1
102
RTVSPropertyOp36
 70
     1
102
RTVSPropertyOp37
 70
     1
102
RTVSPropertyOp38
 70
     1
102
RTVSPropertyOp39
 70
     1
102
RTVSPropertyOp40
 70
     1
102
RTVSPropertyOp41
 70
     1
102
RTVSPropertyOp42
 70
     1
102
RTVSPropertyOp43
 70
     1
102
RTVSPropertyOp44
 70
     1
102
RTVSPropertyOp45
 70
     1
102
RTVSPropertyOp46
 70
     1
102
RTVSPropertyOp47
 70
     1
102
RTVSPropertyOp48
 70
     1
102
RTVSPropertyOp49
 70
     1
102
RTVSPropertyOp50
 70
     1
102
RTVSPropertyOp51
 70
     0
102
RTVSPropertyOp52
 70
     0
102
RTVSPropertyOp53
 70
     1
102
RTVSPropertyOp54
 70
     1
102
RTVSPropertyOp55
 70
     1
102
RTVSPropertyOp56
 70
     1
102
RTVSPropertyOp57
 70
     1
102
RTVSPropertyOp58
 70
     1
102
RTVSPropertyOp59
 70
     1
102
RTVSPropertyOp60
 70
     1
102
RTVSPropertyOp61
 70
     1
102
RTVSPropertyOp62
 70
     1
  0
XRECORD
  5
2820
102
{ACAD_REACTORS
330
281F
102
}
330
281F
100
AcDbXrecord
280
     1
102
RTVSPost2010Prop28
280
     0
102
RTVSPost2010PropOp28
 70
     0
102
RTVSPost2010Prop29
280
     1
102
RTVSPost2010PropOp29
 70
     0
102
RTVSPost2010Prop30
280
     1
102
RTVSPost2010PropOp30
 70
     0
102
RTVSPost2010Prop31
280
     0
102
RTVSPost2010PropOp31
 70
     0
102
RTVSPost2010Prop32
280
     0
102
RTVSPost2010PropOp32
 70
     0
102
RTVSPost2010Prop33
280
     0
102
RTVSPost2010PropOp33
 70
     0
102
RTVSPost2010Prop34
280
     0
102
RTVSPost2010PropOp34
 70
     0
102
RTVSPost2010Prop35
280
     0
102
RTVSPost2010PropOp35
 70
     0
102
RTVSPost2010Prop36
280
     0
102
RTVSPost2010PropOp36
 70
     0
102
RTVSPost2010Prop37
 90
       50
102
RTVSPost2010PropOp37
 70
     0
102
RTVSPost2010Prop38
140
0.0
102
RTVSPost2010PropOp38
 70
     0
102
RTVSPost2010Prop39
140
1.0
102
RTVSPost2010PropOp39
 70
     0
102
RTVSPost2010Prop40
 90
        0
102
RTVSPost2010PropOp40
 70
     0
102
RTVSPost2010Prop41ColorIndex
 90
       18
102
RTVSPost2010Prop41ColorRGB
 90
        0
102
RTVSPost2010PropOp41
 70
     0
102
RTVSPost2010Prop42
 90
       50
102
RTVSPost2010PropOp42
 70
     0
102
RTVSPost2010Prop43
 90
        3
102
RTVSPost2010PropOp43
 70
     0
102
RTVSPost2010Prop44ColorIndex
 90
        5
102
RTVSPost2010Prop44ColorRGB
 90
      255
102
RTVSPost2010PropOp44
 70
     0
102
RTVSPost2010Prop45
280
     0
102
RTVSPost2010PropOp45
 70
     0
102
RTVSPost2010Prop46
 90
       50
102
RTVSPost2010PropOp46
 70
     0
102
RTVSPost2010Prop47
 90
       50
102
RTVSPost2010PropOp47
 70
     0
102
RTVSPost2010Prop48
 90
       50
102
RTVSPost2010PropOp48
 70
     0
102
RTVSPost2010Prop49
280
     0
102
RTVSPost2010PropOp49
 70
     0
102
RTVSPost2010Prop50
 90
       50
102
RTVSPost2010PropOp50
 70
     0
102
RTVSPost2010Prop51ColorIndex
 90
      256
102
RTVSPost2010Prop51ColorRGB
 90
-16777216
102
RTVSPost2010PropOp51
 70
     0
102
RTVSPost2010Prop52
140
1.0
102
RTVSPost2010PropOp52
 70
     0
102
RTVSPost2010Prop53
 90
        2
102
RTVSPost2010PropOp53
 70
     0
102
RTVSPost2010Prop54
  1
strokes_ogs.tif
102
RTVSPost2010PropOp54
 70
     0
102
RTVSPost2010Prop55
280
     0
102
RTVSPost2010PropOp55
 70
     0
102
RTVSPost2010Prop56
140
1.0
102
RTVSPost2010PropOp56
 70
     0
102
RTVSPost2010Prop57
140
1.0
102
RTVSPost2010PropOp57
 70
     0
102
RTVSPropertyOp0
 70
     0
102
RTVSPropertyOp1
 70
     0
102
RTVSPropertyOp2
 70
     0
102
RTVSPropertyOp3
 70
     0
102
RTVSPropertyOp4
 70
     0
102
RTVSPropertyOp5
 70
     0
102
RTVSPropertyOp6
 70
     0
102
RTVSPropertyOp7
 70
     0
102
RTVSPropertyOp8
 70
     0
102
RTVSPropertyOp9
 70
     0
102
RTVSPropertyOp10
 70
     0
102
RTVSPropertyOp11
 70
     0
102
RTVSPropertyOp12
 70
     0
102
RTVSPropertyOp13
 70
     0
102
RTVSPropertyOp14
 70
     2
102
RTVSPropertyOp15
 70
     0
102
RTVSPropertyOp16
 70
     0
102
RTVSPropertyOp17
 70
     0
102
RTVSPropertyOp18
 70
     0
102
RTVSPropertyOp19
 70
     0
102
RTVSPropertyOp20
 70
     0
102
RTVSPropertyOp21
 70
     0
102
RTVSPropertyOp22
 70
     0
102
RTVSPropertyOp23
 70
     0
102
RTVSPropertyOp24
 70
     0
102
RTVSPropertyOp25
 70
     0
102
RTVSPropertyOp26
 70
     0
102
RTVSPropertyOp27
 70
     0
102
RTVSPropertyOp28
 70
     0
102
RTVSPropertyOp29
 70
     0
102
RTVSPropertyOp30
 70
     0
102
RTVSPropertyOp31
 70
     0
102
RTVSPropertyOp32
 70
     0
102
RTVSPropertyOp33
 70
     0
102
RTVSPropertyOp34
 70
     0
102
RTVSPropertyOp35
 70
     0
102
RTVSPropertyOp36
 70
     0
102
RTVSPropertyOp37
 70
     0
102
RTVSPropertyOp38
 70
     0
102
RTVSPropertyOp39
 70
     0
102
RTVSPropertyOp40
 70
     0
102
RTVSPropertyOp41
 70
     0
102
RTVSPropertyOp42
 70
     0
102
RTVSPropertyOp43
 70
     0
102
RTVSPropertyOp44
 70
     0
102
RTVSPropertyOp45
 70
     0
102
RTVSPropertyOp46
 70
     0
102
RTVSPropertyOp47
 70
     0
102
RTVSPropertyOp48
 70
     0
102
RTVSPropertyOp49
 70
     0
102
RTVSPropertyOp50
 70
     0
102
RTVSPropertyOp51
 70
     0
102
RTVSPropertyOp52
 70
     0
102
RTVSPropertyOp53
 70
     0
102
RTVSPropertyOp54
 70
     0
102
RTVSPropertyOp55
 70
     0
102
RTVSPropertyOp56
 70
     0
102
RTVSPropertyOp57
 70
     0
102
RTVSPropertyOp58
 70
     0
102
RTVSPropertyOp59
 70
     0
102
RTVSPropertyOp60
 70
     0
102
RTVSPropertyOp61
 70
     0
102
RTVSPropertyOp62
 70
     0
  0
XRECORD
  5
2810
102
{ACAD_REACTORS
330
280F
102
}
330
280F
100
AcDbXrecord
280
     1
102
RTVSPost2010Prop28
280
     0
102
RTVSPost2010PropOp28
 70
     1
102
RTVSPost2010Prop29
280
     1
102
RTVSPost2010PropOp29
 70
     1
102
RTVSPost2010Prop30
280
     1
102
RTVSPost2010PropOp30
 70
     1
102
RTVSPost2010Prop31
280
     0
102
RTVSPost2010PropOp31
 70
     1
102
RTVSPost2010Prop32
280
     0
102
RTVSPost2010PropOp32
 70
     1
102
RTVSPost2010Prop33
280
     0
102
RTVSPost2010PropOp33
 70
     1
102
RTVSPost2010Prop34
280
     0
102
RTVSPost2010PropOp34
 70
     1
102
RTVSPost2010Prop35
280
     0
102
RTVSPost2010PropOp35
 70
     1
102
RTVSPost2010Prop36
280
     0
102
RTVSPost2010PropOp36
 70
     1
102
RTVSPost2010Prop37
 90
       50
102
RTVSPost2010PropOp37
 70
     1
102
RTVSPost2010Prop38
140
0.0
102
RTVSPost2010PropOp38
 70
     1
102
RTVSPost2010Prop39
140
1.0
102
RTVSPost2010PropOp39
 70
     1
102
RTVSPost2010Prop40
 90
        0
102
RTVSPost2010PropOp40
 70
     1
102
RTVSPost2010Prop41ColorIndex
 90
       18
102
RTVSPost2010Prop41ColorRGB
 90
        0
102
RTVSPost2010PropOp41
 70
     1
102
RTVSPost2010Prop42
 90
       50
102
RTVSPost2010PropOp42
 70
     1
102
RTVSPost2010Prop43
 90
        3
102
RTVSPost2010PropOp43
 70
     1
102
RTVSPost2010Prop44ColorIndex
 90
        5
102
RTVSPost2010Prop44ColorRGB
 90
      255
102
RTVSPost2010PropOp44
 70
     1
102
RTVSPost2010Prop45
280
     0
102
RTVSPost2010PropOp45
 70
     1
102
RTVSPost2010Prop46
 90
       50
102
RTVSPost2010PropOp46
 70
     1
102
RTVSPost2010Prop47
 90
       50
102
RTVSPost2010PropOp47
 70
     1
102
RTVSPost2010Prop48
 90
       50
102
RTVSPost2010PropOp48
 70
     1
102
RTVSPost2010Prop49
280
     0
102
RTVSPost2010PropOp49
 70
     1
102
RTVSPost2010Prop50
 90
       50
102
RTVSPost2010PropOp50
 70
     1
102
RTVSPost2010Prop51ColorIndex
 90
      256
102
RTVSPost2010Prop51ColorRGB
 90
-16777216
102
RTVSPost2010PropOp51
 70
     0
102
RTVSPost2010Prop52
140
1.0
102
RTVSPost2010PropOp52
 70
     0
102
RTVSPost2010Prop53
 90
        2
102
RTVSPost2010PropOp53
 70
     1
102
RTVSPost2010Prop54
  1
strokes_ogs.tif
102
RTVSPost2010PropOp54
 70
     1
102
RTVSPost2010Prop55
280
     0
102
RTVSPost2010PropOp55
 70
     1
102
RTVSPost2010Prop56
140
1.0
102
RTVSPost2010PropOp56
 70
     1
102
RTVSPost2010Prop57
140
1.0
102
RTVSPost2010PropOp57
 70
     1
102
RTVSPropertyOp0
 70
     1
102
RTVSPropertyOp1
 70
     1
102
RTVSPropertyOp2
 70
     1
102
RTVSPropertyOp3
 70
     1
102
RTVSPropertyOp4
 70
     1
102
RTVSPropertyOp5
 70
     1
102
RTVSPropertyOp6
 70
     1
102
RTVSPropertyOp7
 70
     1
102
RTVSPropertyOp8
 70
     1
102
RTVSPropertyOp9
 70
     1
102
RTVSPropertyOp10
 70
     1
102
RTVSPropertyOp11
 70
     1
102
RTVSPropertyOp12
 70
     1
102
RTVSPropertyOp13
 70
     1
102
RTVSPropertyOp14
 70
     1
102
RTVSPropertyOp15
 70
     1
102
RTVSPropertyOp16
 70
     1
102
RTVSPropertyOp17
 70
     1
102
RTVSPropertyOp18
 70
     1
102
RTVSPropertyOp19
 70
     1
102
RTVSPropertyOp20
 70
     1
102
RTVSPropertyOp21
 70
     1
102
RTVSPropertyOp22
 70
     1
102
RTVSPropertyOp23
 70
     1
102
RTVSPropertyOp24
 70
     1
102
RTVSPropertyOp25
 70
     1
102
RTVSPropertyOp26
 70
     1
102
RTVSPropertyOp27
 70
     1
102
RTVSPropertyOp28
 70
     1
102
RTVSPropertyOp29
 70
     1
102
RTVSPropertyOp30
 70
     1
102
RTVSPropertyOp31
 70
     1
102
RTVSPropertyOp32
 70
     1
102
RTVSPropertyOp33
 70
     1
102
RTVSPropertyOp34
 70
     1
102
RTVSPropertyOp35
 70
     1
102
RTVSPropertyOp36
 70
     1
102
RTVSPropertyOp37
 70
     1
102
RTVSPropertyOp38
 70
     1
102
RTVSPropertyOp39
 70
     1
102
RTVSPropertyOp40
 70
     1
102
RTVSPropertyOp41
 70
     1
102
RTVSPropertyOp42
 70
     1
102
RTVSPropertyOp43
 70
     1
102
RTVSPropertyOp44
 70
     1
102
RTVSPropertyOp45
 70
     1
102
RTVSPropertyOp46
 70
     1
102
RTVSPropertyOp47
 70
     1
102
RTVSPropertyOp48
 70
     1
102
RTVSPropertyOp49
 70
     1
102
RTVSPropertyOp50
 70
     1
102
RTVSPropertyOp51
 70
     0
102
RTVSPropertyOp52
 70
     0
102
RTVSPropertyOp53
 70
     1
102
RTVSPropertyOp54
 70
     1
102
RTVSPropertyOp55
 70
     1
102
RTVSPropertyOp56
 70
     1
102
RTVSPropertyOp57
 70
     1
102
RTVSPropertyOp58
 70
     1
102
RTVSPropertyOp59
 70
     1
102
RTVSPropertyOp60
 70
     1
102
RTVSPropertyOp61
 70
     1
102
RTVSPropertyOp62
 70
     1
  0
XRECORD
  5
2822
102
{ACAD_REACTORS
330
2821
102
}
330
2821
100
AcDbXrecord
280
     1
102
RTVSPost2010Prop28
280
     0
102
RTVSPost2010PropOp28
 70
     0
102
RTVSPost2010Prop29
280
     1
102
RTVSPost2010PropOp29
 70
     0
102
RTVSPost2010Prop30
280
     1
102
RTVSPost2010PropOp30
 70
     0
102
RTVSPost2010Prop31
280
     0
102
RTVSPost2010PropOp31
 70
     0
102
RTVSPost2010Prop32
280
     0
102
RTVSPost2010PropOp32
 70
     0
102
RTVSPost2010Prop33
280
     0
102
RTVSPost2010PropOp33
 70
     0
102
RTVSPost2010Prop34
280
     0
102
RTVSPost2010PropOp34
 70
     0
102
RTVSPost2010Prop35
280
     0
102
RTVSPost2010PropOp35
 70
     0
102
RTVSPost2010Prop36
280
     0
102
RTVSPost2010PropOp36
 70
     0
102
RTVSPost2010Prop37
 90
       50
102
RTVSPost2010PropOp37
 70
     0
102
RTVSPost2010Prop38
140
0.0
102
RTVSPost2010PropOp38
 70
     0
102
RTVSPost2010Prop39
140
1.0
102
RTVSPost2010PropOp39
 70
     0
102
RTVSPost2010Prop40
 90
        0
102
RTVSPost2010PropOp40
 70
     0
102
RTVSPost2010Prop41ColorIndex
 90
       18
102
RTVSPost2010Prop41ColorRGB
 90
        0
102
RTVSPost2010PropOp41
 70
     0
102
RTVSPost2010Prop42
 90
       50
102
RTVSPost2010PropOp42
 70
     0
102
RTVSPost2010Prop43
 90
        3
102
RTVSPost2010PropOp43
 70
     0
102
RTVSPost2010Prop44ColorIndex
 90
        5
102
RTVSPost2010Prop44ColorRGB
 90
      255
102
RTVSPost2010PropOp44
 70
     0
102
RTVSPost2010Prop45
280
     0
102
RTVSPost2010PropOp45
 70
     0
102
RTVSPost2010Prop46
 90
       50
102
RTVSPost2010PropOp46
 70
     0
102
RTVSPost2010Prop47
 90
       50
102
RTVSPost2010PropOp47
 70
     0
102
RTVSPost2010Prop48
 90
       50
102
RTVSPost2010PropOp48
 70
     0
102
RTVSPost2010Prop49
280
     0
102
RTVSPost2010PropOp49
 70
     0
102
RTVSPost2010Prop50
 90
       50
102
RTVSPost2010PropOp50
 70
     0
102
RTVSPost2010Prop51ColorIndex
 90
      256
102
RTVSPost2010Prop51ColorRGB
 90
-16777216
102
RTVSPost2010PropOp51
 70
     0
102
RTVSPost2010Prop52
140
1.0
102
RTVSPost2010PropOp52
 70
     0
102
RTVSPost2010Prop53
 90
        2
102
RTVSPost2010PropOp53
 70
     0
102
RTVSPost2010Prop54
  1
strokes_ogs.tif
102
RTVSPost2010PropOp54
 70
     0
102
RTVSPost2010Prop55
280
     0
102
RTVSPost2010PropOp55
 70
     0
102
RTVSPost2010Prop56
140
1.0
102
RTVSPost2010PropOp56
 70
     0
102
RTVSPost2010Prop57
140
1.0
102
RTVSPost2010PropOp57
 70
     0
102
RTVSPropertyOp0
 70
     0
102
RTVSPropertyOp1
 70
     0
102
RTVSPropertyOp2
 70
     0
102
RTVSPropertyOp3
 70
     0
102
RTVSPropertyOp4
 70
     0
102
RTVSPropertyOp5
 70
     0
102
RTVSPropertyOp6
 70
     0
102
RTVSPropertyOp7
 70
     0
102
RTVSPropertyOp8
 70
     0
102
RTVSPropertyOp9
 70
     0
102
RTVSPropertyOp10
 70
     0
102
RTVSPropertyOp11
 70
     0
102
RTVSPropertyOp12
 70
     0
102
RTVSPropertyOp13
 70
     0
102
RTVSPropertyOp14
 70
     2
102
RTVSPropertyOp15
 70
     0
102
RTVSPropertyOp16
 70
     0
102
RTVSPropertyOp17
 70
     0
102
RTVSPropertyOp18
 70
     0
102
RTVSPropertyOp19
 70
     0
102
RTVSPropertyOp20
 70
     0
102
RTVSPropertyOp21
 70
     0
102
RTVSPropertyOp22
 70
     0
102
RTVSPropertyOp23
 70
     0
102
RTVSPropertyOp24
 70
     0
102
RTVSPropertyOp25
 70
     0
102
RTVSPropertyOp26
 70
     0
102
RTVSPropertyOp27
 70
     0
102
RTVSPropertyOp28
 70
     0
102
RTVSPropertyOp29
 70
     0
102
RTVSPropertyOp30
 70
     0
102
RTVSPropertyOp31
 70
     0
102
RTVSPropertyOp32
 70
     0
102
RTVSPropertyOp33
 70
     0
102
RTVSPropertyOp34
 70
     0
102
RTVSPropertyOp35
 70
     0
102
RTVSPropertyOp36
 70
     0
102
RTVSPropertyOp37
 70
     0
102
RTVSPropertyOp38
 70
     0
102
RTVSPropertyOp39
 70
     0
102
RTVSPropertyOp40
 70
     0
102
RTVSPropertyOp41
 70
     0
102
RTVSPropertyOp42
 70
     0
102
RTVSPropertyOp43
 70
     0
102
RTVSPropertyOp44
 70
     0
102
RTVSPropertyOp45
 70
     0
102
RTVSPropertyOp46
 70
     0
102
RTVSPropertyOp47
 70
     0
102
RTVSPropertyOp48
 70
     0
102
RTVSPropertyOp49
 70
     0
102
RTVSPropertyOp50
 70
     0
102
RTVSPropertyOp51
 70
     0
102
RTVSPropertyOp52
 70
     0
102
RTVSPropertyOp53
 70
     0
102
RTVSPropertyOp54
 70
     0
102
RTVSPropertyOp55
 70
     0
102
RTVSPropertyOp56
 70
     0
102
RTVSPropertyOp57
 70
     0
102
RTVSPropertyOp58
 70
     0
102
RTVSPropertyOp59
 70
     0
102
RTVSPropertyOp60
 70
     0
102
RTVSPropertyOp61
 70
     0
102
RTVSPropertyOp62
 70
     0
  0
XRECORD
  5
2808
102
{ACAD_REACTORS
330
2807
102
}
330
2807
100
AcDbXrecord
280
     1
102
RTVSPost2010Prop28
280
     0
102
RTVSPost2010PropOp28
 70
     1
102
RTVSPost2010Prop29
280
     1
102
RTVSPost2010PropOp29
 70
     1
102
RTVSPost2010Prop30
280
     1
102
RTVSPost2010PropOp30
 70
     1
102
RTVSPost2010Prop31
280
     0
102
RTVSPost2010PropOp31
 70
     1
102
RTVSPost2010Prop32
280
     0
102
RTVSPost2010PropOp32
 70
     1
102
RTVSPost2010Prop33
280
     0
102
RTVSPost2010PropOp33
 70
     1
102
RTVSPost2010Prop34
280
     0
102
RTVSPost2010PropOp34
 70
     1
102
RTVSPost2010Prop35
280
     0
102
RTVSPost2010PropOp35
 70
     1
102
RTVSPost2010Prop36
280
     0
102
RTVSPost2010PropOp36
 70
     1
102
RTVSPost2010Prop37
 90
       50
102
RTVSPost2010PropOp37
 70
     1
102
RTVSPost2010Prop38
140
0.0
102
RTVSPost2010PropOp38
 70
     1
102
RTVSPost2010Prop39
140
1.0
102
RTVSPost2010PropOp39
 70
     1
102
RTVSPost2010Prop40
 90
        0
102
RTVSPost2010PropOp40
 70
     1
102
RTVSPost2010Prop41ColorIndex
 90
       18
102
RTVSPost2010Prop41ColorRGB
 90
        0
102
RTVSPost2010PropOp41
 70
     1
102
RTVSPost2010Prop42
 90
       50
102
RTVSPost2010PropOp42
 70
     1
102
RTVSPost2010Prop43
 90
        3
102
RTVSPost2010PropOp43
 70
     1
102
RTVSPost2010Prop44ColorIndex
 90
        5
102
RTVSPost2010Prop44ColorRGB
 90
      255
102
RTVSPost2010PropOp44
 70
     1
102
RTVSPost2010Prop45
280
     0
102
RTVSPost2010PropOp45
 70
     1
102
RTVSPost2010Prop46
 90
       50
102
RTVSPost2010PropOp46
 70
     1
102
RTVSPost2010Prop47
 90
       50
102
RTVSPost2010PropOp47
 70
     1
102
RTVSPost2010Prop48
 90
       50
102
RTVSPost2010PropOp48
 70
     1
102
RTVSPost2010Prop49
280
     0
102
RTVSPost2010PropOp49
 70
     1
102
RTVSPost2010Prop50
 90
       50
102
RTVSPost2010PropOp50
 70
     1
102
RTVSPost2010Prop51ColorIndex
 90
      256
102
RTVSPost2010Prop51ColorRGB
 90
-16777216
102
RTVSPost2010PropOp51
 70
     0
102
RTVSPost2010Prop52
140
1.0
102
RTVSPost2010PropOp52
 70
     0
102
RTVSPost2010Prop53
 90
        2
102
RTVSPost2010PropOp53
 70
     1
102
RTVSPost2010Prop54
  1
strokes_ogs.tif
102
RTVSPost2010PropOp54
 70
     1
102
RTVSPost2010Prop55
280
     0
102
RTVSPost2010PropOp55
 70
     1
102
RTVSPost2010Prop56
140
1.0
102
RTVSPost2010PropOp56
 70
     1
102
RTVSPost2010Prop57
140
1.0
102
RTVSPost2010PropOp57
 70
     1
102
RTVSPropertyOp0
 70
     1
102
RTVSPropertyOp1
 70
     1
102
RTVSPropertyOp2
 70
     1
102
RTVSPropertyOp3
 70
     1
102
RTVSPropertyOp4
 70
     1
102
RTVSPropertyOp5
 70
     1
102
RTVSPropertyOp6
 70
     1
102
RTVSPropertyOp7
 70
     1
102
RTVSPropertyOp8
 70
     1
102
RTVSPropertyOp9
 70
     1
102
RTVSPropertyOp10
 70
     1
102
RTVSPropertyOp11
 70
     1
102
RTVSPropertyOp12
 70
     1
102
RTVSPropertyOp13
 70
     1
102
RTVSPropertyOp14
 70
     1
102
RTVSPropertyOp15
 70
     1
102
RTVSPropertyOp16
 70
     1
102
RTVSPropertyOp17
 70
     1
102
RTVSPropertyOp18
 70
     1
102
RTVSPropertyOp19
 70
     1
102
RTVSPropertyOp20
 70
     1
102
RTVSPropertyOp21
 70
     1
102
RTVSPropertyOp22
 70
     1
102
RTVSPropertyOp23
 70
     1
102
RTVSPropertyOp24
 70
     1
102
RTVSPropertyOp25
 70
     1
102
RTVSPropertyOp26
 70
     1
102
RTVSPropertyOp27
 70
     1
102
RTVSPropertyOp28
 70
     1
102
RTVSPropertyOp29
 70
     1
102
RTVSPropertyOp30
 70
     1
102
RTVSPropertyOp31
 70
     1
102
RTVSPropertyOp32
 70
     1
102
RTVSPropertyOp33
 70
     1
102
RTVSPropertyOp34
 70
     1
102
RTVSPropertyOp35
 70
     1
102
RTVSPropertyOp36
 70
     1
102
RTVSPropertyOp37
 70
     1
102
RTVSPropertyOp38
 70
     1
102
RTVSPropertyOp39
 70
     1
102
RTVSPropertyOp40
 70
     1
102
RTVSPropertyOp41
 70
     1
102
RTVSPropertyOp42
 70
     1
102
RTVSPropertyOp43
 70
     1
102
RTVSPropertyOp44
 70
     1
102
RTVSPropertyOp45
 70
     1
102
RTVSPropertyOp46
 70
     1
102
RTVSPropertyOp47
 70
     1
102
RTVSPropertyOp48
 70
     1
102
RTVSPropertyOp49
 70
     1
102
RTVSPropertyOp50
 70
     1
102
RTVSPropertyOp51
 70
     0
102
RTVSPropertyOp52
 70
     0
102
RTVSPropertyOp53
 70
     1
102
RTVSPropertyOp54
 70
     1
102
RTVSPropertyOp55
 70
     1
102
RTVSPropertyOp56
 70
     1
102
RTVSPropertyOp57
 70
     1
102
RTVSPropertyOp58
 70
     1
102
RTVSPropertyOp59
 70
     1
102
RTVSPropertyOp60
 70
     1
102
RTVSPropertyOp61
 70
     1
102
RTVSPropertyOp62
 70
     1
  0
XRECORD
  5
281E
102
{ACAD_REACTORS
330
281D
102
}
330
281D
100
AcDbXrecord
280
     1
102
RTVSPost2010Prop28
280
     0
102
RTVSPost2010PropOp28
 70
     1
102
RTVSPost2010Prop29
280
     1
102
RTVSPost2010PropOp29
 70
     1
102
RTVSPost2010Prop30
280
     1
102
RTVSPost2010PropOp30
 70
     1
102
RTVSPost2010Prop31
280
     0
102
RTVSPost2010PropOp31
 70
     1
102
RTVSPost2010Prop32
280
     0
102
RTVSPost2010PropOp32
 70
     1
102
RTVSPost2010Prop33
280
     0
102
RTVSPost2010PropOp33
 70
     1
102
RTVSPost2010Prop34
280
     0
102
RTVSPost2010PropOp34
 70
     1
102
RTVSPost2010Prop35
280
     0
102
RTVSPost2010PropOp35
 70
     1
102
RTVSPost2010Prop36
280
     0
102
RTVSPost2010PropOp36
 70
     1
102
RTVSPost2010Prop37
 90
       50
102
RTVSPost2010PropOp37
 70
     1
102
RTVSPost2010Prop38
140
0.0
102
RTVSPost2010PropOp38
 70
     1
102
RTVSPost2010Prop39
140
1.0
102
RTVSPost2010PropOp39
 70
     1
102
RTVSPost2010Prop40
 90
        0
102
RTVSPost2010PropOp40
 70
     1
102
RTVSPost2010Prop41ColorIndex
 90
       18
102
RTVSPost2010Prop41ColorRGB
 90
        0
102
RTVSPost2010PropOp41
 70
     1
102
RTVSPost2010Prop42
 90
       50
102
RTVSPost2010PropOp42
 70
     1
102
RTVSPost2010Prop43
 90
        3
102
RTVSPost2010PropOp43
 70
     1
102
RTVSPost2010Prop44ColorIndex
 90
        5
102
RTVSPost2010Prop44ColorRGB
 90
      255
102
RTVSPost2010PropOp44
 70
     1
102
RTVSPost2010Prop45
280
     0
102
RTVSPost2010PropOp45
 70
     1
102
RTVSPost2010Prop46
 90
       50
102
RTVSPost2010PropOp46
 70
     1
102
RTVSPost2010Prop47
 90
       50
102
RTVSPost2010PropOp47
 70
     1
102
RTVSPost2010Prop48
 90
       50
102
RTVSPost2010PropOp48
 70
     1
102
RTVSPost2010Prop49
280
     0
102
RTVSPost2010PropOp49
 70
     1
102
RTVSPost2010Prop50
 90
       50
102
RTVSPost2010PropOp50
 70
     1
102
RTVSPost2010Prop51ColorIndex
 90
      256
102
RTVSPost2010Prop51ColorRGB
 90
-16777216
102
RTVSPost2010PropOp51
 70
     0
102
RTVSPost2010Prop52
140
1.0
102
RTVSPost2010PropOp52
 70
     0
102
RTVSPost2010Prop53
 90
        2
102
RTVSPost2010PropOp53
 70
     1
102
RTVSPost2010Prop54
  1
strokes_ogs.tif
102
RTVSPost2010PropOp54
 70
     1
102
RTVSPost2010Prop55
280
     0
102
RTVSPost2010PropOp55
 70
     1
102
RTVSPost2010Prop56
140
1.0
102
RTVSPost2010PropOp56
 70
     1
102
RTVSPost2010Prop57
140
1.0
102
RTVSPost2010PropOp57
 70
     1
102
RTVSPropertyOp0
 70
     1
102
RTVSPropertyOp1
 70
     1
102
RTVSPropertyOp2
 70
     1
102
RTVSPropertyOp3
 70
     1
102
RTVSPropertyOp4
 70
     1
102
RTVSPropertyOp5
 70
     1
102
RTVSPropertyOp6
 70
     1
102
RTVSPropertyOp7
 70
     1
102
RTVSPropertyOp8
 70
     1
102
RTVSPropertyOp9
 70
     1
102
RTVSPropertyOp10
 70
     1
102
RTVSPropertyOp11
 70
     1
102
RTVSPropertyOp12
 70
     1
102
RTVSPropertyOp13
 70
     1
102
RTVSPropertyOp14
 70
     1
102
RTVSPropertyOp15
 70
     1
102
RTVSPropertyOp16
 70
     1
102
RTVSPropertyOp17
 70
     1
102
RTVSPropertyOp18
 70
     1
102
RTVSPropertyOp19
 70
     1
102
RTVSPropertyOp20
 70
     1
102
RTVSPropertyOp21
 70
     1
102
RTVSPropertyOp22
 70
     1
102
RTVSPropertyOp23
 70
     1
102
RTVSPropertyOp24
 70
     1
102
RTVSPropertyOp25
 70
     1
102
RTVSPropertyOp26
 70
     1
102
RTVSPropertyOp27
 70
     1
102
RTVSPropertyOp28
 70
     1
102
RTVSPropertyOp29
 70
     1
102
RTVSPropertyOp30
 70
     1
102
RTVSPropertyOp31
 70
     1
102
RTVSPropertyOp32
 70
     1
102
RTVSPropertyOp33
 70
     1
102
RTVSPropertyOp34
 70
     1
102
RTVSPropertyOp35
 70
     1
102
RTVSPropertyOp36
 70
     1
102
RTVSPropertyOp37
 70
     1
102
RTVSPropertyOp38
 70
     1
102
RTVSPropertyOp39
 70
     1
102
RTVSPropertyOp40
 70
     1
102
RTVSPropertyOp41
 70
     1
102
RTVSPropertyOp42
 70
     1
102
RTVSPropertyOp43
 70
     1
102
RTVSPropertyOp44
 70
     1
102
RTVSPropertyOp45
 70
     1
102
RTVSPropertyOp46
 70
     1
102
RTVSPropertyOp47
 70
     1
102
RTVSPropertyOp48
 70
     1
102
RTVSPropertyOp49
 70
     1
102
RTVSPropertyOp50
 70
     1
102
RTVSPropertyOp51
 70
     0
102
RTVSPropertyOp52
 70
     0
102
RTVSPropertyOp53
 70
     1
102
RTVSPropertyOp54
 70
     1
102
RTVSPropertyOp55
 70
     1
102
RTVSPropertyOp56
 70
     1
102
RTVSPropertyOp57
 70
     1
102
RTVSPropertyOp58
 70
     1
102
RTVSPropertyOp59
 70
     1
102
RTVSPropertyOp60
 70
     1
102
RTVSPropertyOp61
 70
     1
102
RTVSPropertyOp62
 70
     1
  0
XRECORD
  5
281C
102
{ACAD_REACTORS
330
281B
102
}
330
281B
100
AcDbXrecord
280
     1
102
RTVSPost2010Prop28
280
     0
102
RTVSPost2010PropOp28
 70
     1
102
RTVSPost2010Prop29
280
     1
102
RTVSPost2010PropOp29
 70
     1
102
RTVSPost2010Prop30
280
     1
102
RTVSPost2010PropOp30
 70
     1
102
RTVSPost2010Prop31
280
     0
102
RTVSPost2010PropOp31
 70
     1
102
RTVSPost2010Prop32
280
     0
102
RTVSPost2010PropOp32
 70
     1
102
RTVSPost2010Prop33
280
     0
102
RTVSPost2010PropOp33
 70
     1
102
RTVSPost2010Prop34
280
     0
102
RTVSPost2010PropOp34
 70
     1
102
RTVSPost2010Prop35
280
     0
102
RTVSPost2010PropOp35
 70
     1
102
RTVSPost2010Prop36
280
     0
102
RTVSPost2010PropOp36
 70
     1
102
RTVSPost2010Prop37
 90
       50
102
RTVSPost2010PropOp37
 70
     1
102
RTVSPost2010Prop38
140
0.0
102
RTVSPost2010PropOp38
 70
     1
102
RTVSPost2010Prop39
140
1.0
102
RTVSPost2010PropOp39
 70
     1
102
RTVSPost2010Prop40
 90
        0
102
RTVSPost2010PropOp40
 70
     1
102
RTVSPost2010Prop41ColorIndex
 90
       18
102
RTVSPost2010Prop41ColorRGB
 90
        0
102
RTVSPost2010PropOp41
 70
     1
102
RTVSPost2010Prop42
 90
       50
102
RTVSPost2010PropOp42
 70
     1
102
RTVSPost2010Prop43
 90
        3
102
RTVSPost2010PropOp43
 70
     1
102
RTVSPost2010Prop44ColorIndex
 90
        5
102
RTVSPost2010Prop44ColorRGB
 90
      255
102
RTVSPost2010PropOp44
 70
     1
102
RTVSPost2010Prop45
280
     0
102
RTVSPost2010PropOp45
 70
     1
102
RTVSPost2010Prop46
 90
       50
102
RTVSPost2010PropOp46
 70
     1
102
RTVSPost2010Prop47
 90
       50
102
RTVSPost2010PropOp47
 70
     1
102
RTVSPost2010Prop48
 90
       50
102
RTVSPost2010PropOp48
 70
     1
102
RTVSPost2010Prop49
280
     0
102
RTVSPost2010PropOp49
 70
     1
102
RTVSPost2010Prop50
 90
       50
102
RTVSPost2010PropOp50
 70
     1
102
RTVSPost2010Prop51ColorIndex
 90
      256
102
RTVSPost2010Prop51ColorRGB
 90
-16777216
102
RTVSPost2010PropOp51
 70
     0
102
RTVSPost2010Prop52
140
1.0
102
RTVSPost2010PropOp52
 70
     0
102
RTVSPost2010Prop53
 90
        2
102
RTVSPost2010PropOp53
 70
     1
102
RTVSPost2010Prop54
  1
strokes_ogs.tif
102
RTVSPost2010PropOp54
 70
     1
102
RTVSPost2010Prop55
280
     0
102
RTVSPost2010PropOp55
 70
     1
102
RTVSPost2010Prop56
140
1.0
102
RTVSPost2010PropOp56
 70
     1
102
RTVSPost2010Prop57
140
1.0
102
RTVSPost2010PropOp57
 70
     1
102
RTVSPropertyOp0
 70
     1
102
RTVSPropertyOp1
 70
     1
102
RTVSPropertyOp2
 70
     1
102
RTVSPropertyOp3
 70
     1
102
RTVSPropertyOp4
 70
     1
102
RTVSPropertyOp5
 70
     1
102
RTVSPropertyOp6
 70
     1
102
RTVSPropertyOp7
 70
     1
102
RTVSPropertyOp8
 70
     1
102
RTVSPropertyOp9
 70
     1
102
RTVSPropertyOp10
 70
     1
102
RTVSPropertyOp11
 70
     1
102
RTVSPropertyOp12
 70
     1
102
RTVSPropertyOp13
 70
     1
102
RTVSPropertyOp14
 70
     1
102
RTVSPropertyOp15
 70
     1
102
RTVSPropertyOp16
 70
     1
102
RTVSPropertyOp17
 70
     1
102
RTVSPropertyOp18
 70
     1
102
RTVSPropertyOp19
 70
     1
102
RTVSPropertyOp20
 70
     1
102
RTVSPropertyOp21
 70
     1
102
RTVSPropertyOp22
 70
     1
102
RTVSPropertyOp23
 70
     1
102
RTVSPropertyOp24
 70
     1
102
RTVSPropertyOp25
 70
     1
102
RTVSPropertyOp26
 70
     1
102
RTVSPropertyOp27
 70
     1
102
RTVSPropertyOp28
 70
     1
102
RTVSPropertyOp29
 70
     1
102
RTVSPropertyOp30
 70
     1
102
RTVSPropertyOp31
 70
     1
102
RTVSPropertyOp32
 70
     1
102
RTVSPropertyOp33
 70
     1
102
RTVSPropertyOp34
 70
     1
102
RTVSPropertyOp35
 70
     1
102
RTVSPropertyOp36
 70
     1
102
RTVSPropertyOp37
 70
     1
102
RTVSPropertyOp38
 70
     1
102
RTVSPropertyOp39
 70
     1
102
RTVSPropertyOp40
 70
     1
102
RTVSPropertyOp41
 70
     1
102
RTVSPropertyOp42
 70
     1
102
RTVSPropertyOp43
 70
     1
102
RTVSPropertyOp44
 70
     1
102
RTVSPropertyOp45
 70
     1
102
RTVSPropertyOp46
 70
     1
102
RTVSPropertyOp47
 70
     1
102
RTVSPropertyOp48
 70
     1
102
RTVSPropertyOp49
 70
     1
102
RTVSPropertyOp50
 70
     1
102
RTVSPropertyOp51
 70
     0
102
RTVSPropertyOp52
 70
     0
102
RTVSPropertyOp53
 70
     1
102
RTVSPropertyOp54
 70
     1
102
RTVSPropertyOp55
 70
     1
102
RTVSPropertyOp56
 70
     1
102
RTVSPropertyOp57
 70
     1
102
RTVSPropertyOp58
 70
     1
102
RTVSPropertyOp59
 70
     1
102
RTVSPropertyOp60
 70
     1
102
RTVSPropertyOp61
 70
     1
102
RTVSPropertyOp62
 70
     1
  0
XRECORD
  5
2816
102
{ACAD_REACTORS
330
2815
102
}
330
2815
100
AcDbXrecord
280
     1
102
RTVSPost2010Prop28
280
     0
102
RTVSPost2010PropOp28
 70
     1
102
RTVSPost2010Prop29
280
     1
102
RTVSPost2010PropOp29
 70
     1
102
RTVSPost2010Prop30
280
     1
102
RTVSPost2010PropOp30
 70
     1
102
RTVSPost2010Prop31
280
     0
102
RTVSPost2010PropOp31
 70
     1
102
RTVSPost2010Prop32
280
     0
102
RTVSPost2010PropOp32
 70
     1
102
RTVSPost2010Prop33
280
     0
102
RTVSPost2010PropOp33
 70
     1
102
RTVSPost2010Prop34
280
     0
102
RTVSPost2010PropOp34
 70
     1
102
RTVSPost2010Prop35
280
     0
102
RTVSPost2010PropOp35
 70
     1
102
RTVSPost2010Prop36
280
     0
102
RTVSPost2010PropOp36
 70
     1
102
RTVSPost2010Prop37
 90
       50
102
RTVSPost2010PropOp37
 70
     1
102
RTVSPost2010Prop38
140
0.0
102
RTVSPost2010PropOp38
 70
     1
102
RTVSPost2010Prop39
140
1.0
102
RTVSPost2010PropOp39
 70
     1
102
RTVSPost2010Prop40
 90
        0
102
RTVSPost2010PropOp40
 70
     1
102
RTVSPost2010Prop41ColorIndex
 90
       18
102
RTVSPost2010Prop41ColorRGB
 90
        0
102
RTVSPost2010PropOp41
 70
     1
102
RTVSPost2010Prop42
 90
       50
102
RTVSPost2010PropOp42
 70
     1
102
RTVSPost2010Prop43
 90
        3
102
RTVSPost2010PropOp43
 70
     1
102
RTVSPost2010Prop44ColorIndex
 90
        5
102
RTVSPost2010Prop44ColorRGB
 90
      255
102
RTVSPost2010PropOp44
 70
     1
102
RTVSPost2010Prop45
280
     0
102
RTVSPost2010PropOp45
 70
     1
102
RTVSPost2010Prop46
 90
       50
102
RTVSPost2010PropOp46
 70
     1
102
RTVSPost2010Prop47
 90
       50
102
RTVSPost2010PropOp47
 70
     1
102
RTVSPost2010Prop48
 90
       50
102
RTVSPost2010PropOp48
 70
     1
102
RTVSPost2010Prop49
280
     0
102
RTVSPost2010PropOp49
 70
     1
102
RTVSPost2010Prop50
 90
       50
102
RTVSPost2010PropOp50
 70
     1
102
RTVSPost2010Prop51ColorIndex
 90
      256
102
RTVSPost2010Prop51ColorRGB
 90
-16777216
102
RTVSPost2010PropOp51
 70
     0
102
RTVSPost2010Prop52
140
1.0
102
RTVSPost2010PropOp52
 70
     0
102
RTVSPost2010Prop53
 90
        2
102
RTVSPost2010PropOp53
 70
     1
102
RTVSPost2010Prop54
  1
strokes_ogs.tif
102
RTVSPost2010PropOp54
 70
     1
102
RTVSPost2010Prop55
280
     0
102
RTVSPost2010PropOp55
 70
     1
102
RTVSPost2010Prop56
140
1.0
102
RTVSPost2010PropOp56
 70
     1
102
RTVSPost2010Prop57
140
1.0
102
RTVSPost2010PropOp57
 70
     1
102
RTVSPropertyOp0
 70
     1
102
RTVSPropertyOp1
 70
     1
102
RTVSPropertyOp2
 70
     1
102
RTVSPropertyOp3
 70
     1
102
RTVSPropertyOp4
 70
     1
102
RTVSPropertyOp5
 70
     1
102
RTVSPropertyOp6
 70
     1
102
RTVSPropertyOp7
 70
     1
102
RTVSPropertyOp8
 70
     1
102
RTVSPropertyOp9
 70
     1
102
RTVSPropertyOp10
 70
     1
102
RTVSPropertyOp11
 70
     1
102
RTVSPropertyOp12
 70
     1
102
RTVSPropertyOp13
 70
     1
102
RTVSPropertyOp14
 70
     1
102
RTVSPropertyOp15
 70
     1
102
RTVSPropertyOp16
 70
     1
102
RTVSPropertyOp17
 70
     1
102
RTVSPropertyOp18
 70
     1
102
RTVSPropertyOp19
 70
     1
102
RTVSPropertyOp20
 70
     1
102
RTVSPropertyOp21
 70
     1
102
RTVSPropertyOp22
 70
     1
102
RTVSPropertyOp23
 70
     1
102
RTVSPropertyOp24
 70
     1
102
RTVSPropertyOp25
 70
     1
102
RTVSPropertyOp26
 70
     1
102
RTVSPropertyOp27
 70
     1
102
RTVSPropertyOp28
 70
     1
102
RTVSPropertyOp29
 70
     1
102
RTVSPropertyOp30
 70
     1
102
RTVSPropertyOp31
 70
     1
102
RTVSPropertyOp32
 70
     1
102
RTVSPropertyOp33
 70
     1
102
RTVSPropertyOp34
 70
     1
102
RTVSPropertyOp35
 70
     1
102
RTVSPropertyOp36
 70
     1
102
RTVSPropertyOp37
 70
     1
102
RTVSPropertyOp38
 70
     1
102
RTVSPropertyOp39
 70
     1
102
RTVSPropertyOp40
 70
     1
102
RTVSPropertyOp41
 70
     1
102
RTVSPropertyOp42
 70
     1
102
RTVSPropertyOp43
 70
     1
102
RTVSPropertyOp44
 70
     1
102
RTVSPropertyOp45
 70
     1
102
RTVSPropertyOp46
 70
     1
102
RTVSPropertyOp47
 70
     1
102
RTVSPropertyOp48
 70
     1
102
RTVSPropertyOp49
 70
     1
102
RTVSPropertyOp50
 70
     1
102
RTVSPropertyOp51
 70
     0
102
RTVSPropertyOp52
 70
     0
102
RTVSPropertyOp53
 70
     1
102
RTVSPropertyOp54
 70
     1
102
RTVSPropertyOp55
 70
     1
102
RTVSPropertyOp56
 70
     1
102
RTVSPropertyOp57
 70
     1
102
RTVSPropertyOp58
 70
     1
102
RTVSPropertyOp59
 70
     1
102
RTVSPropertyOp60
 70
     1
102
RTVSPropertyOp61
 70
     1
102
RTVSPropertyOp62
 70
     1
  0
XRECORD
  5
2818
102
{ACAD_REACTORS
330
2817
102
}
330
2817
100
AcDbXrecord
280
     1
102
RTVSPost2010Prop28
280
     0
102
RTVSPost2010PropOp28
 70
     1
102
RTVSPost2010Prop29
280
     1
102
RTVSPost2010PropOp29
 70
     1
102
RTVSPost2010Prop30
280
     1
102
RTVSPost2010PropOp30
 70
     1
102
RTVSPost2010Prop31
280
     0
102
RTVSPost2010PropOp31
 70
     1
102
RTVSPost2010Prop32
280
     0
102
RTVSPost2010PropOp32
 70
     1
102
RTVSPost2010Prop33
280
     0
102
RTVSPost2010PropOp33
 70
     1
102
RTVSPost2010Prop34
280
     0
102
RTVSPost2010PropOp34
 70
     1
102
RTVSPost2010Prop35
280
     0
102
RTVSPost2010PropOp35
 70
     1
102
RTVSPost2010Prop36
280
     0
102
RTVSPost2010PropOp36
 70
     1
102
RTVSPost2010Prop37
 90
       50
102
RTVSPost2010PropOp37
 70
     1
102
RTVSPost2010Prop38
140
0.0
102
RTVSPost2010PropOp38
 70
     1
102
RTVSPost2010Prop39
140
1.0
102
RTVSPost2010PropOp39
 70
     1
102
RTVSPost2010Prop40
 90
        0
102
RTVSPost2010PropOp40
 70
     1
102
RTVSPost2010Prop41ColorIndex
 90
       18
102
RTVSPost2010Prop41ColorRGB
 90
        0
102
RTVSPost2010PropOp41
 70
     1
102
RTVSPost2010Prop42
 90
       50
102
RTVSPost2010PropOp42
 70
     1
102
RTVSPost2010Prop43
 90
        3
102
RTVSPost2010PropOp43
 70
     1
102
RTVSPost2010Prop44ColorIndex
 90
        5
102
RTVSPost2010Prop44ColorRGB
 90
      255
102
RTVSPost2010PropOp44
 70
     1
102
RTVSPost2010Prop45
280
     0
102
RTVSPost2010PropOp45
 70
     1
102
RTVSPost2010Prop46
 90
       50
102
RTVSPost2010PropOp46
 70
     1
102
RTVSPost2010Prop47
 90
       50
102
RTVSPost2010PropOp47
 70
     1
102
RTVSPost2010Prop48
 90
       50
102
RTVSPost2010PropOp48
 70
     1
102
RTVSPost2010Prop49
280
     0
102
RTVSPost2010PropOp49
 70
     1
102
RTVSPost2010Prop50
 90
       50
102
RTVSPost2010PropOp50
 70
     1
102
RTVSPost2010Prop51ColorIndex
 90
      256
102
RTVSPost2010Prop51ColorRGB
 90
-16777216
102
RTVSPost2010PropOp51
 70
     0
102
RTVSPost2010Prop52
140
1.0
102
RTVSPost2010PropOp52
 70
     0
102
RTVSPost2010Prop53
 90
        2
102
RTVSPost2010PropOp53
 70
     1
102
RTVSPost2010Prop54
  1
strokes_ogs.tif
102
RTVSPost2010PropOp54
 70
     1
102
RTVSPost2010Prop55
280
     0
102
RTVSPost2010PropOp55
 70
     1
102
RTVSPost2010Prop56
140
1.0
102
RTVSPost2010PropOp56
 70
     1
102
RTVSPost2010Prop57
140
1.0
102
RTVSPost2010PropOp57
 70
     1
102
RTVSPropertyOp0
 70
     1
102
RTVSPropertyOp1
 70
     1
102
RTVSPropertyOp2
 70
     1
102
RTVSPropertyOp3
 70
     1
102
RTVSPropertyOp4
 70
     1
102
RTVSPropertyOp5
 70
     1
102
RTVSPropertyOp6
 70
     1
102
RTVSPropertyOp7
 70
     1
102
RTVSPropertyOp8
 70
     1
102
RTVSPropertyOp9
 70
     1
102
RTVSPropertyOp10
 70
     1
102
RTVSPropertyOp11
 70
     1
102
RTVSPropertyOp12
 70
     1
102
RTVSPropertyOp13
 70
     1
102
RTVSPropertyOp14
 70
     1
102
RTVSPropertyOp15
 70
     1
102
RTVSPropertyOp16
 70
     1
102
RTVSPropertyOp17
 70
     1
102
RTVSPropertyOp18
 70
     1
102
RTVSPropertyOp19
 70
     1
102
RTVSPropertyOp20
 70
     1
102
RTVSPropertyOp21
 70
     1
102
RTVSPropertyOp22
 70
     1
102
RTVSPropertyOp23
 70
     1
102
RTVSPropertyOp24
 70
     1
102
RTVSPropertyOp25
 70
     1
102
RTVSPropertyOp26
 70
     1
102
RTVSPropertyOp27
 70
     1
102
RTVSPropertyOp28
 70
     1
102
RTVSPropertyOp29
 70
     1
102
RTVSPropertyOp30
 70
     1
102
RTVSPropertyOp31
 70
     1
102
RTVSPropertyOp32
 70
     1
102
RTVSPropertyOp33
 70
     1
102
RTVSPropertyOp34
 70
     1
102
RTVSPropertyOp35
 70
     1
102
RTVSPropertyOp36
 70
     1
102
RTVSPropertyOp37
 70
     1
102
RTVSPropertyOp38
 70
     1
102
RTVSPropertyOp39
 70
     1
102
RTVSPropertyOp40
 70
     1
102
RTVSPropertyOp41
 70
     1
102
RTVSPropertyOp42
 70
     1
102
RTVSPropertyOp43
 70
     1
102
RTVSPropertyOp44
 70
     1
102
RTVSPropertyOp45
 70
     1
102
RTVSPropertyOp46
 70
     1
102
RTVSPropertyOp47
 70
     1
102
RTVSPropertyOp48
 70
     1
102
RTVSPropertyOp49
 70
     1
102
RTVSPropertyOp50
 70
     1
102
RTVSPropertyOp51
 70
     0
102
RTVSPropertyOp52
 70
     0
102
RTVSPropertyOp53
 70
     1
102
RTVSPropertyOp54
 70
     1
102
RTVSPropertyOp55
 70
     1
102
RTVSPropertyOp56
 70
     1
102
RTVSPropertyOp57
 70
     1
102
RTVSPropertyOp58
 70
     1
102
RTVSPropertyOp59
 70
     1
102
RTVSPropertyOp60
 70
     1
102
RTVSPropertyOp61
 70
     1
102
RTVSPropertyOp62
 70
     1
  0
XRECORD
  5
280E
102
{ACAD_REACTORS
330
280D
102
}
330
280D
100
AcDbXrecord
280
     1
102
RTVSPost2010Prop28
280
     0
102
RTVSPost2010PropOp28
 70
     1
102
RTVSPost2010Prop29
280
     1
102
RTVSPost2010PropOp29
 70
     1
102
RTVSPost2010Prop30
280
     1
102
RTVSPost2010PropOp30
 70
     1
102
RTVSPost2010Prop31
280
     0
102
RTVSPost2010PropOp31
 70
     1
102
RTVSPost2010Prop32
280
     0
102
RTVSPost2010PropOp32
 70
     1
102
RTVSPost2010Prop33
280
     0
102
RTVSPost2010PropOp33
 70
     1
102
RTVSPost2010Prop34
280
     0
102
RTVSPost2010PropOp34
 70
     1
102
RTVSPost2010Prop35
280
     0
102
RTVSPost2010PropOp35
 70
     1
102
RTVSPost2010Prop36
280
     0
102
RTVSPost2010PropOp36
 70
     1
102
RTVSPost2010Prop37
 90
       50
102
RTVSPost2010PropOp37
 70
     1
102
RTVSPost2010Prop38
140
0.0
102
RTVSPost2010PropOp38
 70
     1
102
RTVSPost2010Prop39
140
1.0
102
RTVSPost2010PropOp39
 70
     1
102
RTVSPost2010Prop40
 90
        0
102
RTVSPost2010PropOp40
 70
     1
102
RTVSPost2010Prop41ColorIndex
 90
       18
102
RTVSPost2010Prop41ColorRGB
 90
        0
102
RTVSPost2010PropOp41
 70
     1
102
RTVSPost2010Prop42
 90
       50
102
RTVSPost2010PropOp42
 70
     1
102
RTVSPost2010Prop43
 90
        3
102
RTVSPost2010PropOp43
 70
     1
102
RTVSPost2010Prop44ColorIndex
 90
        5
102
RTVSPost2010Prop44ColorRGB
 90
      255
102
RTVSPost2010PropOp44
 70
     1
102
RTVSPost2010Prop45
280
     0
102
RTVSPost2010PropOp45
 70
     1
102
RTVSPost2010Prop46
 90
       50
102
RTVSPost2010PropOp46
 70
     1
102
RTVSPost2010Prop47
 90
       50
102
RTVSPost2010PropOp47
 70
     1
102
RTVSPost2010Prop48
 90
       50
102
RTVSPost2010PropOp48
 70
     1
102
RTVSPost2010Prop49
280
     0
102
RTVSPost2010PropOp49
 70
     1
102
RTVSPost2010Prop50
 90
       50
102
RTVSPost2010PropOp50
 70
     1
102
RTVSPost2010Prop51ColorIndex
 90
      256
102
RTVSPost2010Prop51ColorRGB
 90
-16777216
102
RTVSPost2010PropOp51
 70
     0
102
RTVSPost2010Prop52
140
1.0
102
RTVSPost2010PropOp52
 70
     0
102
RTVSPost2010Prop53
 90
        2
102
RTVSPost2010PropOp53
 70
     1
102
RTVSPost2010Prop54
  1
strokes_ogs.tif
102
RTVSPost2010PropOp54
 70
     1
102
RTVSPost2010Prop55
280
     0
102
RTVSPost2010PropOp55
 70
     1
102
RTVSPost2010Prop56
140
1.0
102
RTVSPost2010PropOp56
 70
     1
102
RTVSPost2010Prop57
140
1.0
102
RTVSPost2010PropOp57
 70
     1
102
RTVSPropertyOp0
 70
     1
102
RTVSPropertyOp1
 70
     1
102
RTVSPropertyOp2
 70
     1
102
RTVSPropertyOp3
 70
     1
102
RTVSPropertyOp4
 70
     1
102
RTVSPropertyOp5
 70
     1
102
RTVSPropertyOp6
 70
     1
102
RTVSPropertyOp7
 70
     1
102
RTVSPropertyOp8
 70
     1
102
RTVSPropertyOp9
 70
     1
102
RTVSPropertyOp10
 70
     1
102
RTVSPropertyOp11
 70
     1
102
RTVSPropertyOp12
 70
     1
102
RTVSPropertyOp13
 70
     1
102
RTVSPropertyOp14
 70
     1
102
RTVSPropertyOp15
 70
     1
102
RTVSPropertyOp16
 70
     1
102
RTVSPropertyOp17
 70
     1
102
RTVSPropertyOp18
 70
     1
102
RTVSPropertyOp19
 70
     1
102
RTVSPropertyOp20
 70
     1
102
RTVSPropertyOp21
 70
     1
102
RTVSPropertyOp22
 70
     1
102
RTVSPropertyOp23
 70
     1
102
RTVSPropertyOp24
 70
     1
102
RTVSPropertyOp25
 70
     1
102
RTVSPropertyOp26
 70
     1
102
RTVSPropertyOp27
 70
     1
102
RTVSPropertyOp28
 70
     1
102
RTVSPropertyOp29
 70
     1
102
RTVSPropertyOp30
 70
     1
102
RTVSPropertyOp31
 70
     1
102
RTVSPropertyOp32
 70
     1
102
RTVSPropertyOp33
 70
     1
102
RTVSPropertyOp34
 70
     1
102
RTVSPropertyOp35
 70
     1
102
RTVSPropertyOp36
 70
     1
102
RTVSPropertyOp37
 70
     1
102
RTVSPropertyOp38
 70
     1
102
RTVSPropertyOp39
 70
     1
102
RTVSPropertyOp40
 70
     1
102
RTVSPropertyOp41
 70
     1
102
RTVSPropertyOp42
 70
     1
102
RTVSPropertyOp43
 70
     1
102
RTVSPropertyOp44
 70
     1
102
RTVSPropertyOp45
 70
     1
102
RTVSPropertyOp46
 70
     1
102
RTVSPropertyOp47
 70
     1
102
RTVSPropertyOp48
 70
     1
102
RTVSPropertyOp49
 70
     1
102
RTVSPropertyOp50
 70
     1
102
RTVSPropertyOp51
 70
     0
102
RTVSPropertyOp52
 70
     0
102
RTVSPropertyOp53
 70
     1
102
RTVSPropertyOp54
 70
     1
102
RTVSPropertyOp55
 70
     1
102
RTVSPropertyOp56
 70
     1
102
RTVSPropertyOp57
 70
     1
102
RTVSPropertyOp58
 70
     1
102
RTVSPropertyOp59
 70
     1
102
RTVSPropertyOp60
 70
     1
102
RTVSPropertyOp61
 70
     1
102
RTVSPropertyOp62
 70
     1
  0
XRECORD
  5
2802
102
{ACAD_REACTORS
330
2801
102
}
330
2801
100
AcDbXrecord
280
     1
102
RTVSPost2010Prop28
280
     0
102
RTVSPost2010PropOp28
 70
     1
102
RTVSPost2010Prop29
280
     1
102
RTVSPost2010PropOp29
 70
     1
102
RTVSPost2010Prop30
280
     1
102
RTVSPost2010PropOp30
 70
     1
102
RTVSPost2010Prop31
280
     0
102
RTVSPost2010PropOp31
 70
     1
102
RTVSPost2010Prop32
280
     0
102
RTVSPost2010PropOp32
 70
     1
102
RTVSPost2010Prop33
280
     0
102
RTVSPost2010PropOp33
 70
     1
102
RTVSPost2010Prop34
280
     0
102
RTVSPost2010PropOp34
 70
     1
102
RTVSPost2010Prop35
280
     0
102
RTVSPost2010PropOp35
 70
     1
102
RTVSPost2010Prop36
280
     0
102
RTVSPost2010PropOp36
 70
     1
102
RTVSPost2010Prop37
 90
       50
102
RTVSPost2010PropOp37
 70
     1
102
RTVSPost2010Prop38
140
0.0
102
RTVSPost2010PropOp38
 70
     1
102
RTVSPost2010Prop39
140
1.0
102
RTVSPost2010PropOp39
 70
     1
102
RTVSPost2010Prop40
 90
        0
102
RTVSPost2010PropOp40
 70
     1
102
RTVSPost2010Prop41ColorIndex
 90
       18
102
RTVSPost2010Prop41ColorRGB
 90
        0
102
RTVSPost2010PropOp41
 70
     1
102
RTVSPost2010Prop42
 90
       50
102
RTVSPost2010PropOp42
 70
     1
102
RTVSPost2010Prop43
 90
        3
102
RTVSPost2010PropOp43
 70
     1
102
RTVSPost2010Prop44ColorIndex
 90
        5
102
RTVSPost2010Prop44ColorRGB
 90
      255
102
RTVSPost2010PropOp44
 70
     1
102
RTVSPost2010Prop45
280
     0
102
RTVSPost2010PropOp45
 70
     1
102
RTVSPost2010Prop46
 90
       50
102
RTVSPost2010PropOp46
 70
     1
102
RTVSPost2010Prop47
 90
       50
102
RTVSPost2010PropOp47
 70
     1
102
RTVSPost2010Prop48
 90
       50
102
RTVSPost2010PropOp48
 70
     1
102
RTVSPost2010Prop49
280
     0
102
RTVSPost2010PropOp49
 70
     1
102
RTVSPost2010Prop50
 90
       50
102
RTVSPost2010PropOp50
 70
     1
102
RTVSPost2010Prop51ColorIndex
 90
      256
102
RTVSPost2010Prop51ColorRGB
 90
-16777216
102
RTVSPost2010PropOp51
 70
     0
102
RTVSPost2010Prop52
140
1.0
102
RTVSPost2010PropOp52
 70
     0
102
RTVSPost2010Prop53
 90
        2
102
RTVSPost2010PropOp53
 70
     1
102
RTVSPost2010Prop54
  1
strokes_ogs.tif
102
RTVSPost2010PropOp54
 70
     1
102
RTVSPost2010Prop55
280
     0
102
RTVSPost2010PropOp55
 70
     1
102
RTVSPost2010Prop56
140
1.0
102
RTVSPost2010PropOp56
 70
     1
102
RTVSPost2010Prop57
140
1.0
102
RTVSPost2010PropOp57
 70
     1
102
RTVSPropertyOp0
 70
     1
102
RTVSPropertyOp1
 70
     1
102
RTVSPropertyOp2
 70
     1
102
RTVSPropertyOp3
 70
     1
102
RTVSPropertyOp4
 70
     1
102
RTVSPropertyOp5
 70
     1
102
RTVSPropertyOp6
 70
     1
102
RTVSPropertyOp7
 70
     1
102
RTVSPropertyOp8
 70
     1
102
RTVSPropertyOp9
 70
     1
102
RTVSPropertyOp10
 70
     1
102
RTVSPropertyOp11
 70
     1
102
RTVSPropertyOp12
 70
     1
102
RTVSPropertyOp13
 70
     1
102
RTVSPropertyOp14
 70
     1
102
RTVSPropertyOp15
 70
     1
102
RTVSPropertyOp16
 70
     1
102
RTVSPropertyOp17
 70
     1
102
RTVSPropertyOp18
 70
     1
102
RTVSPropertyOp19
 70
     1
102
RTVSPropertyOp20
 70
     1
102
RTVSPropertyOp21
 70
     1
102
RTVSPropertyOp22
 70
     1
102
RTVSPropertyOp23
 70
     1
102
RTVSPropertyOp24
 70
     1
102
RTVSPropertyOp25
 70
     1
102
RTVSPropertyOp26
 70
     1
102
RTVSPropertyOp27
 70
     1
102
RTVSPropertyOp28
 70
     1
102
RTVSPropertyOp29
 70
     1
102
RTVSPropertyOp30
 70
     1
102
RTVSPropertyOp31
 70
     1
102
RTVSPropertyOp32
 70
     1
102
RTVSPropertyOp33
 70
     1
102
RTVSPropertyOp34
 70
     1
102
RTVSPropertyOp35
 70
     1
102
RTVSPropertyOp36
 70
     1
102
RTVSPropertyOp37
 70
     1
102
RTVSPropertyOp38
 70
     1
102
RTVSPropertyOp39
 70
     1
102
RTVSPropertyOp40
 70
     1
102
RTVSPropertyOp41
 70
     1
102
RTVSPropertyOp42
 70
     1
102
RTVSPropertyOp43
 70
     1
102
RTVSPropertyOp44
 70
     1
102
RTVSPropertyOp45
 70
     1
102
RTVSPropertyOp46
 70
     1
102
RTVSPropertyOp47
 70
     1
102
RTVSPropertyOp48
 70
     1
102
RTVSPropertyOp49
 70
     1
102
RTVSPropertyOp50
 70
     1
102
RTVSPropertyOp51
 70
     0
102
RTVSPropertyOp52
 70
     0
102
RTVSPropertyOp53
 70
     1
102
RTVSPropertyOp54
 70
     1
102
RTVSPropertyOp55
 70
     1
102
RTVSPropertyOp56
 70
     1
102
RTVSPropertyOp57
 70
     1
102
RTVSPropertyOp58
 70
     1
102
RTVSPropertyOp59
 70
     1
102
RTVSPropertyOp60
 70
     1
102
RTVSPropertyOp61
 70
     1
102
RTVSPropertyOp62
 70
     1
  0
XRECORD
  5
281A
102
{ACAD_REACTORS
330
2819
102
}
330
2819
100
AcDbXrecord
280
     1
102
RTVSPost2010Prop28
280
     0
102
RTVSPost2010PropOp28
 70
     1
102
RTVSPost2010Prop29
280
     1
102
RTVSPost2010PropOp29
 70
     1
102
RTVSPost2010Prop30
280
     1
102
RTVSPost2010PropOp30
 70
     1
102
RTVSPost2010Prop31
280
     0
102
RTVSPost2010PropOp31
 70
     1
102
RTVSPost2010Prop32
280
     0
102
RTVSPost2010PropOp32
 70
     1
102
RTVSPost2010Prop33
280
     0
102
RTVSPost2010PropOp33
 70
     1
102
RTVSPost2010Prop34
280
     0
102
RTVSPost2010PropOp34
 70
     1
102
RTVSPost2010Prop35
280
     0
102
RTVSPost2010PropOp35
 70
     1
102
RTVSPost2010Prop36
280
     0
102
RTVSPost2010PropOp36
 70
     1
102
RTVSPost2010Prop37
 90
       50
102
RTVSPost2010PropOp37
 70
     1
102
RTVSPost2010Prop38
140
0.0
102
RTVSPost2010PropOp38
 70
     1
102
RTVSPost2010Prop39
140
1.0
102
RTVSPost2010PropOp39
 70
     1
102
RTVSPost2010Prop40
 90
        0
102
RTVSPost2010PropOp40
 70
     1
102
RTVSPost2010Prop41ColorIndex
 90
       18
102
RTVSPost2010Prop41ColorRGB
 90
        0
102
RTVSPost2010PropOp41
 70
     1
102
RTVSPost2010Prop42
 90
       50
102
RTVSPost2010PropOp42
 70
     1
102
RTVSPost2010Prop43
 90
        3
102
RTVSPost2010PropOp43
 70
     1
102
RTVSPost2010Prop44ColorIndex
 90
        5
102
RTVSPost2010Prop44ColorRGB
 90
      255
102
RTVSPost2010PropOp44
 70
     1
102
RTVSPost2010Prop45
280
     0
102
RTVSPost2010PropOp45
 70
     1
102
RTVSPost2010Prop46
 90
       50
102
RTVSPost2010PropOp46
 70
     1
102
RTVSPost2010Prop47
 90
       50
102
RTVSPost2010PropOp47
 70
     1
102
RTVSPost2010Prop48
 90
       50
102
RTVSPost2010PropOp48
 70
     1
102
RTVSPost2010Prop49
280
     0
102
RTVSPost2010PropOp49
 70
     1
102
RTVSPost2010Prop50
 90
       50
102
RTVSPost2010PropOp50
 70
     1
102
RTVSPost2010Prop51ColorIndex
 90
      256
102
RTVSPost2010Prop51ColorRGB
 90
-16777216
102
RTVSPost2010PropOp51
 70
     0
102
RTVSPost2010Prop52
140
1.0
102
RTVSPost2010PropOp52
 70
     0
102
RTVSPost2010Prop53
 90
        2
102
RTVSPost2010PropOp53
 70
     1
102
RTVSPost2010Prop54
  1
strokes_ogs.tif
102
RTVSPost2010PropOp54
 70
     1
102
RTVSPost2010Prop55
280
     0
102
RTVSPost2010PropOp55
 70
     1
102
RTVSPost2010Prop56
140
1.0
102
RTVSPost2010PropOp56
 70
     1
102
RTVSPost2010Prop57
140
1.0
102
RTVSPost2010PropOp57
 70
     1
102
RTVSPropertyOp0
 70
     1
102
RTVSPropertyOp1
 70
     1
102
RTVSPropertyOp2
 70
     1
102
RTVSPropertyOp3
 70
     1
102
RTVSPropertyOp4
 70
     1
102
RTVSPropertyOp5
 70
     1
102
RTVSPropertyOp6
 70
     1
102
RTVSPropertyOp7
 70
     1
102
RTVSPropertyOp8
 70
     1
102
RTVSPropertyOp9
 70
     1
102
RTVSPropertyOp10
 70
     1
102
RTVSPropertyOp11
 70
     1
102
RTVSPropertyOp12
 70
     1
102
RTVSPropertyOp13
 70
     1
102
RTVSPropertyOp14
 70
     1
102
RTVSPropertyOp15
 70
     1
102
RTVSPropertyOp16
 70
     1
102
RTVSPropertyOp17
 70
     1
102
RTVSPropertyOp18
 70
     1
102
RTVSPropertyOp19
 70
     1
102
RTVSPropertyOp20
 70
     1
102
RTVSPropertyOp21
 70
     1
102
RTVSPropertyOp22
 70
     1
102
RTVSPropertyOp23
 70
     1
102
RTVSPropertyOp24
 70
     1
102
RTVSPropertyOp25
 70
     1
102
RTVSPropertyOp26
 70
     1
102
RTVSPropertyOp27
 70
     1
102
RTVSPropertyOp28
 70
     1
102
RTVSPropertyOp29
 70
     1
102
RTVSPropertyOp30
 70
     1
102
RTVSPropertyOp31
 70
     1
102
RTVSPropertyOp32
 70
     1
102
RTVSPropertyOp33
 70
     1
102
RTVSPropertyOp34
 70
     1
102
RTVSPropertyOp35
 70
     1
102
RTVSPropertyOp36
 70
     1
102
RTVSPropertyOp37
 70
     1
102
RTVSPropertyOp38
 70
     1
102
RTVSPropertyOp39
 70
     1
102
RTVSPropertyOp40
 70
     1
102
RTVSPropertyOp41
 70
     1
102
RTVSPropertyOp42
 70
     1
102
RTVSPropertyOp43
 70
     1
102
RTVSPropertyOp44
 70
     1
102
RTVSPropertyOp45
 70
     1
102
RTVSPropertyOp46
 70
     1
102
RTVSPropertyOp47
 70
     1
102
RTVSPropertyOp48
 70
     1
102
RTVSPropertyOp49
 70
     1
102
RTVSPropertyOp50
 70
     1
102
RTVSPropertyOp51
 70
     0
102
RTVSPropertyOp52
 70
     0
102
RTVSPropertyOp53
 70
     1
102
RTVSPropertyOp54
 70
     1
102
RTVSPropertyOp55
 70
     1
102
RTVSPropertyOp56
 70
     1
102
RTVSPropertyOp57
 70
     1
102
RTVSPropertyOp58
 70
     1
102
RTVSPropertyOp59
 70
     1
102
RTVSPropertyOp60
 70
     1
102
RTVSPropertyOp61
 70
     1
102
RTVSPropertyOp62
 70
     1
  0
ENDSEC
  0
EOF
