  0
SECTION
  2
HEADER
  9
$ACADVER
  1
AC1018
  9
$ACADMAINTVER
 70
   104
  9
$DWGCODEPAGE
  3
ANSI_932
  9
$LASTSAVEDBY
  1
yano27
  9
$INSBASE
 10
0.0
 20
0.0
 30
0.0
  9
$EXTMIN
 10
-8889.374124451594
 20
-1015.010083519113
 30
0.0
  9
$EXTMAX
 10
-6369.374124451592
 20
2548.989916480887
 30
0.0
  9
$LIMMIN
 10
0.0
 20
0.0
  9
$LIMMAX
 10
7425.0
 20
5250.0
  9
$ORTHOMODE
 70
     0
  9
$REGENMODE
 70
     1
  9
$FILLMODE
 70
     1
  9
$QTEXTMODE
 70
     0
  9
$MIRRTEXT
 70
     1
  9
$LTSCALE
 40
150.0
  9
$ATTMODE
 70
     1
  9
$TEXTSIZE
 40
75.0
  9
$TRACEWID
 40
0.05
  9
$TEXTSTYLE
  7
ｵﾘｼﾞﾅﾙｽﾀｲﾙ
  9
$CLAYER
  8
01-寸法線
  9
$CELTYPE
  6
BYLAYER
  9
$CECOLOR
 62
   256
  9
$CELTSCALE
 40
1.0
  9
$DISPSILH
 70
     0
  9
$DIMSCALE
 40
10.0
  9
$DIMASZ
 40
2.0
  9
$DIMEXO
 40
1.0
  9
$DIMDLI
 40
6.0
  9
$DIMRND
 40
0.0
  9
$DIMDLE
 40
0.0
  9
$DIMEXE
 40
1.0
  9
$DIMTP
 40
0.0
  9
$DIMTM
 40
0.0
  9
$DIMTXT
 40
3.0
  9
$DIMCEN
 40
1.0
  9
$DIMTSZ
 40
0.0
  9
$DIMTOL
 70
     0
  9
$DIMLIM
 70
     0
  9
$DIMTIH
 70
     0
  9
$DIMTOH
 70
     0
  9
$DIMSE1
 70
     0
  9
$DIMSE2
 70
     0
  9
$DIMTAD
 70
     1
  9
$DIMZIN
 70
     9
  9
$DIMBLK
  1
OPEN
  9
$DIMASO
 70
     1
  9
$DIMSHO
 70
     0
  9
$DIMPOST
  1

  9
$DIMAPOST
  1

  9
$DIMALT
 70
     0
  9
$DIMALTD
 70
     2
  9
$DIMALTF
 40
25.4
  9
$DIMLFAC
 40
1.0
  9
$DIMTOFL
 70
     1
  9
$DIMTVP
 40
0.0
  9
$DIMTIX
 70
     1
  9
$DIMSOXD
 70
     0
  9
$DIMSAH
 70
     0
  9
$DIMBLK1
  1

  9
$DIMBLK2
  1

  9
$DIMSTYLE
  2
スタイル10
  9
$DIMCLRD
 70
     4
  9
$DIMCLRE
 70
     4
  9
$DIMCLRT
 70
     4
  9
$DIMTFAC
 40
1.0
  9
$DIMGAP
 40
0.5
  9
$DIMJUST
 70
     0
  9
$DIMSD1
 70
     0
  9
$DIMSD2
 70
     0
  9
$DIMTOLJ
 70
     1
  9
$DIMTZIN
 70
     0
  9
$DIMALTZ
 70
     0
  9
$DIMALTTZ
 70
     0
  9
$DIMUPT
 70
     0
  9
$DIMDEC
 70
     1
  9
$DIMTDEC
 70
     1
  9
$DIMALTU
 70
     2
  9
$DIMALTTD
 70
     2
  9
$DIMTXSTY
  7
ｵﾘｼﾞﾅﾙｽﾀｲﾙ
  9
$DIMAUNIT
 70
     0
  9
$DIMADEC
 70
     0
  9
$DIMALTRND
 40
0.0
  9
$DIMAZIN
 70
     0
  9
$DIMDSEP
 70
    46
  9
$DIMATFIT
 70
     0
  9
$DIMFRAC
 70
     0
  9
$DIMLDRBLK
  1
OPEN
  9
$DIMLUNIT
 70
     2
  9
$DIMLWD
 70
    13
  9
$DIMLWE
 70
    13
  9
$DIMTMOVE
 70
     2
  9
$LUNITS
 70
     2
  9
$LUPREC
 70
     4
  9
$SKETCHINC
 40
0.1
  9
$FILLETRAD
 40
30.0
  9
$AUNITS
 70
     0
  9
$AUPREC
 70
     0
  9
$MENU
  1
acad
  9
$ELEVATION
 40
0.0
  9
$PELEVATION
 40
0.0
  9
$THICKNESS
 40
0.0
  9
$LIMCHECK
 70
     0
  9
$CHAMFERA
 40
0.0
  9
$CHAMFERB
 40
0.0
  9
$CHAMFERC
 40
0.0
  9
$CHAMFERD
 40
0.0
  9
$SKPOLY
 70
     0
  9
$TDCREATE
 40
2452224.843078241
  9
$TDUCREATE
 40
2452224.468078241
  9
$TDUPDATE
 40
2457484.418988565
  9
$TDUUPDATE
 40
2457484.043988565
  9
$TDINDWG
 40
1.7628643750
  9
$TDUSRTIMER
 40
1.7628643750
  9
$USRTIMER
 70
     1
  9
$ANGBASE
 50
0.0
  9
$ANGDIR
 70
     0
  9
$PDMODE
 70
    34
  9
$PDSIZE
 40
-5.0
  9
$PLINEWID
 40
0.0
  9
$SPLFRAME
 70
     0
  9
$SPLINETYPE
 70
     6
  9
$SPLINESEGS
 70
     8
  9
$HANDSEED
  5
69B8
  9
$SURFTAB1
 70
     6
  9
$SURFTAB2
 70
     6
  9
$SURFTYPE
 70
     6
  9
$SURFU
 70
     6
  9
$SURFV
 70
     6
  9
$UCSBASE
  2

  9
$UCSNAME
  2

  9
$UCSORG
 10
0.0
 20
0.0
 30
0.0
  9
$UCSXDIR
 10
1.0
 20
0.0
 30
0.0
  9
$UCSYDIR
 10
0.0
 20
1.0
 30
0.0
  9
$UCSORTHOREF
  2

  9
$UCSORTHOVIEW
 70
     0
  9
$UCSORGTOP
 10
0.0
 20
0.0
 30
0.0
  9
$UCSORGBOTTOM
 10
0.0
 20
0.0
 30
0.0
  9
$UCSORGLEFT
 10
0.0
 20
0.0
 30
0.0
  9
$UCSORGRIGHT
 10
0.0
 20
0.0
 30
0.0
  9
$UCSORGFRONT
 10
0.0
 20
0.0
 30
0.0
  9
$UCSORGBACK
 10
0.0
 20
0.0
 30
0.0
  9
$PUCSBASE
  2

  9
$PUCSNAME
  2

  9
$PUCSORG
 10
0.0
 20
0.0
 30
0.0
  9
$PUCSXDIR
 10
1.0
 20
0.0
 30
0.0
  9
$PUCSYDIR
 10
0.0
 20
1.0
 30
0.0
  9
$PUCSORTHOREF
  2

  9
$PUCSORTHOVIEW
 70
     0
  9
$PUCSORGTOP
 10
0.0
 20
0.0
 30
0.0
  9
$PUCSORGBOTTOM
 10
0.0
 20
0.0
 30
0.0
  9
$PUCSORGLEFT
 10
0.0
 20
0.0
 30
0.0
  9
$PUCSORGRIGHT
 10
0.0
 20
0.0
 30
0.0
  9
$PUCSORGFRONT
 10
0.0
 20
0.0
 30
0.0
  9
$PUCSORGBACK
 10
0.0
 20
0.0
 30
0.0
  9
$USERI1
 70
     0
  9
$USERI2
 70
     0
  9
$USERI3
 70
     0
  9
$USERI4
 70
     0
  9
$USERI5
 70
     0
  9
$USERR1
 40
0.0
  9
$USERR2
 40
0.0
  9
$USERR3
 40
0.0
  9
$USERR4
 40
0.0
  9
$USERR5
 40
0.0
  9
$WORLDVIEW
 70
     1
  9
$SHADEDGE
 70
     3
  9
$SHADEDIF
 70
    70
  9
$TILEMODE
 70
     1
  9
$MAXACTVP
 70
    16
  9
$PINSBASE
 10
0.0
 20
0.0
 30
0.0
  9
$PLIMCHECK
 70
     0
  9
$PEXTMIN
 10
1.049999952316284
 20
0.7999999523162842
 30
0.0
  9
$PEXTMAX
 10
9.449999570846555
 20
7.199999570846556
 30
0.0
  9
$PLIMMIN
 10
-0.2500002402958907
 20
-0.2499999962453767
  9
$PLIMMAX
 10
10.74999951940821
 20
8.249999763458731
  9
$UNITMODE
 70
     0
  9
$VISRETAIN
 70
     0
  9
$PLINEGEN
 70
     0
  9
$PSLTSCALE
 70
     0
  9
$TREEDEPTH
 70
  3020
  9
$CMLSTYLE
  2
STANDARD
  9
$CMLJUST
 70
     0
  9
$CMLSCALE
 40
1.0
  9
$PROXYGRAPHICS
 70
     1
  9
$MEASUREMENT
 70
     0
  9
$CELWEIGHT
370
    -1
  9
$ENDCAPS
280
     0
  9
$JOINSTYLE
280
     0
  9
$LWDISPLAY
290
     0
  9
$INSUNITS
 70
     4
  9
$HYPERLINKBASE
  1

  9
$STYLESHEET
  1
monochrome.ctb
  9
$XEDIT
290
     1
  9
$CEPSNTYPE
380
     0
  9
$PSTYLEMODE
290
     1
  9
$FINGERPRINTGUID
  2
{0454649D-4742-4B48-B1F5-A03FF9242E90}
  9
$VERSIONGUID
  2
{D1BB4460-4529-417A-B9D1-2A6EF268D86E}
  9
$EXTNAMES
290
     1
  9
$PSVPSCALE
 40
0.0
  9
$OLESTARTUP
290
     0
  9
$SORTENTS
280
   127
  9
$INDEXCTL
280
     0
  9
$HIDETEXT
280
     0
  9
$XCLIPFRAME
290
     0
  9
$HALOGAP
280
     0
  9
$OBSCOLOR
 70
   257
  9
$OBSLTYPE
280
     0
  9
$INTERSECTIONDISPLAY
280
     0
  9
$INTERSECTIONCOLOR
 70
   257
  9
$DIMASSOC
280
     1
  9
$PROJECTNAME
  1

  0
ENDSEC
  0
SECTION
  2
CLASSES
  0
CLASS
  1
ACDBDICTIONARYWDFLT
  2
AcDbDictionaryWithDefault
  3
ObjectDBX Classes
 90
        0
 91
        1
280
     0
281
     0
  0
CLASS
  1
TABLESTYLE
  2
AcDbTableStyle
  3
ObjectDBX Classes
 90
     4095
 91
        1
280
     0
281
     0
  0
CLASS
  1
DICTIONARYVAR
  2
AcDbDictionaryVar
  3
ObjectDBX Classes
 90
        0
 91
        8
280
     0
281
     0
  0
CLASS
  1
MATERIAL
  2
AcDbMaterial
  3
ObjectDBX Classes
 90
     1153
 91
        3
280
     0
281
     0
  0
CLASS
  1
VISUALSTYLE
  2
AcDbVisualStyle
  3
ObjectDBX Classes
 90
     4095
 91
       24
280
     0
281
     0
  0
CLASS
  1
SCALE
  2
AcDbScale
  3
ObjectDBX Classes
 90
     1153
 91
       17
280
     0
281
     0
  0
CLASS
  1
MLEADERSTYLE
  2
AcDbMLeaderStyle
  3
ACDB_MLEADERSTYLE_CLASS
 90
     4095
 91
        1
280
     0
281
     0
  0
CLASS
  1
ACDBSECTIONVIEWSTYLE
  2
AcDbSectionViewStyle
  3
ObjectDBX Classes
 90
     1025
 91
        1
280
     0
281
     0
  0
CLASS
  1
ACDBDETAILVIEWSTYLE
  2
AcDbDetailViewStyle
  3
ObjectDBX Classes
 90
     1025
 91
        1
280
     0
281
     0
  0
CLASS
  1
CELLSTYLEMAP
  2
AcDbCellStyleMap
  3
ObjectDBX Classes
 90
     1152
 91
        1
280
     0
281
     0
  0
ENDSEC
  0
SECTION
  2
TABLES
  0
TABLE
  2
VPORT
  5
12
330
0
100
AcDbSymbolTable
 70
     1
  0
VPORT
  5
6906
330
12
100
AcDbSymbolTableRecord
100
AcDbViewportTableRecord
  2
*Active
 70
     0
 10
0.0
 20
0.0
 11
1.0
 21
1.0
 12
-7629.692015184275
 22
870.8093765663758
 13
0.0
 23
0.0
 14
100.0
 24
100.0
 15
0.0
 25
0.0
 16
0.0
 26
0.0
 36
1.0
 17
0.0
 27
0.0
 37
0.0
 40
3813.728839839024
 41
1.606896551724138
 42
50.0
 43
0.0
 44
0.0
 50
0.0
 51
0.0
 71
     0
 72
   100
 73
     1
 74
     0
 75
     0
 76
     0
 77
     0
 78
     0
281
     0
 65
     1
110
0.0
120
0.0
130
0.0
111
1.0
121
0.0
131
0.0
112
0.0
122
1.0
132
0.0
 79
     0
146
0.0
1001
ACAD_NAV_VCDISPLAY
1070
     3
  0
ENDTAB
  0
TABLE
  2
LTYPE
  5
D
330
0
100
AcDbSymbolTable
 70
    12
  0
LTYPE
  5
E
330
D
100
AcDbSymbolTableRecord
100
AcDbLinetypeTableRecord
  2
BYBLOCK
 70
     0
  3

 72
    65
 73
     0
 40
0.0
  0
LTYPE
  5
F
330
D
100
AcDbSymbolTableRecord
100
AcDbLinetypeTableRecord
  2
BYLAYER
 70
     0
  3

 72
    65
 73
     0
 40
0.0
  0
LTYPE
  5
5
330
D
100
AcDbSymbolTableRecord
100
AcDbLinetypeTableRecord
  2
CONTINUOUS
 70
     0
  3
実線
 72
    65
 73
     0
 40
0.0
  0
LTYPE
  5
1044
330
D
100
AcDbSymbolTableRecord
100
AcDbLinetypeTableRecord
  2
DASHED
 70
     0
  3
__ __ __ __ __ __ __ __ __ __ __ __ __ __ __
 72
    65
 73
     2
 40
0.75
 49
0.5
 74
     0
 49
-0.25
 74
     0
  0
LTYPE
  5
1045
330
D
100
AcDbSymbolTableRecord
100
AcDbLinetypeTableRecord
  2
HIDDEN
 70
     0
  3
_ _ _ _ _ _ _ _ _ _ _ _ _ _ _ _ _ _ _ _ _ _ _
 72
    65
 73
     2
 40
0.375
 49
0.25
 74
     0
 49
-0.125
 74
     0
  0
LTYPE
  5
1046
330
D
100
AcDbSymbolTableRecord
100
AcDbLinetypeTableRecord
  2
CENTER
 70
     0
  3
____ _ ____ _ ____ _ ____ _ ____ _ ____ _ ____
 72
    65
 73
     4
 40
2.0
 49
1.25
 74
     0
 49
-0.25
 74
     0
 49
0.25
 74
     0
 49
-0.25
 74
     0
  0
LTYPE
  5
1047
330
D
100
AcDbSymbolTableRecord
100
AcDbLinetypeTableRecord
  2
DASHDOT
 70
     0
  3
__ . __ . __ . __ . __ . __ . __ . __ . __ . __
 72
    65
 73
     4
 40
1.0
 49
0.5
 74
     0
 49
-0.25
 74
     0
 49
0.0
 74
     0
 49
-0.25
 74
     0
  0
LTYPE
  5
1048
330
D
100
AcDbSymbolTableRecord
100
AcDbLinetypeTableRecord
  2
DIVIDE
 70
     0
  3
____ . . ____ . . ____ . . ____ . . ____ . . __
 72
    65
 73
     6
 40
1.25
 49
0.5
 74
     0
 49
-0.25
 74
     0
 49
0.0
 74
     0
 49
-0.25
 74
     0
 49
0.0
 74
     0
 49
-0.25
 74
     0
  0
LTYPE
  5
1049
330
D
100
AcDbSymbolTableRecord
100
AcDbLinetypeTableRecord
  2
DOT
 70
     0
  3
. . . . . . . . . . . . . . . . . . . . . . . .
 72
    65
 73
     2
 40
0.25
 49
0.0
 74
     0
 49
-0.25
 74
     0
  0
LTYPE
  5
104A
330
D
100
AcDbSymbolTableRecord
100
AcDbLinetypeTableRecord
  2
PHANTOM
 70
     0
  3
______  __  __  ______  __  __  ______  __  __ 
 72
    65
 73
     6
 40
2.5
 49
1.25
 74
     0
 49
-0.25
 74
     0
 49
0.25
 74
     0
 49
-0.25
 74
     0
 49
0.25
 74
     0
 49
-0.25
 74
     0
  0
LTYPE
  5
104B
330
D
100
AcDbSymbolTableRecord
100
AcDbLinetypeTableRecord
  2
DASHED2
 70
     0
  3
_ _ _ _ _ _ _ _ _ _ _ _ _ _ _ _ _ _ _ _ _ _ _ _
 72
    65
 73
     2
 40
0.375
 49
0.25
 74
     0
 49
-0.125
 74
     0
  0
LTYPE
  5
104C
330
D
100
AcDbSymbolTableRecord
100
AcDbLinetypeTableRecord
  2
CENTER2
 70
     0
  3
___ _ ___ _ ___ _ ___ _ ___ _ ___ _ ___ _ ___ _
 72
    65
 73
     4
 40
1.125
 49
0.75
 74
     0
 49
-0.125
 74
     0
 49
0.125
 74
     0
 49
-0.125
 74
     0
  0
LTYPE
  5
104D
330
D
100
AcDbSymbolTableRecord
100
AcDbLinetypeTableRecord
  2
PHANTOM2
 70
     0
  3
___ _ _ ___ _ _ ___ _ _ ___ _ _ ___ _ _ ___ _ _
 72
    65
 73
     6
 40
1.25
 49
0.625
 74
     0
 49
-0.125
 74
     0
 49
0.125
 74
     0
 49
-0.125
 74
     0
 49
0.125
 74
     0
 49
-0.125
 74
     0
  0
LTYPE
  5
224A
330
D
100
AcDbSymbolTableRecord
100
AcDbLinetypeTableRecord
  2
ACAD_ISO02W100
 70
     0
  3
ISO dash __ __ __ __ __ __ __ __ __ __ __ __ __
 72
    65
 73
     2
 40
15.0
 49
12.0
 74
     0
 49
-3.0
 74
     0
  0
ENDTAB
  0
TABLE
  2
LAYER
  5
A
330
0
100
AcDbSymbolTable
 70
    15
  0
LAYER
  5
4
102
{ACAD_XDICTIONARY
360
695B
102
}
330
A
100
AcDbSymbolTableRecord
100
AcDbLayerTableRecord
  2
0
 70
     0
 62
     5
  6
CONTINUOUS
370
    -3
390
1FC7
  0
LAYER
  5
55A
102
{ACAD_XDICTIONARY
360
695D
102
}
330
A
100
AcDbSymbolTableRecord
100
AcDbLayerTableRecord
  2
01-寸法線
 70
     0
 62
     4
  6
CONTINUOUS
370
    13
390
1FC7
  0
LAYER
  5
86C
102
{ACAD_XDICTIONARY
360
695F
102
}
330
A
100
AcDbSymbolTableRecord
100
AcDbLayerTableRecord
  2
05-鉄筋線
 70
     0
 62
     1
  6
HIDDEN
370
    40
390
1FC7
  0
LAYER
  5
104E
102
{ACAD_XDICTIONARY
360
6961
102
}
330
A
100
AcDbSymbolTableRecord
100
AcDbLayerTableRecord
  2
02-外形線
 70
     0
 62
     7
  6
CONTINUOUS
370
    20
390
1FC7
  0
LAYER
  5
104F
102
{ACAD_XDICTIONARY
360
6963
102
}
330
A
100
AcDbSymbolTableRecord
100
AcDbLayerTableRecord
  2
03-隠れ線
 70
     0
 62
     7
  6
HIDDEN
370
    20
390
1FC7
  0
LAYER
  5
1050
102
{ACAD_XDICTIONARY
360
6965
102
}
330
A
100
AcDbSymbolTableRecord
100
AcDbLayerTableRecord
  2
04-鉄筋線
 70
     0
 62
     1
  6
CONTINUOUS
370
    40
390
1FC7
  0
LAYER
  5
1051
102
{ACAD_XDICTIONARY
360
6967
102
}
330
A
100
AcDbSymbolTableRecord
100
AcDbLayerTableRecord
  2
06-中心線
 70
     0
 62
     4
  6
CENTER2
370
    13
390
1FC7
  0
LAYER
  5
1052
102
{ACAD_XDICTIONARY
360
6969
102
}
330
A
100
AcDbSymbolTableRecord
100
AcDbLayerTableRecord
  2
07-中心線
 70
     0
 62
     4
  6
PHANTOM2
370
    13
390
1FC7
  0
LAYER
  5
1053
102
{ACAD_XDICTIONARY
360
696B
102
}
330
A
100
AcDbSymbolTableRecord
100
AcDbLayerTableRecord
  2
08-下線
 70
     0
 62
     3
  6
CONTINUOUS
370
    30
390
1FC7
  0
LAYER
  5
1054
102
{ACAD_XDICTIONARY
360
696D
102
}
330
A
100
AcDbSymbolTableRecord
100
AcDbLayerTableRecord
  2
10-罫線
 70
     0
 62
    30
  6
CONTINUOUS
370
    30
390
1FC7
  0
LAYER
  5
1057
330
A
100
AcDbSymbolTableRecord
100
AcDbLayerTableRecord
  2
DEFPOINTS
 70
     0
 62
     8
  6
CONTINUOUS
290
     0
370
    -3
390
1FC7
  0
LAYER
  5
218B
102
{ACAD_XDICTIONARY
360
696F
102
}
330
A
100
AcDbSymbolTableRecord
100
AcDbLayerTableRecord
  2
11-外枠線
 70
     0
 62
     6
  6
CONTINUOUS
370
    40
390
1FC7
  0
LAYER
  5
218C
102
{ACAD_XDICTIONARY
360
6971
102
}
330
A
100
AcDbSymbolTableRecord
100
AcDbLayerTableRecord
  2
12-構築線
 70
     0
 62
     5
  6
CONTINUOUS
370
     0
390
1FC7
  0
LAYER
  5
2B0E
102
{ACAD_XDICTIONARY
360
6973
102
}
330
A
100
AcDbSymbolTableRecord
100
AcDbLayerTableRecord
  2
09-下線
 70
     0
 62
     2
  6
CONTINUOUS
370
    50
390
1FC7
  0
LAYER
  5
3FAF
102
{ACAD_XDICTIONARY
360
6975
102
}
330
A
100
AcDbSymbolTableRecord
100
AcDbLayerTableRecord
  2
13-Ｒ線
 70
     0
 62
    30
  6
CONTINUOUS
370
     0
390
1FC7
  0
ENDTAB
  0
TABLE
  2
STYLE
  5
B
330
0
100
AcDbSymbolTable
 70
    11
  0
STYLE
  5
C
330
B
100
AcDbSymbolTableRecord
100
AcDbTextStyleTableRecord
  2
STANDARD
 70
     0
 40
0.0
 41
0.8
 50
0.0
 71
     0
 42
0.2
  3
SIMPLEX
  4
BIGFONT
  0
STYLE
  5
1B
330
B
100
AcDbSymbolTableRecord
100
AcDbTextStyleTableRecord
  2
ZEN
 70
     0
 40
0.0
 41
0.8
 50
0.0
 71
     0
 42
0.2
  3
SIMPLEX
  4
BIGFONT
  0
STYLE
  5
533
330
B
100
AcDbSymbolTableRecord
100
AcDbTextStyleTableRecord
  2
1-08
 70
     0
 40
0.0
 41
0.8
 50
0.0
 71
     0
 42
900.0
  3
romans.shx
  4
extfont.shx
  0
STYLE
  5
2A
330
B
100
AcDbSymbolTableRecord
100
AcDbTextStyleTableRecord
  2
KANJI
 70
     0
 40
0.0
 41
1.0
 50
0.0
 71
     0
 42
0.2
  3
romans.shx
  4
extfont.shx
  0
STYLE
  5
1067
330
B
100
AcDbSymbolTableRecord
100
AcDbTextStyleTableRecord
  2
SIMPLEX
 70
     0
 40
0.0
 41
1.0
 50
0.0
 71
     0
 42
10.0
  3
txt.shx
  4
BIGFONT
  0
STYLE
  5
1068
330
B
100
AcDbSymbolTableRecord
100
AcDbTextStyleTableRecord
  2
STANDERD
 70
     0
 40
0.0
 41
1.0
 50
0.0
 71
     0
 42
0.2
  3
MONOTXT
  4
BIGFONT
  0
STYLE
  5
1069
330
B
100
AcDbSymbolTableRecord
100
AcDbTextStyleTableRecord
  2
HAN
 70
     0
 40
0.0
 41
0.6400000000000001
 50
0.0
 71
     0
 42
0.2
  3
SIMPLEX
  4
BIGFONT
  0
STYLE
  5
106A
330
B
100
AcDbSymbolTableRecord
100
AcDbTextStyleTableRecord
  2
BIGFONT
 70
     0
 40
0.0
 41
1.0
 50
0.0
 71
     0
 42
200.0
  3
txt.shx
  4
BIGFONT
  0
STYLE
  5
106B
330
B
100
AcDbSymbolTableRecord
100
AcDbTextStyleTableRecord
  2
1-08T
 70
     0
 40
0.0
 41
0.8
 50
0.0
 71
     0
 42
0.2
  3
romans.shx
  4

  0
STYLE
  5
2249
330
B
100
AcDbSymbolTableRecord
100
AcDbTextStyleTableRecord
  2

 70
     1
 40
0.0
 41
1.0
 50
0.0
 71
     0
 42
0.2
  3
ltypeshp.shx
  4

  0
STYLE
  5
2605
330
B
100
AcDbSymbolTableRecord
100
AcDbTextStyleTableRecord
  2
ｵﾘｼﾞﾅﾙｽﾀｲﾙ
 70
     0
 40
0.0
 41
0.8
 50
0.0
 71
     0
 42
75.0
  3
MSMINCHO.TTF
  4

1001
ACAD
1000
MS Mincho
1071
    32785
  0
ENDTAB
  0
TABLE
  2
VIEW
  5
10
330
0
100
AcDbSymbolTable
 70
     0
  0
ENDTAB
  0
TABLE
  2
UCS
  5
11
330
0
100
AcDbSymbolTable
 70
     0
  0
ENDTAB
  0
TABLE
  2
APPID
  5
14
330
0
100
AcDbSymbolTable
 70
     3
  0
APPID
  5
15
330
14
100
AcDbSymbolTableRecord
100
AcDbRegAppTableRecord
  2
ACAD
 70
     0
  0
APPID
  5
697C
330
14
100
AcDbSymbolTableRecord
100
AcDbRegAppTableRecord
  2
ACAD_NAV_VCDISPLAY
 70
     0
  0
APPID
  5
69B5
330
14
100
AcDbSymbolTableRecord
100
AcDbRegAppTableRecord
  2
ACAD_MLEADERVER
 70
     0
  0
ENDTAB
  0
TABLE
  2
DIMSTYLE
  5
16
330
0
100
AcDbSymbolTable
 70
     2
100
AcDbDimStyleTable
 71
     2
340
2B26
340
1D
  0
DIMSTYLE
105
1D
330
16
100
AcDbSymbolTableRecord
100
AcDbDimStyleTableRecord
  2
標準スタイル
 70
     0
 41
20.0
 42
20.0
 43
0.0
 44
20.0
 73
     0
 74
     0
 77
     1
 78
     1
140
100.0
141
10.0
147
0.05
176
     4
177
     4
178
     4
271
     0
272
     0
279
     2
340
1069
371
    15
372
    15
  0
DIMSTYLE
105
2B26
102
{ACAD_REACTORS
330
58BE
330
58B1
330
5489
330
5834
330
5812
330
579A
330
57A9
330
57B6
330
5D6B
330
5D6A
330
5D5F
330
5D57
330
5D78
330
5E32
330
5E3A
330
5E37
330
5E36
330
5E4D
330
5F1C
330
5F29
330
5F36
330
600A
330
6017
330
6024
330
6460
330
647C
330
648A
330
6521
330
652E
330
68EB
102
}
330
16
100
AcDbSymbolTableRecord
100
AcDbDimStyleTableRecord
  2
スタイル10
 70
     0
 40
10.0
 41
2.0
 42
1.0
 43
6.0
 44
1.0
 73
     0
 74
     0
 77
     1
 78
     9
140
3.0
141
1.0
147
0.5
172
     1
174
     1
176
     4
177
     4
178
     4
271
     1
272
     1
279
     2
289
     0
340
2605
341
89F
342
89F
371
    13
372
    13
  0
ENDTAB
  0
TABLE
  2
BLOCK_RECORD
  5
1
330
0
100
AcDbSymbolTable
 70
    33
  0
BLOCK_RECORD
  5
2
330
1
100
AcDbSymbolTableRecord
100
AcDbBlockTableRecord
  2
*MODEL_SPACE
340
1FCE
  0
BLOCK_RECORD
  5
7
330
1
100
AcDbSymbolTableRecord
100
AcDbBlockTableRecord
  2
*PAPER_SPACE
340
1FCF
  0
BLOCK_RECORD
  5
89F
330
1
100
AcDbSymbolTableRecord
100
AcDbBlockTableRecord
  2
_OPEN
340
0
102
{BLKREFS
331
58D6
331
618A
331
618B
331
64CF
331
64D0
331
64E5
331
65BA
331
65C8
331
67B1
331
67B2
331
67BA
331
67BB
331
67C3
331
67C4
331
67CF
331
67D0
331
67D7
331
67D8
331
67E3
331
67E4
331
67EB
331
67EC
331
67F4
331
67F5
331
67FD
331
67FE
331
6806
331
6807
331
680F
331
6810
331
6818
331
6819
331
6824
331
6825
331
682C
331
682D
331
6838
331
6839
331
6840
331
6841
331
6849
331
684A
331
6855
331
6856
331
6860
331
6861
331
6868
331
6869
331
6871
331
6872
331
687A
331
687B
331
6883
331
6884
331
688F
331
6890
331
6897
331
6898
331
68A0
331
68A1
331
68AC
331
68AD
331
68B4
331
68B5
331
68BD
331
68BE
331
68FF
331
6900
102
}
  0
BLOCK_RECORD
  5
266F
330
1
100
AcDbSymbolTableRecord
100
AcDbBlockTableRecord
  2
_Open90
340
0
  0
BLOCK_RECORD
  5
3910
330
1
100
AcDbSymbolTableRecord
100
AcDbBlockTableRecord
  2
_Origin
340
0
  0
BLOCK_RECORD
  5
548A
330
1
100
AcDbSymbolTableRecord
100
AcDbBlockTableRecord
  2
*D3
340
0
  0
BLOCK_RECORD
  5
579B
330
1
100
AcDbSymbolTableRecord
100
AcDbBlockTableRecord
  2
*D4
340
0
  0
BLOCK_RECORD
  5
57AA
330
1
100
AcDbSymbolTableRecord
100
AcDbBlockTableRecord
  2
*D5
340
0
  0
BLOCK_RECORD
  5
57B7
330
1
100
AcDbSymbolTableRecord
100
AcDbBlockTableRecord
  2
*D6
340
0
  0
BLOCK_RECORD
  5
5813
330
1
100
AcDbSymbolTableRecord
100
AcDbBlockTableRecord
  2
*D7
340
0
  0
BLOCK_RECORD
  5
5835
330
1
100
AcDbSymbolTableRecord
100
AcDbBlockTableRecord
  2
*D8
340
0
  0
BLOCK_RECORD
  5
58B2
330
1
100
AcDbSymbolTableRecord
100
AcDbBlockTableRecord
  2
*D9
340
0
  0
BLOCK_RECORD
  5
58BF
330
1
100
AcDbSymbolTableRecord
100
AcDbBlockTableRecord
  2
*D10
340
0
  0
BLOCK_RECORD
  5
5D86
330
1
100
AcDbSymbolTableRecord
100
AcDbBlockTableRecord
  2
*D11
340
0
  0
BLOCK_RECORD
  5
5D94
330
1
100
AcDbSymbolTableRecord
100
AcDbBlockTableRecord
  2
*D12
340
0
  0
BLOCK_RECORD
  5
5DA0
330
1
100
AcDbSymbolTableRecord
100
AcDbBlockTableRecord
  2
*D13
340
0
  0
BLOCK_RECORD
  5
5DC6
330
1
100
AcDbSymbolTableRecord
100
AcDbBlockTableRecord
  2
*D14
340
0
  0
BLOCK_RECORD
  5
5DD2
330
1
100
AcDbSymbolTableRecord
100
AcDbBlockTableRecord
  2
*D15
340
0
  0
BLOCK_RECORD
  5
5E4E
330
1
100
AcDbSymbolTableRecord
100
AcDbBlockTableRecord
  2
*D16
340
0
  0
BLOCK_RECORD
  5
5E66
330
1
100
AcDbSymbolTableRecord
100
AcDbBlockTableRecord
  2
*D17
340
0
  0
BLOCK_RECORD
  5
5E80
330
1
100
AcDbSymbolTableRecord
100
AcDbBlockTableRecord
  2
*D18
340
0
  0
BLOCK_RECORD
  5
5E8C
330
1
100
AcDbSymbolTableRecord
100
AcDbBlockTableRecord
  2
*D19
340
0
  0
BLOCK_RECORD
  5
5EA6
330
1
100
AcDbSymbolTableRecord
100
AcDbBlockTableRecord
  2
*D20
340
0
  0
BLOCK_RECORD
  5
5F1D
330
1
100
AcDbSymbolTableRecord
100
AcDbBlockTableRecord
  2
*D21
340
0
  0
BLOCK_RECORD
  5
5F2A
330
1
100
AcDbSymbolTableRecord
100
AcDbBlockTableRecord
  2
*D22
340
0
  0
BLOCK_RECORD
  5
5F37
330
1
100
AcDbSymbolTableRecord
100
AcDbBlockTableRecord
  2
*D23
340
0
  0
BLOCK_RECORD
  5
600B
330
1
100
AcDbSymbolTableRecord
100
AcDbBlockTableRecord
  2
*D24
340
0
  0
BLOCK_RECORD
  5
6018
330
1
100
AcDbSymbolTableRecord
100
AcDbBlockTableRecord
  2
*D25
340
0
  0
BLOCK_RECORD
  5
6025
330
1
100
AcDbSymbolTableRecord
100
AcDbBlockTableRecord
  2
*D26
340
0
  0
BLOCK_RECORD
  5
6461
330
1
100
AcDbSymbolTableRecord
100
AcDbBlockTableRecord
  2
*D27
340
0
  0
BLOCK_RECORD
  5
647D
330
1
100
AcDbSymbolTableRecord
100
AcDbBlockTableRecord
  2
*D28
340
0
  0
BLOCK_RECORD
  5
648B
330
1
100
AcDbSymbolTableRecord
100
AcDbBlockTableRecord
  2
*D29
340
0
  0
BLOCK_RECORD
  5
6522
330
1
100
AcDbSymbolTableRecord
100
AcDbBlockTableRecord
  2
*D30
340
0
  0
BLOCK_RECORD
  5
652F
330
1
100
AcDbSymbolTableRecord
100
AcDbBlockTableRecord
  2
*D31
340
0
  0
BLOCK_RECORD
  5
68EC
330
1
100
AcDbSymbolTableRecord
100
AcDbBlockTableRecord
  2
*D32
340
0
  0
ENDTAB
  0
ENDSEC
  0
SECTION
  2
BLOCKS
  0
BLOCK
  5
3
330
2
100
AcDbEntity
  8
0
100
AcDbBlockBegin
  2
*MODEL_SPACE
 70
     0
 10
0.0
 20
0.0
 30
0.0
  3
*MODEL_SPACE
  1

  0
ENDBLK
  5
6
330
2
100
AcDbEntity
  8
0
100
AcDbBlockEnd
  0
BLOCK
  5
8
330
7
100
AcDbEntity
 67
     1
  8
0
100
AcDbBlockBegin
  2
*PAPER_SPACE
 70
     0
 10
0.0
 20
0.0
 30
0.0
  3
*PAPER_SPACE
  1

  0
ENDBLK
  5
9
330
7
100
AcDbEntity
 67
     1
  8
0
100
AcDbBlockEnd
  0
BLOCK
  5
8A3
330
89F
100
AcDbEntity
  8
0
100
AcDbBlockBegin
  2
_OPEN
 70
     0
 10
0.0
 20
0.0
 30
0.0
  3
_OPEN
  1

  0
LINE
  5
8A0
330
89F
100
AcDbEntity
  8
0
  6
ByBlock
 62
     0
100
AcDbLine
 10
-1.0
 20
0.1666666666666666
 30
0.0
 11
0.0
 21
0.0
 31
0.0
  0
LINE
  5
8A1
330
89F
100
AcDbEntity
  8
0
  6
ByBlock
 62
     0
100
AcDbLine
 10
0.0
 20
0.0
 30
0.0
 11
-1.0
 21
-0.1666666666666666
 31
0.0
  0
LINE
  5
8A2
330
89F
100
AcDbEntity
  8
0
  6
ByBlock
 62
     0
100
AcDbLine
 10
0.0
 20
0.0
 30
0.0
 11
-1.0
 21
0.0
 31
0.0
  0
ENDBLK
  5
8A4
330
89F
100
AcDbEntity
  8
0
100
AcDbBlockEnd
  0
BLOCK
  5
2673
330
266F
100
AcDbEntity
  8
0
100
AcDbBlockBegin
  2
_Open90
 70
     0
 10
0.0
 20
0.0
 30
0.0
  3
_Open90
  1

  0
LINE
  5
2670
330
266F
100
AcDbEntity
  8
0
  6
ByBlock
 62
     0
370
    -2
100
AcDbLine
 10
-0.5
 20
0.5
 30
0.0
 11
0.0
 21
0.0
 31
0.0
  0
LINE
  5
2671
330
266F
100
AcDbEntity
  8
0
  6
ByBlock
 62
     0
370
    -2
100
AcDbLine
 10
0.0
 20
0.0
 30
0.0
 11
-0.5
 21
-0.5
 31
0.0
  0
LINE
  5
2672
330
266F
100
AcDbEntity
  8
0
  6
ByBlock
 62
     0
370
    -2
100
AcDbLine
 10
0.0
 20
0.0
 30
0.0
 11
-1.0
 21
0.0
 31
0.0
  0
ENDBLK
  5
2674
330
266F
100
AcDbEntity
  8
0
100
AcDbBlockEnd
  0
BLOCK
  5
3913
330
3910
100
AcDbEntity
  8
0
100
AcDbBlockBegin
  2
_Origin
 70
     0
 10
0.0
 20
0.0
 30
0.0
  3
_Origin
  1

  0
CIRCLE
  5
3911
330
3910
100
AcDbEntity
  8
0
  6
ByBlock
 62
     0
370
    -2
100
AcDbCircle
 10
0.0
 20
0.0
 30
0.0
 40
0.5
  0
LINE
  5
3912
330
3910
100
AcDbEntity
  8
0
  6
ByBlock
 62
     0
370
    -2
100
AcDbLine
 10
0.0
 20
0.0
 30
0.0
 11
-1.0
 21
0.0
 31
0.0
  0
ENDBLK
  5
3914
330
3910
100
AcDbEntity
  8
0
100
AcDbBlockEnd
  0
BLOCK
  5
5494
330
548A
100
AcDbEntity
  8
0
100
AcDbBlockBegin
  2
*D3
 70
     1
 10
0.0
 20
0.0
 30
0.0
  3
*D3
  1

  0
LINE
  5
6894
330
548A
100
AcDbEntity
  8
01-寸法線
 62
     4
440
 16777216
370
    13
100
AcDbLine
 10
-8184.374124451593
 20
1503.989916480886
 30
0.0
 11
-8184.374124451593
 21
1403.989916480887
 31
0.0
  0
LINE
  5
6895
330
548A
100
AcDbEntity
  8
01-寸法線
 62
     4
440
 16777216
370
    13
100
AcDbLine
 10
-8014.374124451594
 20
1503.989916480886
 30
0.0
 11
-8014.374124451594
 21
1403.989916480887
 31
0.0
  0
LINE
  5
6896
330
548A
100
AcDbEntity
  8
01-寸法線
 62
     4
440
 16777216
370
    13
100
AcDbLine
 10
-8164.374124451594
 20
1413.989916480886
 30
0.0
 11
-8034.374124451593
 21
1413.989916480886
 31
0.0
  0
INSERT
  5
6897
330
548A
100
AcDbEntity
  8
01-寸法線
 62
     4
440
 16777216
370
    13
100
AcDbBlockReference
  2
_OPEN
 10
-8184.374124451593
 20
1413.989916480886
 30
0.0
 41
20.0
 42
20.0
 43
20.0
 50
180.0
  0
INSERT
  5
6898
330
548A
100
AcDbEntity
  8
01-寸法線
 62
     4
440
 16777216
370
    13
100
AcDbBlockReference
  2
_OPEN
 10
-8014.374124451594
 20
1413.989916480886
 30
0.0
 41
20.0
 42
20.0
 43
20.0
  0
MTEXT
  5
6899
330
548A
100
AcDbEntity
  8
01-寸法線
 62
     4
440
 16777216
100
AcDbMText
 10
-8099.374124451593
 20
1433.989916480887
 30
0.0
 40
30.0
 41
0.0
 71
     5
 72
     1
  1
\A1;170
  7
ｵﾘｼﾞﾅﾙｽﾀｲﾙ
 73
     1
 44
1.0
  0
POINT
  5
689A
330
548A
100
AcDbEntity
  8
DEFPOINTS
 62
     0
440
 16777216
100
AcDbPoint
 10
-8184.374124451593
 20
1513.989916480887
 30
0.0
  0
POINT
  5
689B
330
548A
100
AcDbEntity
  8
DEFPOINTS
 62
     0
440
 16777216
100
AcDbPoint
 10
-8014.374124451594
 20
1513.989916480887
 30
0.0
  0
POINT
  5
689C
330
548A
100
AcDbEntity
  8
DEFPOINTS
 62
     0
440
 16777216
100
AcDbPoint
 10
-8014.374124451594
 20
1413.989916480886
 30
0.0
  0
ENDBLK
  5
5495
330
548A
100
AcDbEntity
  8
0
100
AcDbBlockEnd
  0
BLOCK
  5
57A7
330
579B
100
AcDbEntity
  8
0
100
AcDbBlockBegin
  2
*D4
 70
     1
 10
0.0
 20
0.0
 30
0.0
  3
*D4
  1

  0
LINE
  5
6889
330
579B
100
AcDbEntity
  8
01-寸法線
 62
     4
440
 16777216
370
    13
100
AcDbLine
 10
-8194.374124451593
 20
1638.989916480887
 30
0.0
 11
-8294.374124451593
 21
1638.989916480887
 31
0.0
  0
LINE
  5
688A
330
579B
100
AcDbEntity
  8
01-寸法線
 62
     4
440
 16777216
370
    13
100
AcDbLine
 10
-8194.374124451593
 20
1643.989916480886
 30
0.0
 11
-8294.374124451593
 21
1643.989916480886
 31
0.0
  0
LINE
  5
688B
330
579B
100
AcDbEntity
  8
01-寸法線
 62
     4
440
 16777216
370
    13
100
AcDbLine
 10
-8284.374124451593
 20
1618.989916480886
 30
0.0
 11
-8284.374124451593
 21
1598.989916480886
 31
0.0
  0
LINE
  5
688C
330
579B
100
AcDbEntity
  8
01-寸法線
 62
     4
440
 16777216
370
    13
100
AcDbLine
 10
-8284.374124451593
 20
1663.989916480886
 30
0.0
 11
-8284.374124451593
 21
1683.989916480886
 31
0.0
  0
MTEXT
  5
688D
330
579B
100
AcDbEntity
  8
01-寸法線
 62
     4
440
 16777216
100
AcDbMText
 10
-8304.374124451593
 20
1618.989916480886
 30
0.0
 40
30.0
 41
0.0
 71
     5
 72
     1
  1
\A1;5
  7
ｵﾘｼﾞﾅﾙｽﾀｲﾙ
 11
0.0000000000000001
 21
1.0
 31
0.0
 73
     1
 44
1.0
  0
LINE
  5
688E
330
579B
100
AcDbEntity
  8
01-寸法線
 62
     4
440
 16777216
370
    13
100
AcDbLine
 10
-8284.374124451593
 20
1638.989916480887
 30
0.0
 11
-8284.374124451593
 21
1643.989916480886
 31
0.0
  0
INSERT
  5
688F
330
579B
100
AcDbEntity
  8
01-寸法線
 62
     4
440
 16777216
370
    13
100
AcDbBlockReference
  2
_OPEN
 10
-8284.374124451593
 20
1638.989916480887
 30
0.0
 41
20.0
 42
20.0
 43
20.0
 50
90.0
  0
INSERT
  5
6890
330
579B
100
AcDbEntity
  8
01-寸法線
 62
     4
440
 16777216
370
    13
100
AcDbBlockReference
  2
_OPEN
 10
-8284.374124451593
 20
1643.989916480886
 30
0.0
 41
20.0
 42
20.0
 43
20.0
 50
270.0
  0
POINT
  5
6891
330
579B
100
AcDbEntity
  8
DEFPOINTS
 62
     0
440
 16777216
100
AcDbPoint
 10
-8184.374124451593
 20
1638.989916480887
 30
0.0
  0
POINT
  5
6892
330
579B
100
AcDbEntity
  8
DEFPOINTS
 62
     0
440
 16777216
100
AcDbPoint
 10
-8184.374124451593
 20
1643.989916480886
 30
0.0
  0
POINT
  5
6893
330
579B
100
AcDbEntity
  8
DEFPOINTS
 62
     0
440
 16777216
100
AcDbPoint
 10
-8284.374124451593
 20
1643.989916480886
 30
0.0
  0
ENDBLK
  5
57A8
330
579B
100
AcDbEntity
  8
0
100
AcDbBlockEnd
  0
BLOCK
  5
57B4
330
57AA
100
AcDbEntity
  8
0
100
AcDbBlockBegin
  2
*D5
 70
     1
 10
0.0
 20
0.0
 30
0.0
  3
*D5
  1

  0
LINE
  5
68B1
330
57AA
100
AcDbEntity
  8
01-寸法線
 62
     4
440
 16777216
370
    13
100
AcDbLine
 10
-8194.374124451593
 20
1643.989916480886
 30
0.0
 11
-8294.374124451593
 21
1643.989916480886
 31
0.0
  0
LINE
  5
68B2
330
57AA
100
AcDbEntity
  8
01-寸法線
 62
     4
440
 16777216
370
    13
100
AcDbLine
 10
-8194.374124451593
 20
1693.989916480887
 30
0.0
 11
-8294.374124451593
 21
1693.989916480887
 31
0.0
  0
LINE
  5
68B3
330
57AA
100
AcDbEntity
  8
01-寸法線
 62
     4
440
 16777216
370
    13
100
AcDbLine
 10
-8284.374124451593
 20
1663.989916480886
 30
0.0
 11
-8284.374124451593
 21
1673.989916480887
 31
0.0
  0
INSERT
  5
68B4
330
57AA
100
AcDbEntity
  8
01-寸法線
 62
     4
440
 16777216
370
    13
100
AcDbBlockReference
  2
_OPEN
 10
-8284.374124451593
 20
1643.989916480886
 30
0.0
 41
20.0
 42
20.0
 43
20.0
 50
270.0
  0
INSERT
  5
68B5
330
57AA
100
AcDbEntity
  8
01-寸法線
 62
     4
440
 16777216
370
    13
100
AcDbBlockReference
  2
_OPEN
 10
-8284.374124451593
 20
1693.989916480887
 30
0.0
 41
20.0
 42
20.0
 43
20.0
 50
90.0
  0
MTEXT
  5
68B6
330
57AA
100
AcDbEntity
  8
01-寸法線
 62
     4
440
 16777216
100
AcDbMText
 10
-8304.374124451593
 20
1668.989916480885
 30
0.0
 40
30.0
 41
0.0
 71
     5
 72
     1
  1
\A1;50
  7
ｵﾘｼﾞﾅﾙｽﾀｲﾙ
 11
0.0000000000000001
 21
1.0
 31
0.0
 73
     1
 44
1.0
  0
POINT
  5
68B7
330
57AA
100
AcDbEntity
  8
DEFPOINTS
 62
     0
440
 16777216
100
AcDbPoint
 10
-8184.374124451593
 20
1643.989916480886
 30
0.0
  0
POINT
  5
68B8
330
57AA
100
AcDbEntity
  8
DEFPOINTS
 62
     0
440
 16777216
100
AcDbPoint
 10
-8184.374124451593
 20
1693.989916480887
 30
0.0
  0
POINT
  5
68B9
330
57AA
100
AcDbEntity
  8
DEFPOINTS
 62
     0
440
 16777216
100
AcDbPoint
 10
-8284.374124451593
 20
1693.989916480887
 30
0.0
  0
ENDBLK
  5
57B5
330
57AA
100
AcDbEntity
  8
0
100
AcDbBlockEnd
  0
BLOCK
  5
57C3
330
57B7
100
AcDbEntity
  8
0
100
AcDbBlockBegin
  2
*D6
 70
     1
 10
0.0
 20
0.0
 30
0.0
  3
*D6
  1

  0
LINE
  5
68A6
330
57B7
100
AcDbEntity
  8
01-寸法線
 62
     4
440
 16777216
370
    13
100
AcDbLine
 10
-8194.374124451593
 20
1693.989916480887
 30
0.0
 11
-8294.374124451593
 21
1693.989916480887
 31
0.0
  0
LINE
  5
68A7
330
57B7
100
AcDbEntity
  8
01-寸法線
 62
     4
440
 16777216
370
    13
100
AcDbLine
 10
-8194.374124451593
 20
1713.989916480886
 30
0.0
 11
-8294.374124451593
 21
1713.989916480886
 31
0.0
  0
LINE
  5
68A8
330
57B7
100
AcDbEntity
  8
01-寸法線
 62
     4
440
 16777216
370
    13
100
AcDbLine
 10
-8284.374124451593
 20
1673.989916480887
 30
0.0
 11
-8284.374124451593
 21
1653.989916480886
 31
0.0
  0
LINE
  5
68A9
330
57B7
100
AcDbEntity
  8
01-寸法線
 62
     4
440
 16777216
370
    13
100
AcDbLine
 10
-8284.374124451593
 20
1733.989916480886
 30
0.0
 11
-8284.374124451593
 21
1753.989916480887
 31
0.0
  0
MTEXT
  5
68AA
330
57B7
100
AcDbEntity
  8
01-寸法線
 62
     4
440
 16777216
100
AcDbMText
 10
-8304.374124451593
 20
1733.989916480886
 30
0.0
 40
30.0
 41
0.0
 71
     5
 72
     1
  1
\A1;20
  7
ｵﾘｼﾞﾅﾙｽﾀｲﾙ
 11
0.0000000000000001
 21
1.0
 31
0.0
 73
     1
 44
1.0
  0
LINE
  5
68AB
330
57B7
100
AcDbEntity
  8
01-寸法線
 62
     4
440
 16777216
370
    13
100
AcDbLine
 10
-8284.374124451593
 20
1693.989916480887
 30
0.0
 11
-8284.374124451593
 21
1713.989916480886
 31
0.0
  0
INSERT
  5
68AC
330
57B7
100
AcDbEntity
  8
01-寸法線
 62
     4
440
 16777216
370
    13
100
AcDbBlockReference
  2
_OPEN
 10
-8284.374124451593
 20
1693.989916480887
 30
0.0
 41
20.0
 42
20.0
 43
20.0
 50
90.0
  0
INSERT
  5
68AD
330
57B7
100
AcDbEntity
  8
01-寸法線
 62
     4
440
 16777216
370
    13
100
AcDbBlockReference
  2
_OPEN
 10
-8284.374124451593
 20
1713.989916480886
 30
0.0
 41
20.0
 42
20.0
 43
20.0
 50
270.0
  0
POINT
  5
68AE
330
57B7
100
AcDbEntity
  8
DEFPOINTS
 62
     0
440
 16777216
100
AcDbPoint
 10
-8184.374124451593
 20
1693.989916480887
 30
0.0
  0
POINT
  5
68AF
330
57B7
100
AcDbEntity
  8
DEFPOINTS
 62
     0
440
 16777216
100
AcDbPoint
 10
-8184.374124451593
 20
1713.989916480886
 30
0.0
  0
POINT
  5
68B0
330
57B7
100
AcDbEntity
  8
DEFPOINTS
 62
     0
440
 16777216
100
AcDbPoint
 10
-8284.374124451593
 20
1713.989916480886
 30
0.0
  0
ENDBLK
  5
57C4
330
57B7
100
AcDbEntity
  8
0
100
AcDbBlockEnd
  0
BLOCK
  5
581D
330
5813
100
AcDbEntity
  8
0
100
AcDbBlockBegin
  2
*D7
 70
     1
 10
0.0
 20
0.0
 30
0.0
  3
*D7
  1

  0
LINE
  5
689D
330
5813
100
AcDbEntity
  8
01-寸法線
 62
     4
440
 16777216
370
    13
100
AcDbLine
 10
-8184.374124451593
 20
1723.989916480887
 30
0.0
 11
-8184.374124451593
 21
1823.989916480886
 31
0.0
  0
LINE
  5
689E
330
5813
100
AcDbEntity
  8
01-寸法線
 62
     4
440
 16777216
370
    13
100
AcDbLine
 10
-8034.374124451593
 20
1723.989916480887
 30
0.0
 11
-8034.374124451593
 21
1823.989916480886
 31
0.0
  0
LINE
  5
689F
330
5813
100
AcDbEntity
  8
01-寸法線
 62
     4
440
 16777216
370
    13
100
AcDbLine
 10
-8164.374124451594
 20
1813.989916480887
 30
0.0
 11
-8054.374124451593
 21
1813.989916480887
 31
0.0
  0
INSERT
  5
68A0
330
5813
100
AcDbEntity
  8
01-寸法線
 62
     4
440
 16777216
370
    13
100
AcDbBlockReference
  2
_OPEN
 10
-8184.374124451593
 20
1813.989916480887
 30
0.0
 41
20.0
 42
20.0
 43
20.0
 50
180.0
  0
INSERT
  5
68A1
330
5813
100
AcDbEntity
  8
01-寸法線
 62
     4
440
 16777216
370
    13
100
AcDbBlockReference
  2
_OPEN
 10
-8034.374124451593
 20
1813.989916480887
 30
0.0
 41
20.0
 42
20.0
 43
20.0
  0
MTEXT
  5
68A2
330
5813
100
AcDbEntity
  8
01-寸法線
 62
     4
440
 16777216
100
AcDbMText
 10
-8109.374124451594
 20
1833.989916480886
 30
0.0
 40
30.0
 41
0.0
 71
     5
 72
     1
  1
\A1;150
  7
ｵﾘｼﾞﾅﾙｽﾀｲﾙ
 73
     1
 44
1.0
  0
POINT
  5
68A3
330
5813
100
AcDbEntity
  8
DEFPOINTS
 62
     0
440
 16777216
100
AcDbPoint
 10
-8184.374124451593
 20
1713.989916480886
 30
0.0
  0
POINT
  5
68A4
330
5813
100
AcDbEntity
  8
DEFPOINTS
 62
     0
440
 16777216
100
AcDbPoint
 10
-8034.374124451593
 20
1713.989916480886
 30
0.0
  0
POINT
  5
68A5
330
5813
100
AcDbEntity
  8
DEFPOINTS
 62
     0
440
 16777216
100
AcDbPoint
 10
-8034.374124451593
 20
1813.989916480887
 30
0.0
  0
ENDBLK
  5
581E
330
5813
100
AcDbEntity
  8
0
100
AcDbBlockEnd
  0
BLOCK
  5
583F
330
5835
100
AcDbEntity
  8
0
100
AcDbBlockBegin
  2
*D8
 70
     1
 10
0.0
 20
0.0
 30
0.0
  3
*D8
  1

  0
LINE
  5
6880
330
5835
100
AcDbEntity
  8
01-寸法線
 62
     4
440
 16777216
370
    13
100
AcDbLine
 10
-8004.374124451592
 20
1513.989916480887
 30
0.0
 11
-7904.374124451592
 21
1513.989916480887
 31
0.0
  0
LINE
  5
6881
330
5835
100
AcDbEntity
  8
01-寸法線
 62
     4
440
 16777216
370
    13
100
AcDbLine
 10
-8024.374124451593
 20
1713.989916480886
 30
0.0
 11
-7904.374124451592
 21
1713.989916480886
 31
0.0
  0
LINE
  5
6882
330
5835
100
AcDbEntity
  8
01-寸法線
 62
     4
440
 16777216
370
    13
100
AcDbLine
 10
-7914.374124451594
 20
1533.989916480886
 30
0.0
 11
-7914.374124451594
 21
1693.989916480887
 31
0.0
  0
INSERT
  5
6883
330
5835
100
AcDbEntity
  8
01-寸法線
 62
     4
440
 16777216
370
    13
100
AcDbBlockReference
  2
_OPEN
 10
-7914.374124451594
 20
1513.989916480887
 30
0.0
 41
20.0
 42
20.0
 43
20.0
 50
270.0
  0
INSERT
  5
6884
330
5835
100
AcDbEntity
  8
01-寸法線
 62
     4
440
 16777216
370
    13
100
AcDbBlockReference
  2
_OPEN
 10
-7914.374124451594
 20
1713.989916480886
 30
0.0
 41
20.0
 42
20.0
 43
20.0
 50
90.0
  0
MTEXT
  5
6885
330
5835
100
AcDbEntity
  8
01-寸法線
 62
     4
440
 16777216
100
AcDbMText
 10
-7934.374124451593
 20
1613.989916480885
 30
0.0
 40
30.0
 41
0.0
 71
     5
 72
     1
  1
\A1;200
  7
ｵﾘｼﾞﾅﾙｽﾀｲﾙ
 11
0.0000000000000001
 21
1.0
 31
0.0
 73
     1
 44
1.0
  0
POINT
  5
6886
330
5835
100
AcDbEntity
  8
DEFPOINTS
 62
     0
440
 16777216
100
AcDbPoint
 10
-8014.374124451594
 20
1513.989916480887
 30
0.0
  0
POINT
  5
6887
330
5835
100
AcDbEntity
  8
DEFPOINTS
 62
     0
440
 16777216
100
AcDbPoint
 10
-8034.374124451593
 20
1713.989916480886
 30
0.0
  0
POINT
  5
6888
330
5835
100
AcDbEntity
  8
DEFPOINTS
 62
     0
440
 16777216
100
AcDbPoint
 10
-7914.374124451594
 20
1713.989916480886
 30
0.0
  0
ENDBLK
  5
5840
330
5835
100
AcDbEntity
  8
0
100
AcDbBlockEnd
  0
BLOCK
  5
58BC
330
58B2
100
AcDbEntity
  8
0
100
AcDbBlockBegin
  2
*D9
 70
     1
 10
0.0
 20
0.0
 30
0.0
  3
*D9
  1

  0
LINE
  5
6877
330
58B2
100
AcDbEntity
  8
01-寸法線
 62
     4
440
 16777216
370
    13
100
AcDbLine
 10
-7614.374124451593
 20
1723.989916480887
 30
0.0
 11
-7614.374124451593
 21
1823.989916480886
 31
0.0
  0
LINE
  5
6878
330
58B2
100
AcDbEntity
  8
01-寸法線
 62
     4
440
 16777216
370
    13
100
AcDbLine
 10
-7014.374124451594
 20
1723.989916480887
 30
0.0
 11
-7014.374124451594
 21
1823.989916480886
 31
0.0
  0
LINE
  5
6879
330
58B2
100
AcDbEntity
  8
01-寸法線
 62
     4
440
 16777216
370
    13
100
AcDbLine
 10
-7594.374124451594
 20
1813.989916480887
 30
0.0
 11
-7034.374124451594
 21
1813.989916480887
 31
0.0
  0
INSERT
  5
687A
330
58B2
100
AcDbEntity
  8
01-寸法線
 62
     4
440
 16777216
370
    13
100
AcDbBlockReference
  2
_OPEN
 10
-7614.374124451593
 20
1813.989916480887
 30
0.0
 41
20.0
 42
20.0
 43
20.0
 50
180.0
  0
INSERT
  5
687B
330
58B2
100
AcDbEntity
  8
01-寸法線
 62
     4
440
 16777216
370
    13
100
AcDbBlockReference
  2
_OPEN
 10
-7014.374124451594
 20
1813.989916480887
 30
0.0
 41
20.0
 42
20.0
 43
20.0
  0
MTEXT
  5
687C
330
58B2
100
AcDbEntity
  8
01-寸法線
 62
     4
440
 16777216
100
AcDbMText
 10
-7314.374124451593
 20
1833.989916480886
 30
0.0
 40
30.0
 41
0.0
 71
     5
 72
     1
  1
\A1;600
  7
ｵﾘｼﾞﾅﾙｽﾀｲﾙ
 73
     1
 44
1.0
  0
POINT
  5
687D
330
58B2
100
AcDbEntity
  8
DEFPOINTS
 62
     0
440
 16777216
100
AcDbPoint
 10
-7614.374124451593
 20
1713.989916480886
 30
0.0
  0
POINT
  5
687E
330
58B2
100
AcDbEntity
  8
DEFPOINTS
 62
     0
440
 16777216
100
AcDbPoint
 10
-7014.374124451594
 20
1713.989916480886
 30
0.0
  0
POINT
  5
687F
330
58B2
100
AcDbEntity
  8
DEFPOINTS
 62
     0
440
 16777216
100
AcDbPoint
 10
-7014.374124451594
 20
1813.989916480887
 30
0.0
  0
ENDBLK
  5
58BD
330
58B2
100
AcDbEntity
  8
0
100
AcDbBlockEnd
  0
BLOCK
  5
58C9
330
58BF
100
AcDbEntity
  8
0
100
AcDbBlockBegin
  2
*D10
 70
     1
 10
0.0
 20
0.0
 30
0.0
  3
*D10
  1

  0
LINE
  5
68BA
330
58BF
100
AcDbEntity
  8
01-寸法線
 62
     4
440
 16777216
370
    13
100
AcDbLine
 10
-7004.374124451593
 20
1513.989916480887
 30
0.0
 11
-6904.374124451592
 21
1513.989916480887
 31
0.0
  0
LINE
  5
68BB
330
58BF
100
AcDbEntity
  8
01-寸法線
 62
     4
440
 16777216
370
    13
100
AcDbLine
 10
-7004.374124451593
 20
1713.989916480886
 30
0.0
 11
-6904.374124451592
 21
1713.989916480886
 31
0.0
  0
LINE
  5
68BC
330
58BF
100
AcDbEntity
  8
01-寸法線
 62
     4
440
 16777216
370
    13
100
AcDbLine
 10
-6914.374124451594
 20
1533.989916480886
 30
0.0
 11
-6914.374124451594
 21
1693.989916480887
 31
0.0
  0
INSERT
  5
68BD
330
58BF
100
AcDbEntity
  8
01-寸法線
 62
     4
440
 16777216
370
    13
100
AcDbBlockReference
  2
_OPEN
 10
-6914.374124451594
 20
1513.989916480887
 30
0.0
 41
20.0
 42
20.0
 43
20.0
 50
270.0
  0
INSERT
  5
68BE
330
58BF
100
AcDbEntity
  8
01-寸法線
 62
     4
440
 16777216
370
    13
100
AcDbBlockReference
  2
_OPEN
 10
-6914.374124451594
 20
1713.989916480886
 30
0.0
 41
20.0
 42
20.0
 43
20.0
 50
90.0
  0
MTEXT
  5
68BF
330
58BF
100
AcDbEntity
  8
01-寸法線
 62
     4
440
 16777216
100
AcDbMText
 10
-6934.374124451593
 20
1613.989916480885
 30
0.0
 40
30.0
 41
0.0
 71
     5
 72
     1
  1
\A1;200
  7
ｵﾘｼﾞﾅﾙｽﾀｲﾙ
 11
0.0000000000000001
 21
1.0
 31
0.0
 73
     1
 44
1.0
  0
POINT
  5
68C0
330
58BF
100
AcDbEntity
  8
DEFPOINTS
 62
     0
440
 16777216
100
AcDbPoint
 10
-7014.374124451594
 20
1513.989916480887
 30
0.0
  0
POINT
  5
68C1
330
58BF
100
AcDbEntity
  8
DEFPOINTS
 62
     0
440
 16777216
100
AcDbPoint
 10
-7014.374124451594
 20
1713.989916480886
 30
0.0
  0
POINT
  5
68C2
330
58BF
100
AcDbEntity
  8
DEFPOINTS
 62
     0
440
 16777216
100
AcDbPoint
 10
-6914.374124451594
 20
1713.989916480886
 30
0.0
  0
ENDBLK
  5
58CA
330
58BF
100
AcDbEntity
  8
0
100
AcDbBlockEnd
  0
BLOCK
  5
5D92
330
5D86
100
AcDbEntity
  8
0
100
AcDbBlockBegin
  2
*D11
 70
     1
 10
0.0
 20
0.0
 30
0.0
  3
*D11
  1

  0
LINE
  5
685A
330
5D86
100
AcDbEntity
  8
01-寸法線
 62
     4
440
 16777216
370
    13
100
AcDbLine
 10
-8191.694632527282
 20
973.9899164808866
 30
0.0
 11
-8291.694632527281
 21
973.9899164808866
 31
0.0
  0
LINE
  5
685B
330
5D86
100
AcDbEntity
  8
01-寸法線
 62
     4
440
 16777216
370
    13
100
AcDbLine
 10
-8191.694632527282
 20
978.9899164808865
 30
0.0
 11
-8291.694632527281
 21
978.9899164808865
 31
0.0
  0
LINE
  5
685C
330
5D86
100
AcDbEntity
  8
01-寸法線
 62
     4
440
 16777216
370
    13
100
AcDbLine
 10
-8281.694632527281
 20
953.9899164808867
 30
0.0
 11
-8281.694632527281
 21
933.9899164808867
 31
0.0
  0
LINE
  5
685D
330
5D86
100
AcDbEntity
  8
01-寸法線
 62
     4
440
 16777216
370
    13
100
AcDbLine
 10
-8281.694632527281
 20
998.9899164808864
 30
0.0
 11
-8281.694632527281
 21
1018.989916480886
 31
0.0
  0
MTEXT
  5
685E
330
5D86
100
AcDbEntity
  8
01-寸法線
 62
     4
440
 16777216
100
AcDbMText
 10
-8301.694632527283
 20
953.9899164808867
 30
0.0
 40
30.0
 41
0.0
 71
     5
 72
     1
  1
\A1;5
  7
ｵﾘｼﾞﾅﾙｽﾀｲﾙ
 11
0.0000000000000001
 21
1.0
 31
0.0
 73
     1
 44
1.0
  0
LINE
  5
685F
330
5D86
100
AcDbEntity
  8
01-寸法線
 62
     4
440
 16777216
370
    13
100
AcDbLine
 10
-8281.694632527281
 20
973.9899164808866
 30
0.0
 11
-8281.694632527281
 21
978.9899164808865
 31
0.0
  0
INSERT
  5
6860
330
5D86
100
AcDbEntity
  8
01-寸法線
 62
     4
440
 16777216
370
    13
100
AcDbBlockReference
  2
_OPEN
 10
-8281.694632527281
 20
973.9899164808866
 30
0.0
 41
20.0
 42
20.0
 43
20.0
 50
90.0
  0
INSERT
  5
6861
330
5D86
100
AcDbEntity
  8
01-寸法線
 62
     4
440
 16777216
370
    13
100
AcDbBlockReference
  2
_OPEN
 10
-8281.694632527281
 20
978.9899164808865
 30
0.0
 41
20.0
 42
20.0
 43
20.0
 50
270.0
  0
POINT
  5
6862
330
5D86
100
AcDbEntity
  8
DEFPOINTS
 62
     0
440
 16777216
100
AcDbPoint
 10
-8181.694632527282
 20
973.9899164808866
 30
0.0
  0
POINT
  5
6863
330
5D86
100
AcDbEntity
  8
DEFPOINTS
 62
     0
440
 16777216
100
AcDbPoint
 10
-8181.694632527282
 20
978.9899164808865
 30
0.0
  0
POINT
  5
6864
330
5D86
100
AcDbEntity
  8
DEFPOINTS
 62
     0
440
 16777216
100
AcDbPoint
 10
-8281.694632527281
 20
978.9899164808865
 30
0.0
  0
ENDBLK
  5
5D93
330
5D86
100
AcDbEntity
  8
0
100
AcDbBlockEnd
  0
BLOCK
  5
5D9E
330
5D94
100
AcDbEntity
  8
0
100
AcDbBlockBegin
  2
*D12
 70
     1
 10
0.0
 20
0.0
 30
0.0
  3
*D12
  1

  0
LINE
  5
6865
330
5D94
100
AcDbEntity
  8
01-寸法線
 62
     4
440
 16777216
370
    13
100
AcDbLine
 10
-8191.694632527282
 20
978.9899164808865
 30
0.0
 11
-8291.694632527281
 21
978.9899164808865
 31
0.0
  0
LINE
  5
6866
330
5D94
100
AcDbEntity
  8
01-寸法線
 62
     4
440
 16777216
370
    13
100
AcDbLine
 10
-8191.694632527282
 20
1028.989916480886
 30
0.0
 11
-8291.694632527281
 21
1028.989916480886
 31
0.0
  0
LINE
  5
6867
330
5D94
100
AcDbEntity
  8
01-寸法線
 62
     4
440
 16777216
370
    13
100
AcDbLine
 10
-8281.694632527281
 20
998.9899164808864
 30
0.0
 11
-8281.694632527281
 21
1008.989916480887
 31
0.0
  0
INSERT
  5
6868
330
5D94
100
AcDbEntity
  8
01-寸法線
 62
     4
440
 16777216
370
    13
100
AcDbBlockReference
  2
_OPEN
 10
-8281.694632527281
 20
978.9899164808865
 30
0.0
 41
20.0
 42
20.0
 43
20.0
 50
270.0
  0
INSERT
  5
6869
330
5D94
100
AcDbEntity
  8
01-寸法線
 62
     4
440
 16777216
370
    13
100
AcDbBlockReference
  2
_OPEN
 10
-8281.694632527281
 20
1028.989916480886
 30
0.0
 41
20.0
 42
20.0
 43
20.0
 50
90.0
  0
MTEXT
  5
686A
330
5D94
100
AcDbEntity
  8
01-寸法線
 62
     4
440
 16777216
100
AcDbMText
 10
-8301.694632527283
 20
1003.989916480885
 30
0.0
 40
30.0
 41
0.0
 71
     5
 72
     1
  1
\A1;50
  7
ｵﾘｼﾞﾅﾙｽﾀｲﾙ
 11
0.0000000000000001
 21
1.0
 31
0.0
 73
     1
 44
1.0
  0
POINT
  5
686B
330
5D94
100
AcDbEntity
  8
DEFPOINTS
 62
     0
440
 16777216
100
AcDbPoint
 10
-8181.694632527282
 20
978.9899164808865
 30
0.0
  0
POINT
  5
686C
330
5D94
100
AcDbEntity
  8
DEFPOINTS
 62
     0
440
 16777216
100
AcDbPoint
 10
-8181.694632527282
 20
1028.989916480886
 30
0.0
  0
POINT
  5
686D
330
5D94
100
AcDbEntity
  8
DEFPOINTS
 62
     0
440
 16777216
100
AcDbPoint
 10
-8281.694632527281
 20
1028.989916480886
 30
0.0
  0
ENDBLK
  5
5D9F
330
5D94
100
AcDbEntity
  8
0
100
AcDbBlockEnd
  0
BLOCK
  5
5DAC
330
5DA0
100
AcDbEntity
  8
0
100
AcDbBlockBegin
  2
*D13
 70
     1
 10
0.0
 20
0.0
 30
0.0
  3
*D13
  1

  0
LINE
  5
684F
330
5DA0
100
AcDbEntity
  8
01-寸法線
 62
     4
440
 16777216
370
    13
100
AcDbLine
 10
-8191.694632527282
 20
1028.989916480886
 30
0.0
 11
-8291.694632527281
 21
1028.989916480886
 31
0.0
  0
LINE
  5
6850
330
5DA0
100
AcDbEntity
  8
01-寸法線
 62
     4
440
 16777216
370
    13
100
AcDbLine
 10
-8191.694632527282
 20
1048.989916480886
 30
0.0
 11
-8291.694632527281
 21
1048.989916480886
 31
0.0
  0
LINE
  5
6851
330
5DA0
100
AcDbEntity
  8
01-寸法線
 62
     4
440
 16777216
370
    13
100
AcDbLine
 10
-8281.694632527281
 20
1008.989916480887
 30
0.0
 11
-8281.694632527281
 21
988.9899164808866
 31
0.0
  0
LINE
  5
6852
330
5DA0
100
AcDbEntity
  8
01-寸法線
 62
     4
440
 16777216
370
    13
100
AcDbLine
 10
-8281.694632527281
 20
1068.989916480886
 30
0.0
 11
-8281.694632527281
 21
1088.989916480886
 31
0.0
  0
MTEXT
  5
6853
330
5DA0
100
AcDbEntity
  8
01-寸法線
 62
     4
440
 16777216
100
AcDbMText
 10
-8301.694632527283
 20
1068.989916480886
 30
0.0
 40
30.0
 41
0.0
 71
     5
 72
     1
  1
\A1;20
  7
ｵﾘｼﾞﾅﾙｽﾀｲﾙ
 11
0.0000000000000001
 21
1.0
 31
0.0
 73
     1
 44
1.0
  0
LINE
  5
6854
330
5DA0
100
AcDbEntity
  8
01-寸法線
 62
     4
440
 16777216
370
    13
100
AcDbLine
 10
-8281.694632527281
 20
1028.989916480886
 30
0.0
 11
-8281.694632527281
 21
1048.989916480886
 31
0.0
  0
INSERT
  5
6855
330
5DA0
100
AcDbEntity
  8
01-寸法線
 62
     4
440
 16777216
370
    13
100
AcDbBlockReference
  2
_OPEN
 10
-8281.694632527281
 20
1028.989916480886
 30
0.0
 41
20.0
 42
20.0
 43
20.0
 50
90.0
  0
INSERT
  5
6856
330
5DA0
100
AcDbEntity
  8
01-寸法線
 62
     4
440
 16777216
370
    13
100
AcDbBlockReference
  2
_OPEN
 10
-8281.694632527281
 20
1048.989916480886
 30
0.0
 41
20.0
 42
20.0
 43
20.0
 50
270.0
  0
POINT
  5
6857
330
5DA0
100
AcDbEntity
  8
DEFPOINTS
 62
     0
440
 16777216
100
AcDbPoint
 10
-8181.694632527282
 20
1028.989916480886
 30
0.0
  0
POINT
  5
6858
330
5DA0
100
AcDbEntity
  8
DEFPOINTS
 62
     0
440
 16777216
100
AcDbPoint
 10
-8181.694632527282
 20
1048.989916480886
 30
0.0
  0
POINT
  5
6859
330
5DA0
100
AcDbEntity
  8
DEFPOINTS
 62
     0
440
 16777216
100
AcDbPoint
 10
-8281.694632527281
 20
1048.989916480886
 30
0.0
  0
ENDBLK
  5
5DAD
330
5DA0
100
AcDbEntity
  8
0
100
AcDbBlockEnd
  0
BLOCK
  5
5DD0
330
5DC6
100
AcDbEntity
  8
0
100
AcDbBlockBegin
  2
*D14
 70
     1
 10
0.0
 20
0.0
 30
0.0
  3
*D14
  1

  0
LINE
  5
6803
330
5DC6
100
AcDbEntity
  8
01-寸法線
 62
     4
440
 16777216
370
    13
100
AcDbLine
 10
-7611.694632527282
 20
1058.989916480887
 30
0.0
 11
-7611.694632527282
 21
1158.989916480887
 31
0.0
  0
LINE
  5
6804
330
5DC6
100
AcDbEntity
  8
01-寸法線
 62
     4
440
 16777216
370
    13
100
AcDbLine
 10
-7011.694632527282
 20
1058.989916480887
 30
0.0
 11
-7011.694632527282
 21
1158.989916480887
 31
0.0
  0
LINE
  5
6805
330
5DC6
100
AcDbEntity
  8
01-寸法線
 62
     4
440
 16777216
370
    13
100
AcDbLine
 10
-7591.694632527282
 20
1148.989916480886
 30
0.0
 11
-7031.694632527282
 21
1148.989916480886
 31
0.0
  0
INSERT
  5
6806
330
5DC6
100
AcDbEntity
  8
01-寸法線
 62
     4
440
 16777216
370
    13
100
AcDbBlockReference
  2
_OPEN
 10
-7611.694632527282
 20
1148.989916480886
 30
0.0
 41
20.0
 42
20.0
 43
20.0
 50
180.0
  0
INSERT
  5
6807
330
5DC6
100
AcDbEntity
  8
01-寸法線
 62
     4
440
 16777216
370
    13
100
AcDbBlockReference
  2
_OPEN
 10
-7011.694632527282
 20
1148.989916480886
 30
0.0
 41
20.0
 42
20.0
 43
20.0
  0
MTEXT
  5
6808
330
5DC6
100
AcDbEntity
  8
01-寸法線
 62
     4
440
 16777216
100
AcDbMText
 10
-7311.694632527282
 20
1168.989916480887
 30
0.0
 40
30.0
 41
0.0
 71
     5
 72
     1
  1
\A1;600
  7
ｵﾘｼﾞﾅﾙｽﾀｲﾙ
 73
     1
 44
1.0
  0
POINT
  5
6809
330
5DC6
100
AcDbEntity
  8
DEFPOINTS
 62
     0
440
 16777216
100
AcDbPoint
 10
-7611.694632527282
 20
1048.989916480886
 30
0.0
  0
POINT
  5
680A
330
5DC6
100
AcDbEntity
  8
DEFPOINTS
 62
     0
440
 16777216
100
AcDbPoint
 10
-7011.694632527282
 20
1048.989916480886
 30
0.0
  0
POINT
  5
680B
330
5DC6
100
AcDbEntity
  8
DEFPOINTS
 62
     0
440
 16777216
100
AcDbPoint
 10
-7011.694632527282
 20
1148.989916480886
 30
0.0
  0
ENDBLK
  5
5DD1
330
5DC6
100
AcDbEntity
  8
0
100
AcDbBlockEnd
  0
BLOCK
  5
5DDC
330
5DD2
100
AcDbEntity
  8
0
100
AcDbBlockBegin
  2
*D15
 70
     1
 10
0.0
 20
0.0
 30
0.0
  3
*D15
  1

  0
LINE
  5
686E
330
5DD2
100
AcDbEntity
  8
01-寸法線
 62
     4
440
 16777216
370
    13
100
AcDbLine
 10
-7001.694632527282
 20
798.9899164808867
 30
0.0
 11
-6901.694632527282
 21
798.9899164808865
 31
0.0
  0
LINE
  5
686F
330
5DD2
100
AcDbEntity
  8
01-寸法線
 62
     4
440
 16777216
370
    13
100
AcDbLine
 10
-7001.694632527282
 20
1048.989916480886
 30
0.0
 11
-6901.694632527282
 21
1048.989916480886
 31
0.0
  0
LINE
  5
6870
330
5DD2
100
AcDbEntity
  8
01-寸法線
 62
     4
440
 16777216
370
    13
100
AcDbLine
 10
-6911.694632527282
 20
818.9899164808865
 30
0.0
 11
-6911.694632527282
 21
1028.989916480886
 31
0.0
  0
INSERT
  5
6871
330
5DD2
100
AcDbEntity
  8
01-寸法線
 62
     4
440
 16777216
370
    13
100
AcDbBlockReference
  2
_OPEN
 10
-6911.694632527282
 20
798.9899164808865
 30
0.0
 41
20.0
 42
20.0
 43
20.0
 50
270.0
  0
INSERT
  5
6872
330
5DD2
100
AcDbEntity
  8
01-寸法線
 62
     4
440
 16777216
370
    13
100
AcDbBlockReference
  2
_OPEN
 10
-6911.694632527282
 20
1048.989916480886
 30
0.0
 41
20.0
 42
20.0
 43
20.0
 50
90.0
  0
MTEXT
  5
6873
330
5DD2
100
AcDbEntity
  8
01-寸法線
 62
     4
440
 16777216
100
AcDbMText
 10
-6931.694632527282
 20
923.9899164808855
 30
0.0
 40
30.0
 41
0.0
 71
     5
 72
     1
  1
\A1;250
  7
ｵﾘｼﾞﾅﾙｽﾀｲﾙ
 11
0.0000000000000001
 21
1.0
 31
0.0
 73
     1
 44
1.0
  0
POINT
  5
6874
330
5DD2
100
AcDbEntity
  8
DEFPOINTS
 62
     0
440
 16777216
100
AcDbPoint
 10
-7011.694632527282
 20
798.9899164808867
 30
0.0
  0
POINT
  5
6875
330
5DD2
100
AcDbEntity
  8
DEFPOINTS
 62
     0
440
 16777216
100
AcDbPoint
 10
-7011.694632527282
 20
1048.989916480886
 30
0.0
  0
POINT
  5
6876
330
5DD2
100
AcDbEntity
  8
DEFPOINTS
 62
     0
440
 16777216
100
AcDbPoint
 10
-6911.694632527282
 20
1048.989916480886
 30
0.0
  0
ENDBLK
  5
5DDD
330
5DD2
100
AcDbEntity
  8
0
100
AcDbBlockEnd
  0
BLOCK
  5
5E58
330
5E4E
100
AcDbEntity
  8
0
100
AcDbBlockBegin
  2
*D16
 70
     1
 10
0.0
 20
0.0
 30
0.0
  3
*D16
  1

  0
LINE
  5
680C
330
5E4E
100
AcDbEntity
  8
01-寸法線
 62
     4
440
 16777216
370
    13
100
AcDbLine
 10
-7614.374124451593
 20
343.9899164808868
 30
0.0
 11
-7614.374124451593
 21
443.9899164808868
 31
0.0
  0
LINE
  5
680D
330
5E4E
100
AcDbEntity
  8
01-寸法線
 62
     4
440
 16777216
370
    13
100
AcDbLine
 10
-7014.374124451594
 20
343.9899164808868
 30
0.0
 11
-7014.374124451594
 21
443.9899164808868
 31
0.0
  0
LINE
  5
680E
330
5E4E
100
AcDbEntity
  8
01-寸法線
 62
     4
440
 16777216
370
    13
100
AcDbLine
 10
-7594.374124451594
 20
433.9899164808867
 30
0.0
 11
-7034.374124451594
 21
433.9899164808867
 31
0.0
  0
INSERT
  5
680F
330
5E4E
100
AcDbEntity
  8
01-寸法線
 62
     4
440
 16777216
370
    13
100
AcDbBlockReference
  2
_OPEN
 10
-7614.374124451593
 20
433.9899164808867
 30
0.0
 41
20.0
 42
20.0
 43
20.0
 50
180.0
  0
INSERT
  5
6810
330
5E4E
100
AcDbEntity
  8
01-寸法線
 62
     4
440
 16777216
370
    13
100
AcDbBlockReference
  2
_OPEN
 10
-7014.374124451594
 20
433.9899164808867
 30
0.0
 41
20.0
 42
20.0
 43
20.0
  0
MTEXT
  5
6811
330
5E4E
100
AcDbEntity
  8
01-寸法線
 62
     4
440
 16777216
100
AcDbMText
 10
-7314.374124451593
 20
453.9899164808868
 30
0.0
 40
30.0
 41
0.0
 71
     5
 72
     1
  1
\A1;600
  7
ｵﾘｼﾞﾅﾙｽﾀｲﾙ
 73
     1
 44
1.0
  0
POINT
  5
6812
330
5E4E
100
AcDbEntity
  8
DEFPOINTS
 62
     0
440
 16777216
100
AcDbPoint
 10
-7614.374124451593
 20
333.9899164808868
 30
0.0
  0
POINT
  5
6813
330
5E4E
100
AcDbEntity
  8
DEFPOINTS
 62
     0
440
 16777216
100
AcDbPoint
 10
-7014.374124451594
 20
333.9899164808868
 30
0.0
  0
POINT
  5
6814
330
5E4E
100
AcDbEntity
  8
DEFPOINTS
 62
     0
440
 16777216
100
AcDbPoint
 10
-7014.374124451594
 20
433.9899164808867
 30
0.0
  0
ENDBLK
  5
5E59
330
5E4E
100
AcDbEntity
  8
0
100
AcDbBlockEnd
  0
BLOCK
  5
5E72
330
5E66
100
AcDbEntity
  8
0
100
AcDbBlockBegin
  2
*D17
 70
     1
 10
0.0
 20
0.0
 30
0.0
  3
*D17
  1

  0
LINE
  5
681E
330
5E66
100
AcDbEntity
  8
01-寸法線
 62
     4
440
 16777216
370
    13
100
AcDbLine
 10
-8194.374124451593
 20
313.9899164808868
 30
0.0
 11
-8294.374124451593
 21
313.9899164808868
 31
0.0
  0
LINE
  5
681F
330
5E66
100
AcDbEntity
  8
01-寸法線
 62
     4
440
 16777216
370
    13
100
AcDbLine
 10
-8194.374124451593
 20
333.9899164808868
 30
0.0
 11
-8294.374124451593
 21
333.9899164808868
 31
0.0
  0
LINE
  5
6820
330
5E66
100
AcDbEntity
  8
01-寸法線
 62
     4
440
 16777216
370
    13
100
AcDbLine
 10
-8284.374124451593
 20
293.9899164808868
 30
0.0
 11
-8284.374124451593
 21
273.9899164808868
 31
0.0
  0
LINE
  5
6821
330
5E66
100
AcDbEntity
  8
01-寸法線
 62
     4
440
 16777216
370
    13
100
AcDbLine
 10
-8284.374124451593
 20
353.9899164808868
 30
0.0
 11
-8284.374124451593
 21
373.9899164808868
 31
0.0
  0
MTEXT
  5
6822
330
5E66
100
AcDbEntity
  8
01-寸法線
 62
     4
440
 16777216
100
AcDbMText
 10
-8304.374124451593
 20
353.9899164808868
 30
0.0
 40
30.0
 41
0.0
 71
     5
 72
     1
  1
\A1;20
  7
ｵﾘｼﾞﾅﾙｽﾀｲﾙ
 11
0.0000000000000001
 21
1.0
 31
0.0
 73
     1
 44
1.0
  0
LINE
  5
6823
330
5E66
100
AcDbEntity
  8
01-寸法線
 62
     4
440
 16777216
370
    13
100
AcDbLine
 10
-8284.374124451593
 20
313.9899164808868
 30
0.0
 11
-8284.374124451593
 21
333.9899164808868
 31
0.0
  0
INSERT
  5
6824
330
5E66
100
AcDbEntity
  8
01-寸法線
 62
     4
440
 16777216
370
    13
100
AcDbBlockReference
  2
_OPEN
 10
-8284.374124451593
 20
313.9899164808868
 30
0.0
 41
20.0
 42
20.0
 43
20.0
 50
90.0
  0
INSERT
  5
6825
330
5E66
100
AcDbEntity
  8
01-寸法線
 62
     4
440
 16777216
370
    13
100
AcDbBlockReference
  2
_OPEN
 10
-8284.374124451593
 20
333.9899164808868
 30
0.0
 41
20.0
 42
20.0
 43
20.0
 50
270.0
  0
POINT
  5
6826
330
5E66
100
AcDbEntity
  8
DEFPOINTS
 62
     0
440
 16777216
100
AcDbPoint
 10
-8184.374124451593
 20
313.9899164808868
 30
0.0
  0
POINT
  5
6827
330
5E66
100
AcDbEntity
  8
DEFPOINTS
 62
     0
440
 16777216
100
AcDbPoint
 10
-8184.374124451593
 20
333.9899164808868
 30
0.0
  0
POINT
  5
6828
330
5E66
100
AcDbEntity
  8
DEFPOINTS
 62
     0
440
 16777216
100
AcDbPoint
 10
-8284.374124451593
 20
333.9899164808868
 30
0.0
  0
ENDBLK
  5
5E73
330
5E66
100
AcDbEntity
  8
0
100
AcDbBlockEnd
  0
BLOCK
  5
5E8A
330
5E80
100
AcDbEntity
  8
0
100
AcDbBlockBegin
  2
*D18
 70
     1
 10
0.0
 20
0.0
 30
0.0
  3
*D18
  1

  0
LINE
  5
6829
330
5E80
100
AcDbEntity
  8
01-寸法線
 62
     4
440
 16777216
370
    13
100
AcDbLine
 10
-8194.374124451593
 20
263.9899164808866
 30
0.0
 11
-8294.374124451593
 21
263.9899164808866
 31
0.0
  0
LINE
  5
682A
330
5E80
100
AcDbEntity
  8
01-寸法線
 62
     4
440
 16777216
370
    13
100
AcDbLine
 10
-8194.374124451593
 20
313.9899164808868
 30
0.0
 11
-8294.374124451593
 21
313.9899164808868
 31
0.0
  0
LINE
  5
682B
330
5E80
100
AcDbEntity
  8
01-寸法線
 62
     4
440
 16777216
370
    13
100
AcDbLine
 10
-8284.374124451593
 20
283.9899164808866
 30
0.0
 11
-8284.374124451593
 21
293.9899164808868
 31
0.0
  0
INSERT
  5
682C
330
5E80
100
AcDbEntity
  8
01-寸法線
 62
     4
440
 16777216
370
    13
100
AcDbBlockReference
  2
_OPEN
 10
-8284.374124451593
 20
263.9899164808866
 30
0.0
 41
20.0
 42
20.0
 43
20.0
 50
270.0
  0
INSERT
  5
682D
330
5E80
100
AcDbEntity
  8
01-寸法線
 62
     4
440
 16777216
370
    13
100
AcDbBlockReference
  2
_OPEN
 10
-8284.374124451593
 20
313.9899164808868
 30
0.0
 41
20.0
 42
20.0
 43
20.0
 50
90.0
  0
MTEXT
  5
682E
330
5E80
100
AcDbEntity
  8
01-寸法線
 62
     4
440
 16777216
100
AcDbMText
 10
-8304.374124451593
 20
288.9899164808854
 30
0.0
 40
30.0
 41
0.0
 71
     5
 72
     1
  1
\A1;50
  7
ｵﾘｼﾞﾅﾙｽﾀｲﾙ
 11
0.0000000000000001
 21
1.0
 31
0.0
 73
     1
 44
1.0
  0
POINT
  5
682F
330
5E80
100
AcDbEntity
  8
DEFPOINTS
 62
     0
440
 16777216
100
AcDbPoint
 10
-8184.374124451593
 20
263.9899164808866
 30
0.0
  0
POINT
  5
6830
330
5E80
100
AcDbEntity
  8
DEFPOINTS
 62
     0
440
 16777216
100
AcDbPoint
 10
-8184.374124451593
 20
313.9899164808868
 30
0.0
  0
POINT
  5
6831
330
5E80
100
AcDbEntity
  8
DEFPOINTS
 62
     0
440
 16777216
100
AcDbPoint
 10
-8284.374124451593
 20
313.9899164808868
 30
0.0
  0
ENDBLK
  5
5E8B
330
5E80
100
AcDbEntity
  8
0
100
AcDbBlockEnd
  0
BLOCK
  5
5E98
330
5E8C
100
AcDbEntity
  8
0
100
AcDbBlockBegin
  2
*D19
 70
     1
 10
0.0
 20
0.0
 30
0.0
  3
*D19
  1

  0
LINE
  5
6832
330
5E8C
100
AcDbEntity
  8
01-寸法線
 62
     4
440
 16777216
370
    13
100
AcDbLine
 10
-8194.374124451593
 20
258.9899164808868
 30
0.0
 11
-8294.374124451593
 21
258.9899164808868
 31
0.0
  0
LINE
  5
6833
330
5E8C
100
AcDbEntity
  8
01-寸法線
 62
     4
440
 16777216
370
    13
100
AcDbLine
 10
-8194.374124451593
 20
263.9899164808866
 30
0.0
 11
-8294.374124451593
 21
263.9899164808866
 31
0.0
  0
LINE
  5
6834
330
5E8C
100
AcDbEntity
  8
01-寸法線
 62
     4
440
 16777216
370
    13
100
AcDbLine
 10
-8284.374124451593
 20
238.9899164808868
 30
0.0
 11
-8284.374124451593
 21
218.9899164808868
 31
0.0
  0
LINE
  5
6835
330
5E8C
100
AcDbEntity
  8
01-寸法線
 62
     4
440
 16777216
370
    13
100
AcDbLine
 10
-8284.374124451593
 20
283.9899164808866
 30
0.0
 11
-8284.374124451593
 21
303.9899164808866
 31
0.0
  0
MTEXT
  5
6836
330
5E8C
100
AcDbEntity
  8
01-寸法線
 62
     4
440
 16777216
100
AcDbMText
 10
-8304.374124451593
 20
238.9899164808868
 30
0.0
 40
30.0
 41
0.0
 71
     5
 72
     1
  1
\A1;5
  7
ｵﾘｼﾞﾅﾙｽﾀｲﾙ
 11
0.0000000000000001
 21
1.0
 31
0.0
 73
     1
 44
1.0
  0
LINE
  5
6837
330
5E8C
100
AcDbEntity
  8
01-寸法線
 62
     4
440
 16777216
370
    13
100
AcDbLine
 10
-8284.374124451593
 20
258.9899164808868
 30
0.0
 11
-8284.374124451593
 21
263.9899164808866
 31
0.0
  0
INSERT
  5
6838
330
5E8C
100
AcDbEntity
  8
01-寸法線
 62
     4
440
 16777216
370
    13
100
AcDbBlockReference
  2
_OPEN
 10
-8284.374124451593
 20
258.9899164808868
 30
0.0
 41
20.0
 42
20.0
 43
20.0
 50
90.0
  0
INSERT
  5
6839
330
5E8C
100
AcDbEntity
  8
01-寸法線
 62
     4
440
 16777216
370
    13
100
AcDbBlockReference
  2
_OPEN
 10
-8284.374124451593
 20
263.9899164808866
 30
0.0
 41
20.0
 42
20.0
 43
20.0
 50
270.0
  0
POINT
  5
683A
330
5E8C
100
AcDbEntity
  8
DEFPOINTS
 62
     0
440
 16777216
100
AcDbPoint
 10
-8184.374124451593
 20
258.9899164808868
 30
0.0
  0
POINT
  5
683B
330
5E8C
100
AcDbEntity
  8
DEFPOINTS
 62
     0
440
 16777216
100
AcDbPoint
 10
-8184.374124451593
 20
263.9899164808866
 30
0.0
  0
POINT
  5
683C
330
5E8C
100
AcDbEntity
  8
DEFPOINTS
 62
     0
440
 16777216
100
AcDbPoint
 10
-8284.374124451593
 20
263.9899164808866
 30
0.0
  0
ENDBLK
  5
5E99
330
5E8C
100
AcDbEntity
  8
0
100
AcDbBlockEnd
  0
BLOCK
  5
5EB0
330
5EA6
100
AcDbEntity
  8
0
100
AcDbBlockBegin
  2
*D20
 70
     1
 10
0.0
 20
0.0
 30
0.0
  3
*D20
  1

  0
LINE
  5
67B7
330
5EA6
100
AcDbEntity
  8
01-寸法線
 62
     4
440
 16777216
370
    13
100
AcDbLine
 10
-7004.374124451593
 20
33.98991648088679
 30
0.0
 11
-6904.374124451592
 21
33.98991648088677
 31
0.0
  0
LINE
  5
67B8
330
5EA6
100
AcDbEntity
  8
01-寸法線
 62
     4
440
 16777216
370
    13
100
AcDbLine
 10
-7004.374124451593
 20
333.9899164808868
 30
0.0
 11
-6904.374124451592
 21
333.9899164808868
 31
0.0
  0
LINE
  5
67B9
330
5EA6
100
AcDbEntity
  8
01-寸法線
 62
     4
440
 16777216
370
    13
100
AcDbLine
 10
-6914.374124451594
 20
53.98991648088676
 30
0.0
 11
-6914.374124451594
 21
313.9899164808868
 31
0.0
  0
INSERT
  5
67BA
330
5EA6
100
AcDbEntity
  8
01-寸法線
 62
     4
440
 16777216
370
    13
100
AcDbBlockReference
  2
_OPEN
 10
-6914.374124451594
 20
33.98991648088677
 30
0.0
 41
20.0
 42
20.0
 43
20.0
 50
270.0
  0
INSERT
  5
67BB
330
5EA6
100
AcDbEntity
  8
01-寸法線
 62
     4
440
 16777216
370
    13
100
AcDbBlockReference
  2
_OPEN
 10
-6914.374124451594
 20
333.9899164808868
 30
0.0
 41
20.0
 42
20.0
 43
20.0
 50
90.0
  0
MTEXT
  5
67BC
330
5EA6
100
AcDbEntity
  8
01-寸法線
 62
     4
440
 16777216
100
AcDbMText
 10
-6934.374124451593
 20
183.9899164808857
 30
0.0
 40
30.0
 41
0.0
 71
     5
 72
     1
  1
\A1;300
  7
ｵﾘｼﾞﾅﾙｽﾀｲﾙ
 11
0.0000000000000001
 21
1.0
 31
0.0
 73
     1
 44
1.0
  0
POINT
  5
67BD
330
5EA6
100
AcDbEntity
  8
DEFPOINTS
 62
     0
440
 16777216
100
AcDbPoint
 10
-7014.374124451594
 20
33.98991648088679
 30
0.0
  0
POINT
  5
67BE
330
5EA6
100
AcDbEntity
  8
DEFPOINTS
 62
     0
440
 16777216
100
AcDbPoint
 10
-7014.374124451594
 20
333.9899164808868
 30
0.0
  0
POINT
  5
67BF
330
5EA6
100
AcDbEntity
  8
DEFPOINTS
 62
     0
440
 16777216
100
AcDbPoint
 10
-6914.374124451594
 20
333.9899164808868
 30
0.0
  0
ENDBLK
  5
5EB1
330
5EA6
100
AcDbEntity
  8
0
100
AcDbBlockEnd
  0
BLOCK
  5
5F27
330
5F1D
100
AcDbEntity
  8
0
100
AcDbBlockBegin
  2
*D21
 70
     1
 10
0.0
 20
0.0
 30
0.0
  3
*D21
  1

  0
LINE
  5
6846
330
5F1D
100
AcDbEntity
  8
01-寸法線
 62
     4
440
 16777216
370
    13
100
AcDbLine
 10
-8181.694632527282
 20
788.9899164808866
 30
0.0
 11
-8181.694632527282
 21
688.9899164808866
 31
0.0
  0
LINE
  5
6847
330
5F1D
100
AcDbEntity
  8
01-寸法線
 62
     4
440
 16777216
370
    13
100
AcDbLine
 10
-7976.694632527283
 20
788.9899164808866
 30
0.0
 11
-7976.694632527283
 21
688.9899164808866
 31
0.0
  0
LINE
  5
6848
330
5F1D
100
AcDbEntity
  8
01-寸法線
 62
     4
440
 16777216
370
    13
100
AcDbLine
 10
-8161.694632527282
 20
698.9899164808867
 30
0.0
 11
-7996.694632527281
 21
698.9899164808867
 31
0.0
  0
INSERT
  5
6849
330
5F1D
100
AcDbEntity
  8
01-寸法線
 62
     4
440
 16777216
370
    13
100
AcDbBlockReference
  2
_OPEN
 10
-8181.694632527282
 20
698.9899164808867
 30
0.0
 41
20.0
 42
20.0
 43
20.0
 50
180.0
  0
INSERT
  5
684A
330
5F1D
100
AcDbEntity
  8
01-寸法線
 62
     4
440
 16777216
370
    13
100
AcDbBlockReference
  2
_OPEN
 10
-7976.694632527283
 20
698.9899164808867
 30
0.0
 41
20.0
 42
20.0
 43
20.0
  0
MTEXT
  5
684B
330
5F1D
100
AcDbEntity
  8
01-寸法線
 62
     4
440
 16777216
100
AcDbMText
 10
-8079.194632527281
 20
718.9899164808866
 30
0.0
 40
30.0
 41
0.0
 71
     5
 72
     1
  1
\A1;205
  7
ｵﾘｼﾞﾅﾙｽﾀｲﾙ
 73
     1
 44
1.0
  0
POINT
  5
684C
330
5F1D
100
AcDbEntity
  8
DEFPOINTS
 62
     0
440
 16777216
100
AcDbPoint
 10
-8181.694632527282
 20
798.9899164808867
 30
0.0
  0
POINT
  5
684D
330
5F1D
100
AcDbEntity
  8
DEFPOINTS
 62
     0
440
 16777216
100
AcDbPoint
 10
-7976.694632527283
 20
798.9899164808867
 30
0.0
  0
POINT
  5
684E
330
5F1D
100
AcDbEntity
  8
DEFPOINTS
 62
     0
440
 16777216
100
AcDbPoint
 10
-7976.694632527283
 20
698.9899164808867
 30
0.0
  0
ENDBLK
  5
5F28
330
5F1D
100
AcDbEntity
  8
0
100
AcDbBlockEnd
  0
BLOCK
  5
5F34
330
5F2A
100
AcDbEntity
  8
0
100
AcDbBlockBegin
  2
*D22
 70
     1
 10
0.0
 20
0.0
 30
0.0
  3
*D22
  1

  0
LINE
  5
683D
330
5F2A
100
AcDbEntity
  8
01-寸法線
 62
     4
440
 16777216
370
    13
100
AcDbLine
 10
-7966.694632527282
 20
798.9899164808867
 30
0.0
 11
-7866.694632527281
 21
798.9899164808865
 31
0.0
  0
LINE
  5
683E
330
5F2A
100
AcDbEntity
  8
01-寸法線
 62
     4
440
 16777216
370
    13
100
AcDbLine
 10
-7991.694632527281
 20
1048.989916480886
 30
0.0
 11
-7866.694632527281
 21
1048.989916480886
 31
0.0
  0
LINE
  5
683F
330
5F2A
100
AcDbEntity
  8
01-寸法線
 62
     4
440
 16777216
370
    13
100
AcDbLine
 10
-7876.694632527282
 20
818.9899164808865
 30
0.0
 11
-7876.694632527282
 21
1028.989916480886
 31
0.0
  0
INSERT
  5
6840
330
5F2A
100
AcDbEntity
  8
01-寸法線
 62
     4
440
 16777216
370
    13
100
AcDbBlockReference
  2
_OPEN
 10
-7876.694632527282
 20
798.9899164808865
 30
0.0
 41
20.0
 42
20.0
 43
20.0
 50
270.0
  0
INSERT
  5
6841
330
5F2A
100
AcDbEntity
  8
01-寸法線
 62
     4
440
 16777216
370
    13
100
AcDbBlockReference
  2
_OPEN
 10
-7876.694632527282
 20
1048.989916480886
 30
0.0
 41
20.0
 42
20.0
 43
20.0
 50
90.0
  0
MTEXT
  5
6842
330
5F2A
100
AcDbEntity
  8
01-寸法線
 62
     4
440
 16777216
100
AcDbMText
 10
-7896.694632527282
 20
923.9899164808853
 30
0.0
 40
30.0
 41
0.0
 71
     5
 72
     1
  1
\A1;250
  7
ｵﾘｼﾞﾅﾙｽﾀｲﾙ
 11
0.0000000000000001
 21
1.0
 31
0.0
 73
     1
 44
1.0
  0
POINT
  5
6843
330
5F2A
100
AcDbEntity
  8
DEFPOINTS
 62
     0
440
 16777216
100
AcDbPoint
 10
-7976.694632527283
 20
798.9899164808867
 30
0.0
  0
POINT
  5
6844
330
5F2A
100
AcDbEntity
  8
DEFPOINTS
 62
     0
440
 16777216
100
AcDbPoint
 10
-8001.694632527282
 20
1048.989916480886
 30
0.0
  0
POINT
  5
6845
330
5F2A
100
AcDbEntity
  8
DEFPOINTS
 62
     0
440
 16777216
100
AcDbPoint
 10
-7876.694632527282
 20
1048.989916480886
 30
0.0
  0
ENDBLK
  5
5F35
330
5F2A
100
AcDbEntity
  8
0
100
AcDbBlockEnd
  0
BLOCK
  5
5F41
330
5F37
100
AcDbEntity
  8
0
100
AcDbBlockBegin
  2
*D23
 70
     1
 10
0.0
 20
0.0
 30
0.0
  3
*D23
  1

  0
LINE
  5
67FA
330
5F37
100
AcDbEntity
  8
01-寸法線
 62
     4
440
 16777216
370
    13
100
AcDbLine
 10
-8181.694632527282
 20
1058.989916480887
 30
0.0
 11
-8181.694632527282
 21
1158.989916480887
 31
0.0
  0
LINE
  5
67FB
330
5F37
100
AcDbEntity
  8
01-寸法線
 62
     4
440
 16777216
370
    13
100
AcDbLine
 10
-8001.694632527282
 20
1058.989916480887
 30
0.0
 11
-8001.694632527282
 21
1158.989916480887
 31
0.0
  0
LINE
  5
67FC
330
5F37
100
AcDbEntity
  8
01-寸法線
 62
     4
440
 16777216
370
    13
100
AcDbLine
 10
-8161.694632527282
 20
1148.989916480886
 30
0.0
 11
-8021.694632527282
 21
1148.989916480886
 31
0.0
  0
INSERT
  5
67FD
330
5F37
100
AcDbEntity
  8
01-寸法線
 62
     4
440
 16777216
370
    13
100
AcDbBlockReference
  2
_OPEN
 10
-8181.694632527282
 20
1148.989916480886
 30
0.0
 41
20.0
 42
20.0
 43
20.0
 50
180.0
  0
INSERT
  5
67FE
330
5F37
100
AcDbEntity
  8
01-寸法線
 62
     4
440
 16777216
370
    13
100
AcDbBlockReference
  2
_OPEN
 10
-8001.694632527282
 20
1148.989916480886
 30
0.0
 41
20.0
 42
20.0
 43
20.0
  0
MTEXT
  5
67FF
330
5F37
100
AcDbEntity
  8
01-寸法線
 62
     4
440
 16777216
100
AcDbMText
 10
-8091.694632527282
 20
1168.989916480887
 30
0.0
 40
30.0
 41
0.0
 71
     5
 72
     1
  1
\A1;180
  7
ｵﾘｼﾞﾅﾙｽﾀｲﾙ
 73
     1
 44
1.0
  0
POINT
  5
6800
330
5F37
100
AcDbEntity
  8
DEFPOINTS
 62
     0
440
 16777216
100
AcDbPoint
 10
-8181.694632527282
 20
1048.989916480886
 30
0.0
  0
POINT
  5
6801
330
5F37
100
AcDbEntity
  8
DEFPOINTS
 62
     0
440
 16777216
100
AcDbPoint
 10
-8001.694632527282
 20
1048.989916480886
 30
0.0
  0
POINT
  5
6802
330
5F37
100
AcDbEntity
  8
DEFPOINTS
 62
     0
440
 16777216
100
AcDbPoint
 10
-8001.694632527282
 20
1148.989916480886
 30
0.0
  0
ENDBLK
  5
5F42
330
5F37
100
AcDbEntity
  8
0
100
AcDbBlockEnd
  0
BLOCK
  5
6015
330
600B
100
AcDbEntity
  8
0
100
AcDbBlockBegin
  2
*D24
 70
     1
 10
0.0
 20
0.0
 30
0.0
  3
*D24
  1

  0
LINE
  5
67F1
330
600B
100
AcDbEntity
  8
01-寸法線
 62
     4
440
 16777216
370
    13
100
AcDbLine
 10
-8184.374124451593
 20
23.98991648088679
 30
0.0
 11
-8184.374124451593
 21
-76.01008351911321
 31
0.0
  0
LINE
  5
67F2
330
600B
100
AcDbEntity
  8
01-寸法線
 62
     4
440
 16777216
370
    13
100
AcDbLine
 10
-7974.374124451593
 20
23.98991648088679
 30
0.0
 11
-7974.374124451593
 21
-76.01008351911321
 31
0.0
  0
LINE
  5
67F3
330
600B
100
AcDbEntity
  8
01-寸法線
 62
     4
440
 16777216
370
    13
100
AcDbLine
 10
-8164.374124451594
 20
-66.01008351911321
 30
0.0
 11
-7994.374124451593
 21
-66.01008351911321
 31
0.0
  0
INSERT
  5
67F4
330
600B
100
AcDbEntity
  8
01-寸法線
 62
     4
440
 16777216
370
    13
100
AcDbBlockReference
  2
_OPEN
 10
-8184.374124451593
 20
-66.01008351911321
 30
0.0
 41
20.0
 42
20.0
 43
20.0
 50
180.0
  0
INSERT
  5
67F5
330
600B
100
AcDbEntity
  8
01-寸法線
 62
     4
440
 16777216
370
    13
100
AcDbBlockReference
  2
_OPEN
 10
-7974.374124451593
 20
-66.01008351911321
 30
0.0
 41
20.0
 42
20.0
 43
20.0
  0
MTEXT
  5
67F6
330
600B
100
AcDbEntity
  8
01-寸法線
 62
     4
440
 16777216
100
AcDbMText
 10
-8079.374124451593
 20
-46.0100835191132
 30
0.0
 40
30.0
 41
0.0
 71
     5
 72
     1
  1
\A1;210
  7
ｵﾘｼﾞﾅﾙｽﾀｲﾙ
 73
     1
 44
1.0
  0
POINT
  5
67F7
330
600B
100
AcDbEntity
  8
DEFPOINTS
 62
     0
440
 16777216
100
AcDbPoint
 10
-8184.374124451593
 20
33.98991648088679
 30
0.0
  0
POINT
  5
67F8
330
600B
100
AcDbEntity
  8
DEFPOINTS
 62
     0
440
 16777216
100
AcDbPoint
 10
-7974.374124451593
 20
33.98991648088679
 30
0.0
  0
POINT
  5
67F9
330
600B
100
AcDbEntity
  8
DEFPOINTS
 62
     0
440
 16777216
100
AcDbPoint
 10
-7974.374124451593
 20
-66.01008351911321
 30
0.0
  0
ENDBLK
  5
6016
330
600B
100
AcDbEntity
  8
0
100
AcDbBlockEnd
  0
BLOCK
  5
6022
330
6018
100
AcDbEntity
  8
0
100
AcDbBlockBegin
  2
*D25
 70
     1
 10
0.0
 20
0.0
 30
0.0
  3
*D25
  1

  0
LINE
  5
67AE
330
6018
100
AcDbEntity
  8
01-寸法線
 62
     4
440
 16777216
370
    13
100
AcDbLine
 10
-7964.374124451594
 20
33.98991648088679
 30
0.0
 11
-7864.374124451593
 21
33.98991648088677
 31
0.0
  0
LINE
  5
67AF
330
6018
100
AcDbEntity
  8
01-寸法線
 62
     4
440
 16777216
370
    13
100
AcDbLine
 10
-7994.374124451593
 20
333.9899164808868
 30
0.0
 11
-7864.374124451593
 21
333.9899164808868
 31
0.0
  0
LINE
  5
67B0
330
6018
100
AcDbEntity
  8
01-寸法線
 62
     4
440
 16777216
370
    13
100
AcDbLine
 10
-7874.374124451593
 20
53.98991648088676
 30
0.0
 11
-7874.374124451593
 21
313.9899164808868
 31
0.0
  0
INSERT
  5
67B1
330
6018
100
AcDbEntity
  8
01-寸法線
 62
     4
440
 16777216
370
    13
100
AcDbBlockReference
  2
_OPEN
 10
-7874.374124451593
 20
33.98991648088677
 30
0.0
 41
20.0
 42
20.0
 43
20.0
 50
270.0
  0
INSERT
  5
67B2
330
6018
100
AcDbEntity
  8
01-寸法線
 62
     4
440
 16777216
370
    13
100
AcDbBlockReference
  2
_OPEN
 10
-7874.374124451593
 20
333.9899164808868
 30
0.0
 41
20.0
 42
20.0
 43
20.0
 50
90.0
  0
MTEXT
  5
67B3
330
6018
100
AcDbEntity
  8
01-寸法線
 62
     4
440
 16777216
100
AcDbMText
 10
-7894.374124451593
 20
183.9899164808855
 30
0.0
 40
30.0
 41
0.0
 71
     5
 72
     1
  1
\A1;300
  7
ｵﾘｼﾞﾅﾙｽﾀｲﾙ
 11
0.0000000000000001
 21
1.0
 31
0.0
 73
     1
 44
1.0
  0
POINT
  5
67B4
330
6018
100
AcDbEntity
  8
DEFPOINTS
 62
     0
440
 16777216
100
AcDbPoint
 10
-7974.374124451593
 20
33.98991648088679
 30
0.0
  0
POINT
  5
67B5
330
6018
100
AcDbEntity
  8
DEFPOINTS
 62
     0
440
 16777216
100
AcDbPoint
 10
-8004.374124451592
 20
333.9899164808868
 30
0.0
  0
POINT
  5
67B6
330
6018
100
AcDbEntity
  8
DEFPOINTS
 62
     0
440
 16777216
100
AcDbPoint
 10
-7874.374124451593
 20
333.9899164808868
 30
0.0
  0
ENDBLK
  5
6023
330
6018
100
AcDbEntity
  8
0
100
AcDbBlockEnd
  0
BLOCK
  5
602F
330
6025
100
AcDbEntity
  8
0
100
AcDbBlockBegin
  2
*D26
 70
     1
 10
0.0
 20
0.0
 30
0.0
  3
*D26
  1

  0
LINE
  5
6815
330
6025
100
AcDbEntity
  8
01-寸法線
 62
     4
440
 16777216
370
    13
100
AcDbLine
 10
-8184.374124451593
 20
343.9899164808868
 30
0.0
 11
-8184.374124451593
 21
443.9899164808868
 31
0.0
  0
LINE
  5
6816
330
6025
100
AcDbEntity
  8
01-寸法線
 62
     4
440
 16777216
370
    13
100
AcDbLine
 10
-8004.374124451592
 20
343.9899164808868
 30
0.0
 11
-8004.374124451592
 21
443.9899164808868
 31
0.0
  0
LINE
  5
6817
330
6025
100
AcDbEntity
  8
01-寸法線
 62
     4
440
 16777216
370
    13
100
AcDbLine
 10
-8164.374124451594
 20
433.9899164808867
 30
0.0
 11
-8024.374124451593
 21
433.9899164808867
 31
0.0
  0
INSERT
  5
6818
330
6025
100
AcDbEntity
  8
01-寸法線
 62
     4
440
 16777216
370
    13
100
AcDbBlockReference
  2
_OPEN
 10
-8184.374124451593
 20
433.9899164808867
 30
0.0
 41
20.0
 42
20.0
 43
20.0
 50
180.0
  0
INSERT
  5
6819
330
6025
100
AcDbEntity
  8
01-寸法線
 62
     4
440
 16777216
370
    13
100
AcDbBlockReference
  2
_OPEN
 10
-8004.374124451592
 20
433.9899164808867
 30
0.0
 41
20.0
 42
20.0
 43
20.0
  0
MTEXT
  5
681A
330
6025
100
AcDbEntity
  8
01-寸法線
 62
     4
440
 16777216
100
AcDbMText
 10
-8094.374124451594
 20
453.9899164808868
 30
0.0
 40
30.0
 41
0.0
 71
     5
 72
     1
  1
\A1;180
  7
ｵﾘｼﾞﾅﾙｽﾀｲﾙ
 73
     1
 44
1.0
  0
POINT
  5
681B
330
6025
100
AcDbEntity
  8
DEFPOINTS
 62
     0
440
 16777216
100
AcDbPoint
 10
-8184.374124451593
 20
333.9899164808868
 30
0.0
  0
POINT
  5
681C
330
6025
100
AcDbEntity
  8
DEFPOINTS
 62
     0
440
 16777216
100
AcDbPoint
 10
-8004.374124451592
 20
333.9899164808868
 30
0.0
  0
POINT
  5
681D
330
6025
100
AcDbEntity
  8
DEFPOINTS
 62
     0
440
 16777216
100
AcDbPoint
 10
-8004.374124451592
 20
433.9899164808867
 30
0.0
  0
ENDBLK
  5
6030
330
6025
100
AcDbEntity
  8
0
100
AcDbBlockEnd
  0
BLOCK
  5
646B
330
6461
100
AcDbEntity
  8
0
100
AcDbBlockBegin
  2
*D27
 70
     1
 10
0.0
 20
0.0
 30
0.0
  3
*D27
  1

  0
LINE
  5
67C0
330
6461
100
AcDbEntity
  8
01-寸法線
 62
     4
440
 16777216
370
    13
100
AcDbLine
 10
-7625.851265161049
 20
-375.1974834855468
 30
0.0
 11
-7462.020856303251
 21
-260.4821962153369
 31
0.0
  0
LINE
  5
67C1
330
6461
100
AcDbEntity
  8
01-寸法線
 62
     4
440
 16777216
370
    13
100
AcDbLine
 10
-7544.517263651899
 20
-491.354475621199
 30
0.0
 11
-7380.686854794101
 21
-376.63918835099
 31
0.0
  0
LINE
  5
67C2
330
6461
100
AcDbEntity
  8
01-寸法線
 62
     4
440
 16777216
370
    13
100
AcDbLine
 10
-7458.740848019122
 20
-282.6010014646272
 30
0.0
 11
-7400.349903964012
 21
-365.9919118287207
 31
0.0
  0
INSERT
  5
67C3
330
6461
100
AcDbEntity
  8
01-寸法線
 62
     4
440
 16777216
370
    13
100
AcDbBlockReference
  2
_OPEN
 10
-7470.212376746141
 20
-266.2179605788474
 30
0.0
 41
20.0
 42
20.0
 43
20.0
 50
125.0000000000001
  0
INSERT
  5
67C4
330
6461
100
AcDbEntity
  8
01-寸法線
 62
     4
440
 16777216
370
    13
100
AcDbBlockReference
  2
_OPEN
 10
-7388.878375236991
 20
-382.3749527145005
 30
0.0
 41
20.0
 42
20.0
 43
20.0
 50
305.0000000000002
  0
MTEXT
  5
67C5
330
6461
100
AcDbEntity
  8
01-寸法線
 62
     4
440
 16777216
100
AcDbMText
 10
-7413.162335105787
 20
-312.824927919653
 30
0.0
 40
30.0
 41
0.0
 71
     5
 72
     1
  1
\A1;70.9
  7
ｵﾘｼﾞﾅﾙｽﾀｲﾙ
 11
0.5735764363510486
 21
-0.8191520442889901
 31
0.0
 73
     1
 44
1.0
  0
POINT
  5
67C6
330
6461
100
AcDbEntity
  8
DEFPOINTS
 62
     0
440
 16777216
100
AcDbPoint
 10
-7634.04278560394
 20
-380.9332478490574
 30
0.0
  0
POINT
  5
67C7
330
6461
100
AcDbEntity
  8
DEFPOINTS
 62
     0
440
 16777216
100
AcDbPoint
 10
-7552.708784094789
 20
-497.0902399847095
 30
0.0
  0
POINT
  5
67C8
330
6461
100
AcDbEntity
  8
DEFPOINTS
 62
     0
440
 16777216
100
AcDbPoint
 10
-7388.878375236991
 20
-382.3749527145005
 30
0.0
  0
ENDBLK
  5
646C
330
6461
100
AcDbEntity
  8
0
100
AcDbBlockEnd
  0
BLOCK
  5
6487
330
647D
100
AcDbEntity
  8
0
100
AcDbBlockBegin
  2
*D28
 70
     1
 10
0.0
 20
0.0
 30
0.0
  3
*D28
  1

  0
LINE
  5
67E8
330
647D
100
AcDbEntity
  8
01-寸法線
 62
     4
440
 16777216
370
    13
100
AcDbLine
 10
-7582.437906867217
 20
-529.2751188365196
 30
0.0
 11
-7697.153194137422
 21
-693.1055276943229
 31
0.0
  0
LINE
  5
67E9
330
647D
100
AcDbEntity
  8
01-寸法線
 62
     4
440
 16777216
370
    13
100
AcDbLine
 10
-7631.587029524559
 20
-494.860532655457
 30
0.0
 11
-7746.302316794765
 21
-658.6909415132609
 31
0.0
  0
LINE
  5
67EA
330
647D
100
AcDbEntity
  8
01-寸法線
 62
     4
440
 16777216
370
    13
100
AcDbLine
 10
-7707.800470659693
 20
-673.4424785244128
 30
0.0
 11
-7724.183511545475
 21
-661.9709497973913
 31
0.0
  0
INSERT
  5
67EB
330
647D
100
AcDbEntity
  8
01-寸法線
 62
     4
440
 16777216
370
    13
100
AcDbBlockReference
  2
_OPEN
 10
-7691.417429773912
 20
-684.9140072514328
 30
0.0
 41
20.0
 42
20.0
 43
20.0
 50
325.0000000000018
  0
INSERT
  5
67EC
330
647D
100
AcDbEntity
  8
01-寸法線
 62
     4
440
 16777216
370
    13
100
AcDbBlockReference
  2
_OPEN
 10
-7740.566552431253
 20
-650.4994210703707
 30
0.0
 41
20.0
 42
20.0
 43
20.0
 50
145.0000000000017
  0
MTEXT
  5
67ED
330
647D
100
AcDbEntity
  8
01-寸法線
 62
     4
440
 16777216
100
AcDbMText
 10
-7704.520462375564
 20
-651.3236732751216
 30
0.0
 40
30.0
 41
0.0
 71
     5
 72
     1
  1
\A1;30
  7
ｵﾘｼﾞﾅﾙｽﾀｲﾙ
 11
0.8191520442890094
 21
-0.5735764363510208
 31
0.0
 73
     1
 44
1.0
  0
POINT
  5
67EE
330
647D
100
AcDbEntity
  8
DEFPOINTS
 62
     0
440
 16777216
100
AcDbPoint
 10
-7576.702142503707
 20
-521.0835983936294
 30
0.0
  0
POINT
  5
67EF
330
647D
100
AcDbEntity
  8
DEFPOINTS
 62
     0
440
 16777216
100
AcDbPoint
 10
-7625.851265161049
 20
-486.6690122125669
 30
0.0
  0
POINT
  5
67F0
330
647D
100
AcDbEntity
  8
DEFPOINTS
 62
     0
440
 16777216
100
AcDbPoint
 10
-7740.566552431253
 20
-650.4994210703707
 30
0.0
  0
ENDBLK
  5
6488
330
647D
100
AcDbEntity
  8
0
100
AcDbBlockEnd
  0
BLOCK
  5
6497
330
648B
100
AcDbEntity
  8
0
100
AcDbBlockBegin
  2
*D29
 70
     1
 10
0.0
 20
0.0
 30
0.0
  3
*D29
  1

  0
LINE
  5
67DD
330
648B
100
AcDbEntity
  8
01-寸法線
 62
     4
440
 16777216
370
    13
100
AcDbLine
 10
-7631.587029524559
 20
-494.8605326554579
 30
0.0
 11
-7746.302316794764
 21
-658.6909415132613
 31
0.0
  0
LINE
  5
67DE
330
648B
100
AcDbEntity
  8
01-寸法線
 62
     4
440
 16777216
370
    13
100
AcDbLine
 10
-7639.778549967449
 20
-489.1247682919465
 30
0.0
 11
-7754.493837237653
 21
-652.9551771497509
 31
0.0
  0
LINE
  5
67DF
330
648B
100
AcDbEntity
  8
01-寸法線
 62
     4
440
 16777216
370
    13
100
AcDbLine
 10
-7724.183511545473
 20
-661.9709497973913
 30
0.0
 11
-7707.800470659693
 21
-673.4424785244118
 31
0.0
  0
LINE
  5
67E0
330
648B
100
AcDbEntity
  8
01-寸法線
 62
     4
440
 16777216
370
    13
100
AcDbLine
 10
-7765.141113759923
 20
-633.2921279798406
 30
0.0
 11
-7781.524154645705
 21
-621.8205992528201
 31
0.0
  0
MTEXT
  5
67E1
330
648B
100
AcDbEntity
  8
01-寸法線
 62
     4
440
 16777216
100
AcDbMText
 10
-7753.669585032904
 20
-616.909087094059
 30
0.0
 40
30.0
 41
0.0
 71
     5
 72
     1
  1
\A1;5
  7
ｵﾘｼﾞﾅﾙｽﾀｲﾙ
 11
0.8191520442890109
 21
-0.5735764363510186
 31
0.0
 73
     1
 44
1.0
  0
LINE
  5
67E2
330
648B
100
AcDbEntity
  8
01-寸法線
 62
     4
440
 16777216
370
    13
100
AcDbLine
 10
-7740.566552431253
 20
-650.4994210703712
 30
0.0
 11
-7748.758072874143
 21
-644.7636567068607
 31
0.0
  0
INSERT
  5
67E3
330
648B
100
AcDbEntity
  8
01-寸法線
 62
     4
440
 16777216
370
    13
100
AcDbBlockReference
  2
_OPEN
 10
-7740.566552431253
 20
-650.4994210703712
 30
0.0
 41
20.0
 42
20.0
 43
20.0
 50
145.0000000000019
  0
INSERT
  5
67E4
330
648B
100
AcDbEntity
  8
01-寸法線
 62
     4
440
 16777216
370
    13
100
AcDbBlockReference
  2
_OPEN
 10
-7748.758072874143
 20
-644.7636567068607
 30
0.0
 41
20.0
 42
20.0
 43
20.0
 50
325.0000000000019
  0
POINT
  5
67E5
330
648B
100
AcDbEntity
  8
DEFPOINTS
 62
     0
440
 16777216
100
AcDbPoint
 10
-7625.851265161049
 20
-486.6690122125678
 30
0.0
  0
POINT
  5
67E6
330
648B
100
AcDbEntity
  8
DEFPOINTS
 62
     0
440
 16777216
100
AcDbPoint
 10
-7634.042785603938
 20
-480.9332478490564
 30
0.0
  0
POINT
  5
67E7
330
648B
100
AcDbEntity
  8
DEFPOINTS
 62
     0
440
 16777216
100
AcDbPoint
 10
-7748.758072874143
 20
-644.7636567068607
 30
0.0
  0
ENDBLK
  5
6498
330
648B
100
AcDbEntity
  8
0
100
AcDbBlockEnd
  0
BLOCK
  5
652C
330
6522
100
AcDbEntity
  8
0
100
AcDbBlockBegin
  2
*D30
 70
     1
 10
0.0
 20
0.0
 30
0.0
  3
*D30
  1

  0
LINE
  5
67D4
330
6522
100
AcDbEntity
  8
01-寸法線
 62
     4
440
 16777216
370
    13
100
AcDbLine
 10
-7644.042785603939
 20
-380.933247849056
 30
0.0
 11
-7744.042785603939
 21
-380.933247849056
 31
0.0
  0
LINE
  5
67D5
330
6522
100
AcDbEntity
  8
01-寸法線
 62
     4
440
 16777216
370
    13
100
AcDbLine
 10
-7644.042785603939
 20
-480.9332478490569
 30
0.0
 11
-7744.042785603939
 21
-480.9332478490569
 31
0.0
  0
LINE
  5
67D6
330
6522
100
AcDbEntity
  8
01-寸法線
 62
     4
440
 16777216
370
    13
100
AcDbLine
 10
-7734.042785603938
 20
-400.9332478490559
 30
0.0
 11
-7734.042785603938
 21
-460.9332478490569
 31
0.0
  0
INSERT
  5
67D7
330
6522
100
AcDbEntity
  8
01-寸法線
 62
     4
440
 16777216
370
    13
100
AcDbBlockReference
  2
_OPEN
 10
-7734.042785603938
 20
-380.933247849056
 30
0.0
 41
20.0
 42
20.0
 43
20.0
 50
90.0
  0
INSERT
  5
67D8
330
6522
100
AcDbEntity
  8
01-寸法線
 62
     4
440
 16777216
370
    13
100
AcDbBlockReference
  2
_OPEN
 10
-7734.042785603938
 20
-480.9332478490569
 30
0.0
 41
20.0
 42
20.0
 43
20.0
 50
270.0
  0
MTEXT
  5
67D9
330
6522
100
AcDbEntity
  8
01-寸法線
 62
     4
440
 16777216
100
AcDbMText
 10
-7754.042785603939
 20
-430.9332478490577
 30
0.0
 40
30.0
 41
0.0
 71
     5
 72
     1
  1
\A1;50
  7
ｵﾘｼﾞﾅﾙｽﾀｲﾙ
 11
0.0000000000000001
 21
1.0
 31
0.0
 73
     1
 44
1.0
  0
POINT
  5
67DA
330
6522
100
AcDbEntity
  8
DEFPOINTS
 62
     0
440
 16777216
100
AcDbPoint
 10
-7634.042785603938
 20
-380.933247849056
 30
0.0
  0
POINT
  5
67DB
330
6522
100
AcDbEntity
  8
DEFPOINTS
 62
     0
440
 16777216
100
AcDbPoint
 10
-7634.042785603938
 20
-480.9332478490569
 30
0.0
  0
POINT
  5
67DC
330
6522
100
AcDbEntity
  8
DEFPOINTS
 62
     0
440
 16777216
100
AcDbPoint
 10
-7734.042785603938
 20
-480.9332478490569
 30
0.0
  0
ENDBLK
  5
652D
330
6522
100
AcDbEntity
  8
0
100
AcDbBlockEnd
  0
BLOCK
  5
653B
330
652F
100
AcDbEntity
  8
0
100
AcDbBlockBegin
  2
*D31
 70
     1
 10
0.0
 20
0.0
 30
0.0
  3
*D31
  1

  0
LINE
  5
67C9
330
652F
100
AcDbEntity
  8
01-寸法線
 62
     4
440
 16777216
370
    13
100
AcDbLine
 10
-7644.042785603939
 20
-480.9332478490569
 30
0.0
 11
-7744.042785603939
 21
-480.9332478490569
 31
0.0
  0
LINE
  5
67CA
330
652F
100
AcDbEntity
  8
01-寸法線
 62
     4
440
 16777216
370
    13
100
AcDbLine
 10
-7644.042785603939
 20
-490.9332478490568
 30
0.0
 11
-7744.042785603939
 21
-490.9332478490568
 31
0.0
  0
LINE
  5
67CB
330
652F
100
AcDbEntity
  8
01-寸法線
 62
     4
440
 16777216
370
    13
100
AcDbLine
 10
-7734.042785603938
 20
-460.9332478490569
 30
0.0
 11
-7734.042785603938
 21
-440.9332478490568
 31
0.0
  0
LINE
  5
67CC
330
652F
100
AcDbEntity
  8
01-寸法線
 62
     4
440
 16777216
370
    13
100
AcDbLine
 10
-7734.042785603938
 20
-510.9332478490569
 30
0.0
 11
-7734.042785603938
 21
-530.9332478490569
 31
0.0
  0
MTEXT
  5
67CD
330
652F
100
AcDbEntity
  8
01-寸法線
 62
     4
440
 16777216
100
AcDbMText
 10
-7754.042785603939
 20
-510.9332478490569
 30
0.0
 40
30.0
 41
0.0
 71
     5
 72
     1
  1
\A1;5
  7
ｵﾘｼﾞﾅﾙｽﾀｲﾙ
 11
0.0000000000000001
 21
1.0
 31
0.0
 73
     1
 44
1.0
  0
LINE
  5
67CE
330
652F
100
AcDbEntity
  8
01-寸法線
 62
     4
440
 16777216
370
    13
100
AcDbLine
 10
-7734.042785603938
 20
-480.9332478490569
 30
0.0
 11
-7734.042785603938
 21
-490.9332478490568
 31
0.0
  0
INSERT
  5
67CF
330
652F
100
AcDbEntity
  8
01-寸法線
 62
     4
440
 16777216
370
    13
100
AcDbBlockReference
  2
_OPEN
 10
-7734.042785603938
 20
-480.9332478490569
 30
0.0
 41
20.0
 42
20.0
 43
20.0
 50
270.0
  0
INSERT
  5
67D0
330
652F
100
AcDbEntity
  8
01-寸法線
 62
     4
440
 16777216
370
    13
100
AcDbBlockReference
  2
_OPEN
 10
-7734.042785603938
 20
-490.9332478490568
 30
0.0
 41
20.0
 42
20.0
 43
20.0
 50
90.0
  0
POINT
  5
67D1
330
652F
100
AcDbEntity
  8
DEFPOINTS
 62
     0
440
 16777216
100
AcDbPoint
 10
-7634.042785603938
 20
-480.9332478490569
 30
0.0
  0
POINT
  5
67D2
330
652F
100
AcDbEntity
  8
DEFPOINTS
 62
     0
440
 16777216
100
AcDbPoint
 10
-7634.042785603938
 20
-490.9332478490568
 30
0.0
  0
POINT
  5
67D3
330
652F
100
AcDbEntity
  8
DEFPOINTS
 62
     0
440
 16777216
100
AcDbPoint
 10
-7734.042785603938
 20
-490.9332478490568
 30
0.0
  0
ENDBLK
  5
653C
330
652F
100
AcDbEntity
  8
0
100
AcDbBlockEnd
  0
BLOCK
  5
68F8
330
68EC
100
AcDbEntity
  8
0
100
AcDbBlockBegin
  2
*D32
 70
     1
 10
0.0
 20
0.0
 30
0.0
  3
*D32
  1

  0
LINE
  5
68FA
330
68EC
100
AcDbEntity
  8
01-寸法線
 62
     4
440
 16777216
370
    13
100
AcDbLine
 10
-7644.042785603939
 20
-380.933247849056
 30
0.0
 11
-7744.042785603939
 21
-380.933247849056
 31
0.0
  0
LINE
  5
68FB
330
68EC
100
AcDbEntity
  8
01-寸法線
 62
     4
440
 16777216
370
    13
100
AcDbLine
 10
-7644.042785603939
 20
-340.9332478490569
 30
0.0
 11
-7744.042785603939
 21
-340.9332478490569
 31
0.0
  0
LINE
  5
68FC
330
68EC
100
AcDbEntity
  8
01-寸法線
 62
     4
440
 16777216
370
    13
100
AcDbLine
 10
-7734.042785603938
 20
-400.9332478490559
 30
0.0
 11
-7734.042785603938
 21
-420.9332478490559
 31
0.0
  0
LINE
  5
68FD
330
68EC
100
AcDbEntity
  8
01-寸法線
 62
     4
440
 16777216
370
    13
100
AcDbLine
 10
-7734.042785603938
 20
-320.9332478490569
 30
0.0
 11
-7734.042785603938
 21
-300.9332478490569
 31
0.0
  0
LINE
  5
68FE
330
68EC
100
AcDbEntity
  8
01-寸法線
 62
     4
440
 16777216
370
    13
100
AcDbLine
 10
-7734.042785603938
 20
-380.933247849056
 30
0.0
 11
-7734.042785603938
 21
-340.9332478490569
 31
0.0
  0
INSERT
  5
68FF
330
68EC
100
AcDbEntity
  8
01-寸法線
 62
     4
440
 16777216
370
    13
100
AcDbBlockReference
  2
_OPEN
 10
-7734.042785603938
 20
-380.933247849056
 30
0.0
 41
20.0
 42
20.0
 43
20.0
 50
90.0
  0
INSERT
  5
6900
330
68EC
100
AcDbEntity
  8
01-寸法線
 62
     4
440
 16777216
370
    13
100
AcDbBlockReference
  2
_OPEN
 10
-7734.042785603938
 20
-340.9332478490569
 30
0.0
 41
20.0
 42
20.0
 43
20.0
 50
270.0
  0
MTEXT
  5
6901
330
68EC
100
AcDbEntity
  8
01-寸法線
 62
     4
440
 16777216
100
AcDbMText
 10
-7754.042785603939
 20
-360.9332478490577
 30
0.0
 40
30.0
 41
0.0
 71
     5
 72
     1
  1
\A1;20
  7
ｵﾘｼﾞﾅﾙｽﾀｲﾙ
 11
0.0000000000000001
 21
1.0
 31
0.0
 73
     1
 44
1.0
  0
POINT
  5
6902
330
68EC
100
AcDbEntity
  8
DEFPOINTS
 62
     0
440
 16777216
100
AcDbPoint
 10
-7634.042785603938
 20
-380.933247849056
 30
0.0
  0
POINT
  5
6903
330
68EC
100
AcDbEntity
  8
DEFPOINTS
 62
     0
440
 16777216
100
AcDbPoint
 10
-7634.042785603938
 20
-340.9332478490569
 30
0.0
  0
POINT
  5
6904
330
68EC
100
AcDbEntity
  8
DEFPOINTS
 62
     0
440
 16777216
100
AcDbPoint
 10
-7734.042785603938
 20
-340.9332478490569
 30
0.0
  0
ENDBLK
  5
68F9
330
68EC
100
AcDbEntity
  8
0
100
AcDbBlockEnd
  0
ENDSEC
  0
SECTION
  2
ENTITIES
  0
TEXT
  5
4565
330
2
100
AcDbEntity
  8
09-下線
100
AcDbText
 10
-8226.062124451592
 20
2143.801345052315
 30
0.0
 40
72.0
  1
%%U片面歩車道境界ブロック(防草タイプ)
 41
0.7
  7
ｵﾘｼﾞﾅﾙｽﾀｲﾙ
 72
     1
 11
-7599.374124451593
 21
2128.989916480887
 31
0.0
100
AcDbText
 73
     1
  0
TEXT
  5
4566
330
2
100
AcDbEntity
  8
08-下線
100
AcDbText
 10
-7199.374124451593
 20
2046.395630766601
 30
0.0
 40
36.0
  1
Ｓ＝１／１２，単位 ｍｍ
 41
0.8
  7
ｵﾘｼﾞﾅﾙｽﾀｲﾙ
 11
-7199.374124451593
 21
2038.989916480887
 31
0.0
100
AcDbText
 73
     1
  0
TEXT
  5
49E0
330
2
100
AcDbEntity
  8
08-下線
100
AcDbText
 10
-8184.374124451593
 20
1921.395630766601
 30
0.0
 40
36.0
  1
%%U片面歩車道境界ブロックＡ(防草タイプ)
 41
0.8
  7
ｵﾘｼﾞﾅﾙｽﾀｲﾙ
 11
-8184.374124451593
 21
1913.989916480886
 31
0.0
100
AcDbText
 73
     1
  0
LINE
  5
5148
330
2
100
AcDbEntity
  8
02-外形線
100
AcDbLine
 10
-8184.374124451593
 20
1713.989916480886
 30
0.0
 11
-8184.374124451593
 21
1693.989916480887
 31
0.0
  0
LINE
  5
5169
330
2
100
AcDbEntity
  8
02-外形線
100
AcDbLine
 10
-8184.374124451593
 20
1693.989916480887
 30
0.0
 11
-8143.707123697017
 21
1635.91142041306
 31
0.0
  0
LINE
  5
5179
330
2
100
AcDbEntity
  8
01-寸法線
100
AcDbLine
 10
-8184.374124451593
 20
1643.989916480887
 30
0.0
 11
-8181.916668318725
 21
1642.269187171833
 31
0.0
  0
LINE
  5
517B
330
2
100
AcDbEntity
  8
02-外形線
100
AcDbLine
 10
-8184.374124451593
 20
1713.989916480886
 30
0.0
 11
-8184.374124451592
 21
1693.989916480886
 31
0.0
  0
ARC
  5
519A
330
2
100
AcDbEntity
  8
02-外形線
100
AcDbCircle
 10
-8149.705463299246
 20
1629.91308081083
 30
0.0
 40
8.482933217193147
100
AcDbArc
 50
224.9999999999992
 51
44.99999999999918
  0
LINE
  5
51A2
330
2
100
AcDbEntity
  8
02-外形線
100
AcDbLine
 10
-8184.374124451593
 20
1638.989916480887
 30
0.0
 11
-8180.278364230149
 21
1641.122034299131
 31
0.0
  0
LINE
  5
51A6
330
2
100
AcDbEntity
  8
02-外形線
100
AcDbLine
 10
-8184.374124451593
 20
1638.989916480887
 30
0.0
 11
-8184.374124451593
 21
1513.989916480887
 31
0.0
  0
LINE
  5
51A7
330
2
100
AcDbEntity
  8
02-外形線
100
AcDbLine
 10
-8180.278364230149
 20
1641.122034299131
 30
0.0
 11
-8155.703802901479
 21
1623.9147412086
 31
0.0
  0
LINE
  5
51A9
330
2
100
AcDbEntity
  8
01-寸法線
100
AcDbLine
 10
-8184.374124451593
 20
1643.989916480886
 30
0.0
 11
-8184.374124451593
 21
1640.989916480886
 31
0.0
  0
LINE
  5
5488
330
2
100
AcDbEntity
  8
02-外形線
100
AcDbLine
 10
-8032.573131889638
 20
1695.979990861307
 30
0.0
 11
-8014.374124451594
 21
1513.989916480887
 31
0.0
  0
DIMENSION
  5
5489
330
2
100
AcDbEntity
  8
01-寸法線
100
AcDbDimension
  2
*D3
 10
-8014.374124451594
 20
1413.989916480886
 30
0.0
 11
-8099.374124451593
 21
1433.989916480887
 31
0.0
 70
    32
 71
     5
 42
170.0
  3
スタイル10
100
AcDbAlignedDimension
 13
-8184.374124451593
 23
1513.989916480887
 33
0.0
 14
-8014.374124451594
 24
1513.989916480887
 34
0.0
100
AcDbRotatedDimension
  0
DIMENSION
  5
579A
330
2
100
AcDbEntity
  8
01-寸法線
100
AcDbDimension
  2
*D4
 10
-8284.374124451593
 20
1643.989916480886
 30
0.0
 11
-8304.374124451593
 21
1618.989916480886
 31
0.0
 70
   160
 71
     5
 42
4.999999999999772
  3
スタイル10
100
AcDbAlignedDimension
 13
-8184.374124451593
 23
1638.989916480887
 33
0.0
 14
-8184.374124451593
 24
1643.989916480886
 34
0.0
 50
90.0
100
AcDbRotatedDimension
  0
DIMENSION
  5
57A9
330
2
100
AcDbEntity
  8
01-寸法線
100
AcDbDimension
  2
*D5
 10
-8284.374124451593
 20
1693.989916480887
 30
0.0
 11
-8304.374124451593
 21
1668.989916480885
 31
0.0
 70
    32
 71
     5
 42
50.00000000000023
  3
スタイル10
100
AcDbAlignedDimension
 13
-8184.374124451593
 23
1643.989916480886
 33
0.0
 14
-8184.374124451593
 24
1693.989916480887
 34
0.0
 50
90.0
100
AcDbRotatedDimension
  0
DIMENSION
  5
57B6
330
2
100
AcDbEntity
  8
01-寸法線
100
AcDbDimension
  2
*D6
 10
-8284.374124451593
 20
1713.989916480886
 30
0.0
 11
-8304.374124451593
 21
1733.989916480886
 31
0.0
 70
   160
 71
     5
 42
20.0
  3
スタイル10
100
AcDbAlignedDimension
 13
-8184.374124451593
 23
1693.989916480887
 33
0.0
 14
-8184.374124451593
 24
1713.989916480886
 34
0.0
 50
90.0
100
AcDbRotatedDimension
  0
DIMENSION
  5
5812
330
2
100
AcDbEntity
  8
01-寸法線
100
AcDbDimension
  2
*D7
 10
-8034.374124451593
 20
1813.989916480887
 30
0.0
 11
-8109.374124451594
 21
1833.989916480886
 31
0.0
 70
    32
 71
     5
 42
150.0
  3
スタイル10
100
AcDbAlignedDimension
 13
-8184.374124451593
 23
1713.989916480886
 33
0.0
 14
-8034.374124451593
 24
1713.989916480886
 34
0.0
100
AcDbRotatedDimension
  0
LINE
  5
582E
330
2
100
AcDbEntity
  8
02-外形線
100
AcDbLine
 10
-8184.374124451593
 20
1713.989916480886
 30
0.0
 11
-8052.473875693838
 21
1713.989916480886
 31
0.0
  0
LINE
  5
5831
330
2
100
AcDbEntity
  8
02-外形線
100
AcDbLine
 10
-8014.374124451594
 20
1513.989916480887
 30
0.0
 11
-8184.374124451593
 21
1513.989916480887
 31
0.0
  0
DIMENSION
  5
5834
330
2
100
AcDbEntity
  8
01-寸法線
100
AcDbDimension
  2
*D8
 10
-7914.374124451594
 20
1713.989916480886
 30
0.0
 11
-7934.374124451593
 21
1613.989916480885
 31
0.0
 70
    32
 71
     5
 42
200.0
  3
スタイル10
100
AcDbAlignedDimension
 13
-8014.374124451594
 23
1513.989916480887
 33
0.0
 14
-8034.374124451593
 24
1713.989916480886
 34
0.0
 50
90.0
100
AcDbRotatedDimension
  0
ARC
  5
584A
330
2
100
AcDbEntity
  8
02-外形線
100
AcDbCircle
 10
-8052.473875693838
 20
1693.989916480887
 30
0.0
 40
20.0
100
AcDbArc
 50
5.71059313750004
 51
90.0
  0
LINE
  5
5854
330
2
100
AcDbEntity
  8
01-寸法線
100
AcDbLine
 10
-8034.374124451593
 20
1713.989916480886
 30
0.0
 11
-8043.308724303926
 21
1713.989916480886
 31
0.0
  0
LINE
  5
5855
330
2
100
AcDbEntity
  8
01-寸法線
100
AcDbLine
 10
-8034.374124451593
 20
1713.989916480886
 30
0.0
 11
-8033.485098538323
 21
1705.099657348168
 31
0.0
  0
LINE
  5
5899
330
2
100
AcDbEntity
  8
02-外形線
100
AcDbLine
 10
-7614.374124451593
 20
1713.989916480886
 30
0.0
 11
-7014.374124451594
 21
1713.989916480886
 31
0.0
  0
LINE
  5
589A
330
2
100
AcDbEntity
  8
02-外形線
100
AcDbLine
 10
-7014.374124451594
 20
1713.989916480886
 30
0.0
 11
-7014.374124451594
 21
1513.989916480887
 31
0.0
  0
LINE
  5
589B
330
2
100
AcDbEntity
  8
02-外形線
100
AcDbLine
 10
-7014.374124451594
 20
1513.989916480887
 30
0.0
 11
-7614.374124451593
 21
1513.989916480887
 31
0.0
  0
LINE
  5
589C
330
2
100
AcDbEntity
  8
02-外形線
100
AcDbLine
 10
-7614.374124451593
 20
1513.989916480887
 30
0.0
 11
-7614.374124451593
 21
1713.989916480886
 31
0.0
  0
LINE
  5
58A7
330
2
100
AcDbEntity
  8
03-隠れ線
 48
0.2
100
AcDbLine
 10
-7614.374124451593
 20
1621.430147593637
 30
0.0
 11
-7014.374124451594
 21
1621.430147593637
 31
0.0
  0
LINE
  5
58A9
330
2
100
AcDbEntity
  8
03-隠れ線
 48
0.2
100
AcDbLine
 10
-7614.374124451593
 20
1638.989916480887
 30
0.0
 11
-7014.374124451594
 21
1638.989916480887
 31
0.0
  0
LINE
  5
58AA
330
2
100
AcDbEntity
  8
03-隠れ線
 48
0.2
100
AcDbLine
 10
-7614.374124451593
 20
1641.122034299131
 30
0.0
 11
-7014.374124451594
 21
1641.122034299131
 31
0.0
  0
LINE
  5
58AC
330
2
100
AcDbEntity
  8
03-隠れ線
 48
0.2
100
AcDbLine
 10
-7614.374124451593
 20
1693.989916480887
 30
0.0
 11
-7014.374124451594
 21
1693.989916480887
 31
0.0
  0
DIMENSION
  5
58B1
330
2
100
AcDbEntity
  8
01-寸法線
100
AcDbDimension
  2
*D9
 10
-7014.374124451594
 20
1813.989916480887
 30
0.0
 11
-7314.374124451593
 21
1833.989916480886
 31
0.0
 70
    32
 71
     5
 42
600.0
  3
スタイル10
100
AcDbAlignedDimension
 13
-7614.374124451593
 23
1713.989916480886
 33
0.0
 14
-7014.374124451594
 24
1713.989916480886
 34
0.0
100
AcDbRotatedDimension
  0
DIMENSION
  5
58BE
330
2
100
AcDbEntity
  8
01-寸法線
100
AcDbDimension
  2
*D10
 10
-6914.374124451594
 20
1713.989916480886
 30
0.0
 11
-6934.374124451593
 21
1613.989916480885
 31
0.0
 70
    32
 71
     5
 42
200.0
  3
スタイル10
100
AcDbAlignedDimension
 13
-7014.374124451594
 23
1513.989916480887
 33
0.0
 14
-7014.374124451594
 24
1713.989916480886
 34
0.0
 50
90.0
100
AcDbRotatedDimension
  0
LINE
  5
58D0
330
2
100
AcDbEntity
  8
01-寸法線
100
AcDbLine
 10
-8095.622311773546
 20
1652.250424656998
 30
0.0
 11
-8039.053769278622
 21
1708.818967151921
 31
0.0
  0
MTEXT
  5
58D1
330
2
100
AcDbEntity
  8
01-寸法線
 62
     4
100
AcDbMText
 10
-8088.55124396168
 20
1687.605763716325
 30
0.0
 40
30.0
 41
0.0
 71
     5
 72
     1
  1
20r
  7
ｵﾘｼﾞﾅﾙｽﾀｲﾙ
 11
0.7071067811865594
 21
0.7071067811865357
 31
0.0
 73
     1
 44
1.0
  0
INSERT
  5
58D6
330
2
100
AcDbEntity
  8
01-寸法線
 62
     4
370
    13
100
AcDbBlockReference
  2
_OPEN
 10
-8039.053769278618
 20
1708.818967151924
 30
0.0
 41
-20.0
 42
20.0
 43
20.0
 50
224.9999999999989
  0
LINE
  5
5990
330
2
100
AcDbEntity
  8
DEFPOINTS
100
AcDbLine
 10
-8889.374124451594
 20
2548.989916480887
 30
0.0
 11
-6369.374124451592
 21
2548.989916480887
 31
0.0
  0
LINE
  5
5994
330
2
100
AcDbEntity
  8
DEFPOINTS
100
AcDbLine
 10
-8889.374124451594
 20
-1015.010083519113
 30
0.0
 11
-6369.374124451592
 21
-1015.010083519113
 31
0.0
  0
LINE
  5
5995
330
2
100
AcDbEntity
  8
DEFPOINTS
100
AcDbLine
 10
-8889.374124451594
 20
2548.989916480887
 30
0.0
 11
-8889.374124451594
 21
-1015.010083519113
 31
0.0
  0
LINE
  5
5996
330
2
100
AcDbEntity
  8
DEFPOINTS
100
AcDbLine
 10
-6369.374124451593
 20
2548.989916480887
 30
0.0
 11
-6369.374124451593
 21
-1015.010083519113
 31
0.0
  0
LINE
  5
599B
330
2
100
AcDbEntity
  8
11-外枠線
100
AcDbLine
 10
-8709.374124451594
 20
2368.989916480887
 30
0.0
 11
-6489.374124451593
 21
2368.989916480887
 31
0.0
  0
LINE
  5
599C
330
2
100
AcDbEntity
  8
11-外枠線
100
AcDbLine
 10
-6489.374124451593
 20
2368.989916480887
 30
0.0
 11
-6489.374124451593
 21
-835.0100835191133
 31
0.0
  0
LINE
  5
599D
330
2
100
AcDbEntity
  8
11-外枠線
100
AcDbLine
 10
-6489.374124451593
 20
-835.0100835191133
 30
0.0
 11
-8709.374124451594
 21
-835.0100835191133
 31
0.0
  0
LINE
  5
599E
330
2
100
AcDbEntity
  8
11-外枠線
100
AcDbLine
 10
-8709.374124451594
 20
-835.0100835191133
 30
0.0
 11
-8709.374124451594
 21
2368.989916480887
 31
0.0
  0
DIMENSION
  5
5D57
330
2
100
AcDbEntity
  8
01-寸法線
100
AcDbDimension
  2
*D14
 10
-7011.694632527282
 20
1148.989916480886
 30
0.0
 11
-7311.694632527282
 21
1168.989916480887
 31
0.0
 70
    32
 71
     5
 42
600.0
  3
スタイル10
100
AcDbAlignedDimension
 13
-7611.694632527282
 23
1048.989916480886
 33
0.0
 14
-7011.694632527282
 24
1048.989916480886
 34
0.0
100
AcDbRotatedDimension
  0
LINE
  5
5D58
330
2
100
AcDbEntity
  8
03-隠れ線
 48
0.2
100
AcDbLine
 10
-7611.694632527282
 20
1028.989916480886
 30
0.0
 11
-7011.694632527282
 21
1028.989916480886
 31
0.0
  0
LINE
  5
5D59
330
2
100
AcDbEntity
  8
03-隠れ線
 48
0.2
100
AcDbLine
 10
-7611.694632527282
 20
976.1220342991315
 30
0.0
 11
-7011.694632527282
 21
976.1220342991315
 31
0.0
  0
LINE
  5
5D5A
330
2
100
AcDbEntity
  8
03-隠れ線
 48
0.2
100
AcDbLine
 10
-7611.694632527282
 20
973.9899164808866
 30
0.0
 11
-7011.694632527282
 21
973.9899164808866
 31
0.0
  0
LINE
  5
5D5B
330
2
100
AcDbEntity
  8
03-隠れ線
 48
0.2
100
AcDbLine
 10
-7611.694632527282
 20
956.4301475936373
 30
0.0
 11
-7011.694632527282
 21
956.4301475936373
 31
0.0
  0
LINE
  5
5D5C
330
2
100
AcDbEntity
  8
02-外形線
100
AcDbLine
 10
-7011.694632527282
 20
798.9899164808867
 30
0.0
 11
-7611.694632527282
 21
798.9899164808867
 31
0.0
  0
LINE
  5
5D5D
330
2
100
AcDbEntity
  8
02-外形線
100
AcDbLine
 10
-7611.694632527282
 20
1048.989916480886
 30
0.0
 11
-7011.694632527282
 21
1048.989916480886
 31
0.0
  0
DIMENSION
  5
5D5F
330
2
100
AcDbEntity
  8
01-寸法線
100
AcDbDimension
  2
*D13
 10
-8281.694632527281
 20
1048.989916480886
 30
0.0
 11
-8301.694632527283
 21
1068.989916480886
 31
0.0
 70
   160
 71
     5
 42
20.0
  3
スタイル10
100
AcDbAlignedDimension
 13
-8181.694632527282
 23
1028.989916480886
 33
0.0
 14
-8181.694632527282
 24
1048.989916480886
 34
0.0
 50
90.0
100
AcDbRotatedDimension
  0
LINE
  5
5D61
330
2
100
AcDbEntity
  8
02-外形線
100
AcDbLine
 10
-7611.694632527282
 20
798.9899164808867
 30
0.0
 11
-7611.694632527282
 21
1048.989916480886
 31
0.0
  0
LINE
  5
5D64
330
2
100
AcDbEntity
  8
02-外形線
100
AcDbLine
 10
-8181.694632527282
 20
1048.989916480886
 30
0.0
 11
-8181.69463252728
 21
1028.989916480886
 31
0.0
  0
LINE
  5
5D65
330
2
100
AcDbEntity
  8
02-外形線
100
AcDbLine
 10
-8181.694632527282
 20
1048.989916480886
 30
0.0
 11
-8181.694632527282
 21
1028.989916480887
 31
0.0
  0
LINE
  5
5D69
330
2
100
AcDbEntity
  8
02-外形線
100
AcDbLine
 10
-8181.694632527282
 20
973.9899164808866
 30
0.0
 11
-8181.694632527282
 21
798.9899164808867
 31
0.0
  0
DIMENSION
  5
5D6A
330
2
100
AcDbEntity
  8
01-寸法線
100
AcDbDimension
  2
*D12
 10
-8281.694632527281
 20
1028.989916480886
 30
0.0
 11
-8301.694632527283
 21
1003.989916480885
 31
0.0
 70
    32
 71
     5
 42
50.00000000000023
  3
スタイル10
100
AcDbAlignedDimension
 13
-8181.694632527282
 23
978.9899164808865
 33
0.0
 14
-8181.694632527282
 24
1028.989916480886
 34
0.0
 50
90.0
100
AcDbRotatedDimension
  0
DIMENSION
  5
5D6B
330
2
100
AcDbEntity
  8
01-寸法線
100
AcDbDimension
  2
*D11
 10
-8281.694632527281
 20
978.9899164808865
 30
0.0
 11
-8301.694632527283
 21
953.9899164808867
 31
0.0
 70
   160
 71
     5
 42
4.999999999999772
  3
スタイル10
100
AcDbAlignedDimension
 13
-8181.694632527282
 23
973.9899164808866
 33
0.0
 14
-8181.694632527282
 24
978.9899164808865
 34
0.0
 50
90.0
100
AcDbRotatedDimension
  0
LINE
  5
5D6C
330
2
100
AcDbEntity
  8
01-寸法線
100
AcDbLine
 10
-8181.694632527282
 20
978.9899164808865
 30
0.0
 11
-8181.694632527282
 21
975.9899164808867
 31
0.0
  0
LINE
  5
5D6D
330
2
100
AcDbEntity
  8
02-外形線
100
AcDbLine
 10
-8177.598872305837
 20
976.1220342991315
 30
0.0
 11
-8153.024310977167
 21
958.9147412086004
 31
0.0
  0
LINE
  5
5D6E
330
2
100
AcDbEntity
  8
02-外形線
100
AcDbLine
 10
-8181.694632527282
 20
973.9899164808866
 30
0.0
 11
-8177.598872305837
 21
976.1220342991315
 31
0.0
  0
ARC
  5
5D6F
330
2
100
AcDbEntity
  8
02-外形線
100
AcDbCircle
 10
-8147.025971374937
 20
964.9130808108303
 30
0.0
 40
8.482933217193147
100
AcDbArc
 50
224.9999999999992
 51
44.99999999999918
  0
LINE
  5
5D70
330
2
100
AcDbEntity
  8
01-寸法線
100
AcDbLine
 10
-8181.694632527282
 20
978.9899164808867
 30
0.0
 11
-8179.237176394414
 21
977.2691871718334
 31
0.0
  0
LINE
  5
5D71
330
2
100
AcDbEntity
  8
02-外形線
100
AcDbLine
 10
-8181.694632527282
 20
1028.989916480886
 30
0.0
 11
-8141.027631772706
 21
970.9114204130603
 31
0.0
  0
TEXT
  5
5D74
330
2
100
AcDbEntity
  8
08-下線
100
AcDbText
 10
-8181.694632527282
 20
1256.395630766601
 30
0.0
 40
36.0
  1
%%U片面歩車道境界ブロックＢ(防草タイプ)
 41
0.8
  7
ｵﾘｼﾞﾅﾙｽﾀｲﾙ
 11
-8181.694632527282
 21
1248.989916480886
 31
0.0
100
AcDbText
 73
     1
  0
DIMENSION
  5
5D78
330
2
100
AcDbEntity
  8
01-寸法線
100
AcDbDimension
  2
*D15
 10
-6911.694632527282
 20
1048.989916480886
 30
0.0
 11
-6931.694632527282
 21
923.9899164808855
 31
0.0
 70
    32
 71
     5
 42
250.0
  3
スタイル10
100
AcDbAlignedDimension
 13
-7011.694632527282
 23
798.9899164808867
 33
0.0
 14
-7011.694632527282
 24
1048.989916480886
 34
0.0
 50
90.0
100
AcDbRotatedDimension
  0
LINE
  5
5D79
330
2
100
AcDbEntity
  8
02-外形線
100
AcDbLine
 10
-7011.694632527282
 20
1048.989916480886
 30
0.0
 11
-7011.694632527282
 21
798.9899164808867
 31
0.0
  0
TEXT
  5
5E2B
330
2
100
AcDbEntity
  8
08-下線
100
AcDbText
 10
-8184.374124451593
 20
541.395630766601
 30
0.0
 40
36.0
  1
%%U片面歩車道境界ブロックＣ(防草タイプ)
 41
0.8
  7
ｵﾘｼﾞﾅﾙｽﾀｲﾙ
 11
-8184.374124451593
 21
533.9899164808866
 31
0.0
100
AcDbText
 73
     1
  0
LINE
  5
5E2C
330
2
100
AcDbEntity
  8
02-外形線
100
AcDbLine
 10
-7614.374124451593
 20
333.9899164808867
 30
0.0
 11
-7014.374124451594
 21
333.9899164808867
 31
0.0
  0
LINE
  5
5E2D
330
2
100
AcDbEntity
  8
02-外形線
100
AcDbLine
 10
-7014.374124451594
 20
33.98991648088668
 30
0.0
 11
-7614.374124451593
 21
33.98991648088668
 31
0.0
  0
LINE
  5
5E2E
330
2
100
AcDbEntity
  8
03-隠れ線
 48
0.2
100
AcDbLine
 10
-7614.374124451593
 20
241.4301475936373
 30
0.0
 11
-7014.374124451594
 21
241.4301475936373
 31
0.0
  0
LINE
  5
5E2F
330
2
100
AcDbEntity
  8
03-隠れ線
 48
0.2
100
AcDbLine
 10
-7614.374124451593
 20
258.9899164808867
 30
0.0
 11
-7014.374124451594
 21
258.9899164808867
 31
0.0
  0
LINE
  5
5E30
330
2
100
AcDbEntity
  8
03-隠れ線
 48
0.2
100
AcDbLine
 10
-7614.374124451593
 20
261.1220342991314
 30
0.0
 11
-7014.374124451594
 21
261.1220342991314
 31
0.0
  0
LINE
  5
5E31
330
2
100
AcDbEntity
  8
03-隠れ線
 48
0.2
100
AcDbLine
 10
-7614.374124451593
 20
313.9899164808867
 30
0.0
 11
-7014.374124451594
 21
313.9899164808867
 31
0.0
  0
DIMENSION
  5
5E32
330
2
100
AcDbEntity
  8
01-寸法線
100
AcDbDimension
  2
*D16
 10
-7014.374124451594
 20
433.9899164808867
 30
0.0
 11
-7314.374124451593
 21
453.9899164808868
 31
0.0
 70
    32
 71
     5
 42
600.0
  3
スタイル10
100
AcDbAlignedDimension
 13
-7614.374124451593
 23
333.9899164808868
 33
0.0
 14
-7014.374124451594
 24
333.9899164808868
 34
0.0
100
AcDbRotatedDimension
  0
LINE
  5
5E35
330
2
100
AcDbEntity
  8
02-外形線
100
AcDbLine
 10
-8184.374124451593
 20
313.9899164808867
 30
0.0
 11
-8143.707123697017
 21
255.9114204130606
 31
0.0
  0
DIMENSION
  5
5E36
330
2
100
AcDbEntity
  8
01-寸法線
100
AcDbDimension
  2
*D19
 10
-8284.374124451593
 20
263.9899164808866
 30
0.0
 11
-8304.374124451593
 21
238.9899164808868
 31
0.0
 70
   160
 71
     5
 42
4.999999999999772
  3
スタイル10
100
AcDbAlignedDimension
 13
-8184.374124451593
 23
258.9899164808868
 33
0.0
 14
-8184.374124451593
 24
263.9899164808866
 34
0.0
 50
90.0
100
AcDbRotatedDimension
  0
DIMENSION
  5
5E37
330
2
100
AcDbEntity
  8
01-寸法線
100
AcDbDimension
  2
*D18
 10
-8284.374124451593
 20
313.9899164808868
 30
0.0
 11
-8304.374124451593
 21
288.9899164808854
 31
0.0
 70
    32
 71
     5
 42
50.00000000000023
  3
スタイル10
100
AcDbAlignedDimension
 13
-8184.374124451593
 23
263.9899164808866
 33
0.0
 14
-8184.374124451593
 24
313.9899164808868
 34
0.0
 50
90.0
100
AcDbRotatedDimension
  0
DIMENSION
  5
5E3A
330
2
100
AcDbEntity
  8
01-寸法線
100
AcDbDimension
  2
*D17
 10
-8284.374124451593
 20
333.9899164808868
 30
0.0
 11
-8304.374124451593
 21
353.9899164808868
 31
0.0
 70
   160
 71
     5
 42
20.0
  3
スタイル10
100
AcDbAlignedDimension
 13
-8184.374124451593
 23
313.9899164808868
 33
0.0
 14
-8184.374124451593
 24
333.9899164808868
 34
0.0
 50
90.0
100
AcDbRotatedDimension
  0
LINE
  5
5E3D
330
2
100
AcDbEntity
  8
02-外形線
100
AcDbLine
 10
-8184.374124451593
 20
258.9899164808867
 30
0.0
 11
-8184.374124451593
 21
33.98991648088668
 31
0.0
  0
LINE
  5
5E3E
330
2
100
AcDbEntity
  8
01-寸法線
100
AcDbLine
 10
-8184.374124451593
 20
263.9899164808867
 30
0.0
 11
-8181.916668318725
 21
262.2691871718334
 31
0.0
  0
ARC
  5
5E3F
330
2
100
AcDbEntity
  8
02-外形線
100
AcDbCircle
 10
-8149.705463299246
 20
249.9130808108303
 30
0.0
 40
8.482933217193147
100
AcDbArc
 50
224.9999999999992
 51
44.99999999999918
  0
LINE
  5
5E40
330
2
100
AcDbEntity
  8
02-外形線
100
AcDbLine
 10
-8184.374124451593
 20
258.9899164808867
 30
0.0
 11
-8180.278364230149
 21
261.1220342991314
 31
0.0
  0
LINE
  5
5E41
330
2
100
AcDbEntity
  8
02-外形線
100
AcDbLine
 10
-8180.278364230149
 20
261.1220342991314
 30
0.0
 11
-8155.703802901479
 21
243.9147412086004
 31
0.0
  0
LINE
  5
5E42
330
2
100
AcDbEntity
  8
01-寸法線
100
AcDbLine
 10
-8184.374124451593
 20
263.9899164808867
 30
0.0
 11
-8184.374124451593
 21
260.9899164808867
 31
0.0
  0
LINE
  5
5E45
330
2
100
AcDbEntity
  8
02-外形線
100
AcDbLine
 10
-8184.374124451593
 20
333.9899164808867
 30
0.0
 11
-8184.374124451593
 21
313.9899164808871
 31
0.0
  0
LINE
  5
5E46
330
2
100
AcDbEntity
  8
02-外形線
100
AcDbLine
 10
-8184.374124451593
 20
333.9899164808867
 30
0.0
 11
-8184.374124451592
 21
313.9899164808858
 31
0.0
  0
LINE
  5
5E4B
330
2
100
AcDbEntity
  8
02-外形線
100
AcDbLine
 10
-7614.374124451593
 20
33.98991648088668
 30
0.0
 11
-7614.374124451593
 21
333.9899164808867
 31
0.0
  0
LINE
  5
5E4C
330
2
100
AcDbEntity
  8
02-外形線
100
AcDbLine
 10
-7014.374124451594
 20
333.9899164808867
 30
0.0
 11
-7014.374124451594
 21
33.98991648088668
 31
0.0
  0
DIMENSION
  5
5E4D
330
2
100
AcDbEntity
  8
01-寸法線
100
AcDbDimension
  2
*D20
 10
-6914.374124451594
 20
333.9899164808868
 30
0.0
 11
-6934.374124451593
 21
183.9899164808857
 31
0.0
 70
    32
 71
     5
 42
300.0
  3
スタイル10
100
AcDbAlignedDimension
 13
-7014.374124451594
 23
33.98991648088679
 33
0.0
 14
-7014.374124451594
 24
333.9899164808868
 34
0.0
 50
90.0
100
AcDbRotatedDimension
  0
LINE
  5
5F15
330
2
100
AcDbEntity
  8
02-外形線
100
AcDbLine
 10
-8181.694632527282
 20
1048.989916480886
 30
0.0
 11
-8028.844259390645
 21
1048.989916480886
 31
0.0
  0
LINE
  5
5F16
330
2
100
AcDbEntity
  8
02-外形線
100
AcDbLine
 10
-7998.993143684344
 20
1021.975028051516
 30
0.0
 11
-7976.694632527283
 21
798.9899164808867
 31
0.0
  0
DIMENSION
  5
5F1C
330
2
100
AcDbEntity
  8
01-寸法線
100
AcDbDimension
  2
*D21
 10
-7976.694632527283
 20
698.9899164808867
 30
0.0
 11
-8079.194632527281
 21
718.9899164808866
 31
0.0
 70
    32
 71
     5
 42
205.0
  3
スタイル10
100
AcDbAlignedDimension
 13
-8181.694632527282
 23
798.9899164808867
 33
0.0
 14
-7976.694632527283
 24
798.9899164808867
 34
0.0
100
AcDbRotatedDimension
  0
DIMENSION
  5
5F29
330
2
100
AcDbEntity
  8
01-寸法線
100
AcDbDimension
  2
*D22
 10
-7876.694632527282
 20
1048.989916480886
 30
0.0
 11
-7896.694632527282
 21
923.9899164808853
 31
0.0
 70
    32
 71
     5
 42
250.0
  3
スタイル10
100
AcDbAlignedDimension
 13
-7976.694632527283
 23
798.9899164808867
 33
0.0
 14
-8001.694632527282
 24
1048.989916480886
 34
0.0
 50
90.0
100
AcDbRotatedDimension
  0
DIMENSION
  5
5F36
330
2
100
AcDbEntity
  8
01-寸法線
100
AcDbDimension
  2
*D23
 10
-8001.694632527282
 20
1148.989916480886
 30
0.0
 11
-8091.694632527282
 21
1168.989916480887
 31
0.0
 70
    32
 71
     5
 42
180.0
  3
スタイル10
100
AcDbAlignedDimension
 13
-8181.694632527282
 23
1048.989916480886
 33
0.0
 14
-8001.694632527282
 24
1048.989916480886
 34
0.0
100
AcDbRotatedDimension
  0
LINE
  5
5F47
330
2
100
AcDbEntity
  8
02-外形線
100
AcDbLine
 10
-8181.694632527282
 20
798.9899164808867
 30
0.0
 11
-7976.694632527283
 21
798.9899164808867
 31
0.0
  0
ARC
  5
5F48
330
2
100
AcDbEntity
  8
02-外形線
100
AcDbCircle
 10
-8028.844259390645
 20
1018.989916480887
 30
0.0
 40
30.0
100
AcDbArc
 50
5.710593137499633
 51
90.0
  0
LINE
  5
5F49
330
2
100
AcDbEntity
  8
01-寸法線
100
AcDbLine
 10
-8017.708730664985
 20
1048.989916480886
 30
0.0
 11
-8001.694632527282
 21
1048.989916480886
 31
0.0
  0
LINE
  5
5F4A
330
2
100
AcDbEntity
  8
01-寸法線
100
AcDbLine
 10
-8001.694632527282
 20
1048.989916480886
 30
0.0
 11
-8000.101170205814
 21
1033.055293266199
 31
0.0
  0
LINE
  5
6007
330
2
100
AcDbEntity
  8
02-外形線
100
AcDbLine
 10
-8184.374124451593
 20
333.9899164808867
 30
0.0
 11
-8031.523751314955
 21
333.9899164808867
 31
0.0
  0
LINE
  5
6008
330
2
100
AcDbEntity
  8
02-外形線
100
AcDbLine
 10
-8001.672635608656
 20
306.9750280515168
 30
0.0
 11
-7974.374124451593
 21
33.98991648088668
 31
0.0
  0
LINE
  5
6009
330
2
100
AcDbEntity
  8
02-外形線
100
AcDbLine
 10
-7974.374124451593
 20
33.98991648088668
 30
0.0
 11
-8184.374124451593
 21
33.98991648088668
 31
0.0
  0
DIMENSION
  5
600A
330
2
100
AcDbEntity
  8
01-寸法線
100
AcDbDimension
  2
*D24
 10
-7974.374124451593
 20
-66.01008351911321
 30
0.0
 11
-8079.374124451593
 21
-46.0100835191132
 31
0.0
 70
    32
 71
     5
 42
210.0
  3
スタイル10
100
AcDbAlignedDimension
 13
-8184.374124451593
 23
33.98991648088679
 33
0.0
 14
-7974.374124451593
 24
33.98991648088679
 34
0.0
100
AcDbRotatedDimension
  0
DIMENSION
  5
6017
330
2
100
AcDbEntity
  8
01-寸法線
100
AcDbDimension
  2
*D25
 10
-7874.374124451593
 20
333.9899164808868
 30
0.0
 11
-7894.374124451593
 21
183.9899164808855
 31
0.0
 70
    32
 71
     5
 42
300.0
  3
スタイル10
100
AcDbAlignedDimension
 13
-7974.374124451593
 23
33.98991648088679
 33
0.0
 14
-8004.374124451592
 24
333.9899164808868
 34
0.0
 50
90.0
100
AcDbRotatedDimension
  0
DIMENSION
  5
6024
330
2
100
AcDbEntity
  8
01-寸法線
100
AcDbDimension
  2
*D26
 10
-8004.374124451592
 20
433.9899164808867
 30
0.0
 11
-8094.374124451594
 21
453.9899164808868
 31
0.0
 70
    32
 71
     5
 42
180.0
  3
スタイル10
100
AcDbAlignedDimension
 13
-8184.374124451593
 23
333.9899164808868
 33
0.0
 14
-8004.374124451592
 24
333.9899164808868
 34
0.0
100
AcDbRotatedDimension
  0
ARC
  5
6035
330
2
100
AcDbEntity
  8
02-外形線
100
AcDbCircle
 10
-8031.523751314955
 20
303.9899164808867
 30
0.0
 40
30.0
100
AcDbArc
 50
5.710593137499633
 51
90.0
  0
LINE
  5
6036
330
2
100
AcDbEntity
  8
01-寸法線
100
AcDbLine
 10
-8004.374124451592
 20
333.9899164808867
 30
0.0
 11
-8020.388222589295
 21
333.9899164808867
 31
0.0
  0
LINE
  5
6037
330
2
100
AcDbEntity
  8
01-寸法線
100
AcDbLine
 10
-8004.374124451592
 20
333.9899164808867
 30
0.0
 11
-8002.780662130124
 21
318.0552932661969
 31
0.0
  0
LINE
  5
6129
330
2
100
AcDbEntity
  8
02-外形線
100
AcDbLine
 10
-7634.042785603938
 20
-490.9332478490568
 30
0.0
 11
-7634.042785603938
 21
-757.9303570913364
 31
0.0
  0
LINE
  5
612A
330
2
100
AcDbEntity
  8
02-外形線
100
AcDbLine
 10
-7634.042785603938
 20
-340.9332478490569
 30
0.0
 11
-7634.042785603937
 21
-380.9332478490587
 31
0.0
  0
LINE
  5
612B
330
2
100
AcDbEntity
  8
02-外形線
100
AcDbLine
 10
-7634.042785603938
 20
-340.9332478490569
 30
0.0
 11
-7634.042785603938
 21
-380.933247849056
 31
0.0
  0
LINE
  5
612C
330
2
100
AcDbEntity
  8
01-寸法線
100
AcDbLine
 10
-7634.042785603938
 20
-480.9332478490569
 30
0.0
 11
-7634.042785603938
 21
-486.9332478490568
 31
0.0
  0
LINE
  5
612D
330
2
100
AcDbEntity
  8
02-外形線
100
AcDbLine
 10
-7625.851265161049
 20
-486.6690122125674
 30
0.0
 11
-7576.702142503702
 21
-521.0835983936361
 31
0.0
  0
LINE
  5
612E
330
2
100
AcDbEntity
  8
02-外形線
100
AcDbLine
 10
-7634.042785603938
 20
-490.9332478490568
 30
0.0
 11
-7625.851265161049
 21
-486.6690122125674
 31
0.0
  0
ARC
  5
612F
330
2
100
AcDbEntity
  8
02-外形線
100
AcDbCircle
 10
-7564.705463299247
 20
-509.0869191891697
 30
0.0
 40
16.96586643438629
100
AcDbArc
 50
224.9999999999992
 51
44.99999999999918
  0
LINE
  5
6130
330
2
100
AcDbEntity
  8
01-寸法線
100
AcDbLine
 10
-7634.042785603938
 20
-480.9332478490569
 30
0.0
 11
-7629.127873338204
 21
-484.3747064671633
 31
0.0
  0
LINE
  5
6131
330
2
100
AcDbEntity
  8
02-外形線
100
AcDbLine
 10
-7634.042785603938
 20
-380.9332478490569
 30
0.0
 11
-7552.708784094789
 21
-497.0902399847091
 31
0.0
  0
LINE
  5
6132
330
2
100
AcDbEntity
  8
02-外形線
100
AcDbLine
 10
-7634.042785603938
 20
-340.9332478490569
 30
0.0
 11
-7339.683596142598
 21
-340.9332478490569
 31
0.0
  0
LINE
  5
6145
330
2
100
AcDbEntity
  8
01-寸法線
100
AcDbLine
 10
-7634.042785603938
 20
-340.9332478490569
 30
0.0
 11
-7634.042785603938
 21
-293.9332478490569
 31
0.0
  0
ARC
  5
6189
330
2
100
AcDbEntity
  8
01-寸法線
 62
     4
370
    13
100
AcDbCircle
 10
-7634.042785603938
 20
-380.9332478490574
 30
0.0
 40
74.99999999999954
100
AcDbArc
 50
320.3245113215324
 51
74.675488678468
  0
INSERT
  5
618A
330
2
100
AcDbEntity
  8
01-寸法線
 62
     4
370
    13
100
AcDbBlockReference
  2
_OPEN
 10
-7591.02455287761
 20
-442.3696511707308
 30
0.0
 41
20.0
 42
20.0
 43
20.0
 50
222.6622556607663
  0
INSERT
  5
618B
330
2
100
AcDbEntity
  8
01-寸法線
 62
     4
370
    13
100
AcDbBlockReference
  2
_OPEN
 10
-7634.042785603938
 20
-305.9332478490574
 30
0.0
 41
20.0
 42
20.0
 43
20.0
 50
172.3377443392341
  0
MTEXT
  5
618C
330
2
100
AcDbEntity
  8
01-寸法線
 62
     4
100
AcDbMText
 10
-7538.134341233927
 20
-387.0510130452374
 30
0.0
 40
30.0
 41
0.0
 71
     5
 72
     1
  1
\A1;145\U+00B0
  7
ｵﾘｼﾞﾅﾙｽﾀｲﾙ
 11
0.0436193873653526
 21
-0.9990482215818571
 31
0.0
 73
     1
 44
1.0
  0
DIMENSION
  5
6460
330
2
100
AcDbEntity
  8
01-寸法線
100
AcDbDimension
  2
*D27
 10
-7388.878375236991
 20
-382.3749527145005
 30
0.0
 11
-7413.162335105787
 21
-312.824927919653
 31
0.0
 70
    33
  1
70.9
 71
     5
 42
141.8015043061696
  3
スタイル10
100
AcDbAlignedDimension
 13
-7634.042785603938
 23
-380.9332478490569
 33
0.0
 14
-7552.708784094789
 24
-497.0902399847101
 34
0.0
  0
DIMENSION
  5
647C
330
2
100
AcDbEntity
  8
01-寸法線
100
AcDbDimension
  2
*D28
 10
-7740.566552431253
 20
-650.4994210703707
 30
0.0
 11
-7704.520462375564
 21
-651.3236732751216
 31
0.0
 70
    33
  1
30
 71
     5
 42
60.00000000000182
  3
スタイル10
100
AcDbAlignedDimension
 13
-7576.702142503707
 23
-521.0835983936293
 33
0.0
 14
-7625.851265161049
 24
-486.6690122125674
 34
0.0
  0
DIMENSION
  5
648A
330
2
100
AcDbEntity
  8
01-寸法線
100
AcDbDimension
  2
*D29
 10
-7748.758072874143
 20
-644.7636567068607
 30
0.0
 11
-7753.669585032904
 21
-616.909087094059
 31
0.0
 70
   160
  1
5
 71
     5
 42
10.0
  3
スタイル10
100
AcDbAlignedDimension
 13
-7625.851265161049
 23
-486.6690122125674
 33
0.0
 14
-7634.042785603938
 24
-480.9332478490569
 34
0.0
 50
325.0000000000019
100
AcDbRotatedDimension
  0
LINE
  5
64CA
330
2
100
AcDbEntity
  8
01-寸法線
100
AcDbLine
 10
-7576.702142503688
 20
-521.0835983936482
 30
0.0
 11
-7501.340154429127
 21
-573.8526305379322
 31
0.0
  0
ARC
  5
64CE
330
2
100
AcDbEntity
  8
01-寸法線
 62
     4
370
    13
100
AcDbCircle
 10
-7634.04278560394
 20
-480.9332478490569
 30
0.0
 40
149.9999999999999
100
AcDbArc
 50
277.6451074585487
 51
317.3548925414518
  0
INSERT
  5
64CF
330
2
100
AcDbEntity
  8
01-寸法線
 62
     4
370
    13
100
AcDbBlockReference
  2
_OPEN
 10
-7634.04278560394
 20
-630.9332478490573
 30
0.0
 41
20.0
 42
20.0
 43
20.0
 50
183.8225537292743
  0
INSERT
  5
64D0
330
2
100
AcDbEntity
  8
01-寸法線
 62
     4
370
    13
100
AcDbBlockReference
  2
_OPEN
 10
-7511.169978960589
 20
-566.9697133017134
 30
0.0
 41
20.0
 42
20.0
 43
20.0
 50
51.17744627072615
  0
MTEXT
  5
64D1
330
2
100
AcDbEntity
  8
01-寸法線
 62
     4
100
AcDbMText
 10
-7555.041235367029
 20
-587.2427192014137
 30
0.0
 40
30.0
 41
0.0
 71
     5
 72
     1
  1
\A1;55\U+00B0
  7
ｵﾘｼﾞﾅﾙｽﾀｲﾙ
 11
0.88701083317822
 21
0.4617486132350374
 31
0.0
 73
     1
 44
1.0
  0
LINE
  5
64E4
330
2
100
AcDbEntity
  8
01-寸法線
 62
     4
370
    13
100
AcDbLine
 10
-7548.317694744902
 20
-513.4780085390544
 30
0.0
 11
-7451.725112115996
 21
-539.3599130493067
 31
0.0
  0
INSERT
  5
64E5
330
2
100
AcDbEntity
  8
01-寸法線
 62
     4
370
    13
100
AcDbBlockReference
  2
_OPEN
 10
-7546.695718063181
 20
-513.9126158810641
 30
0.0
 41
20.0
 42
20.0
 43
20.0
 50
165.0
  0
MTEXT
  5
64E7
330
2
100
AcDbEntity
  8
01-寸法線
 62
     4
100
AcDbMText
 10
-7485.185764265509
 20
-509.688634719424
 30
0.0
 40
30.0
 41
0.0
 71
     5
 72
     1
  1
8.5r
  7
ｵﾘｼﾞﾅﾙｽﾀｲﾙ
 11
0.9659258262890682
 21
-0.2588190451025207
 31
0.0
 73
     1
 44
1.0
  0
DIMENSION
  5
6521
330
2
100
AcDbEntity
  8
01-寸法線
100
AcDbDimension
  2
*D30
 10
-7734.042785603938
 20
-480.9332478490569
 30
0.0
 11
-7754.042785603939
 21
-430.9332478490577
 31
0.0
 70
    32
  1
50
 71
     5
 42
100.0000000000009
  3
スタイル10
100
AcDbAlignedDimension
 13
-7634.042785603938
 23
-380.933247849056
 33
0.0
 14
-7634.042785603938
 24
-480.9332478490569
 34
0.0
 50
90.0
100
AcDbRotatedDimension
  0
DIMENSION
  5
652E
330
2
100
AcDbEntity
  8
01-寸法線
100
AcDbDimension
  2
*D31
 10
-7734.042785603938
 20
-490.9332478490568
 30
0.0
 11
-7754.042785603939
 21
-510.9332478490569
 31
0.0
 70
   160
  1
5
 71
     5
 42
10.0
  3
スタイル10
100
AcDbAlignedDimension
 13
-7634.042785603938
 23
-480.9332478490569
 33
0.0
 14
-7634.042785603938
 24
-490.9332478490568
 34
0.0
 50
90.0
100
AcDbRotatedDimension
  0
CIRCLE
  5
656C
330
2
100
AcDbEntity
  8
01-寸法線
100
AcDbCircle
 10
-7599.374124451593
 20
-470.0100835191133
 30
0.0
 40
290.0
  0
CIRCLE
  5
65A1
330
2
100
AcDbEntity
  8
01-寸法線
100
AcDbCircle
 10
-8184.374124451593
 20
1668.989916480887
 30
0.0
 40
70.0
  0
CIRCLE
  5
65B3
330
2
100
AcDbEntity
  8
01-寸法線
100
AcDbCircle
 10
-8184.374124451593
 20
288.9899164808867
 30
0.0
 40
70.0
  0
CIRCLE
  5
65B4
330
2
100
AcDbEntity
  8
01-寸法線
100
AcDbCircle
 10
-8181.694632527282
 20
1003.989916480886
 30
0.0
 40
70.0
  0
LINE
  5
65B8
330
2
100
AcDbEntity
  8
01-寸法線
100
AcDbLine
 10
-8065.282642262744
 20
984.6649499925169
 30
0.0
 11
-8008.71409976782
 21
1041.23349248744
 31
0.0
  0
MTEXT
  5
65B9
330
2
100
AcDbEntity
  8
01-寸法線
 62
     4
100
AcDbMText
 10
-8058.211574450877
 20
1020.020289051844
 30
0.0
 40
30.0
 41
0.0
 71
     5
 72
     1
  1
30r
  7
ｵﾘｼﾞﾅﾙｽﾀｲﾙ
 11
0.7071067811865476
 21
0.7071067811865475
 31
0.0
 73
     1
 44
1.0
  0
INSERT
  5
65BA
330
2
100
AcDbEntity
  8
01-寸法線
 62
     4
370
    13
100
AcDbBlockReference
  2
_OPEN
 10
-8008.714099767816
 20
1041.233492487443
 30
0.0
 41
-20.0
 42
20.0
 43
20.0
 50
224.9999999999989
  0
MTEXT
  5
65C6
330
2
100
AcDbEntity
  8
01-寸法線
 62
     4
100
AcDbMText
 10
-8060.891066375187
 20
305.020289051845
 30
0.0
 40
30.0
 41
0.0
 71
     5
 72
     1
  1
30r
  7
ｵﾘｼﾞﾅﾙｽﾀｲﾙ
 11
0.7071067811865476
 21
0.7071067811865475
 31
0.0
 73
     1
 44
1.0
  0
LINE
  5
65C7
330
2
100
AcDbEntity
  8
01-寸法線
100
AcDbLine
 10
-8067.962134187053
 20
269.6649499925174
 30
0.0
 11
-8011.393591692129
 21
326.2334924874408
 31
0.0
  0
INSERT
  5
65C8
330
2
100
AcDbEntity
  8
01-寸法線
 62
     4
370
    13
100
AcDbBlockReference
  2
_OPEN
 10
-8011.393591692124
 20
326.233492487444
 30
0.0
 41
-20.0
 42
20.0
 43
20.0
 50
224.9999999999989
  0
TEXT
  5
65CD
330
2
100
AcDbEntity
  8
08-下線
100
AcDbText
 10
-8254.591267308738
 20
1757.161345052315
 30
0.0
 40
30.0
  1
防草目地部
 41
0.8
  7
ｵﾘｼﾞﾅﾙｽﾀｲﾙ
 11
-8254.591267308738
 21
1750.989916480887
 31
0.0
100
AcDbText
 73
     1
  0
TEXT
  5
6673
330
2
100
AcDbEntity
  8
08-下線
100
AcDbText
 10
-8155.619512333709
 20
-243.4012670655695
 30
0.0
 40
36.0
  1
%%U防草目地部詳細図
 41
0.8
  7
ｵﾘｼﾞﾅﾙｽﾀｲﾙ
 72
     2
 11
-7818.577226619424
 21
-250.8069813512837
 31
0.0
100
AcDbText
 73
     1
  0
TEXT
  5
67A9
330
2
100
AcDbEntity
  8
08-下線
100
AcDbText
 10
-7230.351267308737
 20
705.1613450523152
 30
0.0
 40
30.0
  1
参考質量：６４ｋｇ
 41
0.8
  7
ｵﾘｼﾞﾅﾙｽﾀｲﾙ
 72
     2
 11
-6914.374124451594
 21
698.9899164808867
 31
0.0
100
AcDbText
 73
     1
  0
TEXT
  5
67AA
330
2
100
AcDbEntity
  8
08-下線
100
AcDbText
 10
-7230.351267308737
 20
-59.96302976907555
 30
0.0
 40
30.0
  1
参考質量：７９ｋｇ
 41
0.8
  7
ｵﾘｼﾞﾅﾙｽﾀｲﾙ
 72
     2
 11
-6914.374124451594
 21
-66.13445834050413
 31
0.0
100
AcDbText
 73
     1
  0
TEXT
  5
67AB
330
2
100
AcDbEntity
  8
08-下線
100
AcDbText
 10
-7230.351267308737
 20
1420.161345052315
 30
0.0
 40
30.0
  1
参考質量：４２ｋｇ
 41
0.8
  7
ｵﾘｼﾞﾅﾙｽﾀｲﾙ
 72
     2
 11
-6914.374124451594
 21
1413.989916480886
 31
0.0
100
AcDbText
 73
     1
  0
TEXT
  5
68DE
330
2
100
AcDbEntity
  8
08-下線
100
AcDbText
 10
-8251.911775384426
 20
1092.161345052315
 30
0.0
 40
30.0
  1
防草目地部
 41
0.8
  7
ｵﾘｼﾞﾅﾙｽﾀｲﾙ
 11
-8251.911775384426
 21
1085.989916480887
 31
0.0
100
AcDbText
 73
     1
  0
TEXT
  5
68DF
330
2
100
AcDbEntity
  8
08-下線
100
AcDbText
 10
-8254.591267308738
 20
377.1613450523152
 30
0.0
 40
30.0
  1
防草目地部
 41
0.8
  7
ｵﾘｼﾞﾅﾙｽﾀｲﾙ
 11
-8254.591267308738
 21
370.9899164808867
 31
0.0
100
AcDbText
 73
     1
  0
DIMENSION
  5
68EB
330
2
100
AcDbEntity
  8
01-寸法線
100
AcDbDimension
  2
*D32
 10
-7734.042785603938
 20
-340.9332478490569
 30
0.0
 11
-7754.042785603939
 21
-360.9332478490577
 31
0.0
 70
    32
  1
20
 71
     5
 42
39.99999999999909
  3
スタイル10
100
AcDbAlignedDimension
 13
-7634.042785603938
 23
-380.933247849056
 33
0.0
 14
-7634.042785603938
 24
-340.9332478490569
 34
0.0
 50
90.0
100
AcDbRotatedDimension
  0
VIEWPORT
  5
295B
330
7
100
AcDbEntity
 67
     1
  8
0
100
AcDbViewport
 10
5.249999639556163
 20
3.999999883606677
 30
0.0
 40
15.11229656525498
 41
8.992999745766947
 68
     1
 69
     1
 12
5.249999639556163
 22
3.999999883606677
 13
0.0
 23
0.0
 14
10.0
 24
10.0
 15
10.0
 25
10.0
 16
0.0
 26
0.0
 36
1.0
 17
0.0
 27
0.0
 37
0.0
 42
50.0
 43
0.0
 44
0.0
 45
8.992999745766947
 50
0.0
 51
0.0
 72
   100
 90
    32800
  1

281
     0
 71
     1
 74
     0
110
0.0
120
0.0
130
0.0
111
1.0
121
0.0
131
0.0
112
0.0
122
1.0
132
0.0
 79
     0
146
0.0
170
     0
  0
VIEWPORT
  5
295D
330
7
100
AcDbEntity
 67
     1
  8
04-鉄筋線
100
AcDbViewport
 10
5.24999976158142
 20
3.99999976158142
 30
0.0
 40
8.399999618530271
 41
6.399999618530272
 68
     2
 69
     2
 12
3712.5
 22
2625.0
 13
0.0
 23
0.0
 14
100.0
 24
100.0
 15
0.0
 25
0.0
 16
0.0
 26
0.0
 36
1.0
 17
0.0
 27
0.0
 37
0.0
 42
50.0
 43
0.0
 44
0.0
 45
5340.1442243592
 50
0.0
 51
0.0
 72
   100
 90
    32768
  1

281
     0
 71
     1
 74
     0
110
0.0
120
0.0
130
0.0
111
1.0
121
0.0
131
0.0
112
0.0
122
1.0
132
0.0
 79
     0
146
0.0
170
     0
  0
ENDSEC
  0
SECTION
  2
OBJECTS
  0
DICTIONARY
  5
1A
330
0
100
AcDbDictionary
281
     1
  3
ACAD_CIP_PREVIOUS_PRODUCT_INFO
350
695A
  3
ACAD_COLOR
350
1FC9
  3
ACAD_DETAILVIEWSTYLE
350
694F
  3
ACAD_GROUP
350
18
  3
ACAD_LAYOUT
350
1FCC
  3
ACAD_MATERIAL
350
1FC8
  3
ACAD_MLEADERSTYLE
350
694B
  3
ACAD_MLINESTYLE
350
19
  3
ACAD_PLOTSETTINGS
350
1FCD
  3
ACAD_PLOTSTYLENAME
350
1FC6
  3
ACAD_SCALELIST
350
6939
  3
ACAD_SECTIONVIEWSTYLE
350
694D
  3
ACAD_TABLESTYLE
350
1FCA
  3
ACAD_VISUALSTYLE
350
6920
  3
ACDB_RECOMPOSE_DATA
350
697F
  3
AcDbVariableDictionary
350
1FDC
  0
DICTIONARY
  5
695B
330
4
100
AcDbDictionary
280
     1
281
     1
  3
ADSK_XREC_LAYER_RECONCILED
360
695C
  0
DICTIONARY
  5
695D
330
55A
100
AcDbDictionary
280
     1
281
     1
  3
ADSK_XREC_LAYER_RECONCILED
360
695E
  0
DICTIONARY
  5
695F
330
86C
100
AcDbDictionary
280
     1
281
     1
  3
ADSK_XREC_LAYER_RECONCILED
360
6960
  0
DICTIONARY
  5
6961
330
104E
100
AcDbDictionary
280
     1
281
     1
  3
ADSK_XREC_LAYER_RECONCILED
360
6962
  0
DICTIONARY
  5
6963
330
104F
100
AcDbDictionary
280
     1
281
     1
  3
ADSK_XREC_LAYER_RECONCILED
360
6964
  0
DICTIONARY
  5
6965
330
1050
100
AcDbDictionary
280
     1
281
     1
  3
ADSK_XREC_LAYER_RECONCILED
360
6966
  0
DICTIONARY
  5
6967
330
1051
100
AcDbDictionary
280
     1
281
     1
  3
ADSK_XREC_LAYER_RECONCILED
360
6968
  0
DICTIONARY
  5
6969
330
1052
100
AcDbDictionary
280
     1
281
     1
  3
ADSK_XREC_LAYER_RECONCILED
360
696A
  0
DICTIONARY
  5
696B
330
1053
100
AcDbDictionary
280
     1
281
     1
  3
ADSK_XREC_LAYER_RECONCILED
360
696C
  0
DICTIONARY
  5
696D
330
1054
100
AcDbDictionary
280
     1
281
     1
  3
ADSK_XREC_LAYER_RECONCILED
360
696E
  0
DICTIONARY
  5
696F
330
218B
100
AcDbDictionary
280
     1
281
     1
  3
ADSK_XREC_LAYER_RECONCILED
360
6970
  0
DICTIONARY
  5
6971
330
218C
100
AcDbDictionary
280
     1
281
     1
  3
ADSK_XREC_LAYER_RECONCILED
360
6972
  0
DICTIONARY
  5
6973
330
2B0E
100
AcDbDictionary
280
     1
281
     1
  3
ADSK_XREC_LAYER_RECONCILED
360
6974
  0
DICTIONARY
  5
6975
330
3FAF
100
AcDbDictionary
280
     1
281
     1
  3
ADSK_XREC_LAYER_RECONCILED
360
6976
  0
XRECORD
  5
695A
102
{ACAD_REACTORS
330
1A
102
}
330
1A
100
AcDbXrecord
280
     1
300
ACDLT
300
2013
300
ACDLT_F_S
  0
DICTIONARY
  5
1FC9
102
{ACAD_REACTORS
330
1A
102
}
330
1A
100
AcDbDictionary
281
     1
  0
DICTIONARY
  5
694F
102
{ACAD_REACTORS
330
1A
102
}
330
1A
100
AcDbDictionary
281
     1
  3
Imperial24
350
6950
  0
DICTIONARY
  5
18
102
{ACAD_REACTORS
330
1A
102
}
330
1A
100
AcDbDictionary
281
     1
  0
DICTIONARY
  5
1FCC
102
{ACAD_REACTORS
330
1A
102
}
330
1A
100
AcDbDictionary
281
     1
  3
Model
350
1FCE
  3
レイアウト1
350
1FCF
  0
DICTIONARY
  5
1FC8
102
{ACAD_REACTORS
330
1A
102
}
330
1A
100
AcDbDictionary
281
     1
  3
ByBlock
350
6910
  3
ByLayer
350
6908
  3
Global
350
6918
  0
DICTIONARY
  5
694B
102
{ACAD_REACTORS
330
1A
102
}
330
1A
100
AcDbDictionary
281
     1
  3
Standard
350
694C
  0
DICTIONARY
  5
19
102
{ACAD_REACTORS
330
1A
102
}
330
1A
100
AcDbDictionary
281
     1
  3
STANDARD
350
1C
  0
DICTIONARY
  5
1FCD
102
{ACAD_REACTORS
330
1A
102
}
330
1A
100
AcDbDictionary
281
     1
  0
ACDBDICTIONARYWDFLT
  5
1FC6
102
{ACAD_REACTORS
330
1A
102
}
330
1A
100
AcDbDictionary
281
     1
  3
Normal
350
1FC7
100
AcDbDictionaryWithDefault
340
1FC7
  0
DICTIONARY
  5
6939
102
{ACAD_REACTORS
330
1A
102
}
330
1A
100
AcDbDictionary
281
     1
  3
A0
350
693A
  3
A1
350
693B
  3
A2
350
693C
  3
A3
350
693D
  3
A4
350
693E
  3
A5
350
693F
  3
A6
350
6940
  3
A7
350
6941
  3
A8
350
6942
  3
A9
350
6943
  3
B0
350
6944
  3
B1
350
6945
  3
B2
350
6946
  3
B3
350
6947
  3
B4
350
6948
  3
B5
350
6949
  3
B6
350
694A
  0
DICTIONARY
  5
694D
102
{ACAD_REACTORS
330
1A
102
}
330
1A
100
AcDbDictionary
281
     1
  3
Imperial24
350
694E
  0
DICTIONARY
  5
1FCA
102
{ACAD_REACTORS
330
1A
102
}
330
1A
100
AcDbDictionary
281
     1
  3
Standard
350
1FCB
  0
DICTIONARY
  5
6920
102
{ACAD_REACTORS
330
1A
102
}
330
1A
100
AcDbDictionary
281
     1
  3
2dWireframe
350
6926
  3
Basic
350
6925
  3
Brighten
350
692C
  3
ColorChange
350
6930
  3
Conceptual
350
6929
  3
Dim
350
692B
  3
EdgeColorOff
350
6938
  3
Facepattern
350
692F
  3
Flat
350
6921
  3
FlatWithEdges
350
6922
  3
Gouraud
350
6923
  3
GouraudWithEdges
350
6924
  3
Hidden
350
6928
  3
JitterOff
350
6936
  3
Linepattern
350
692E
  3
OverhangOff
350
6937
  3
Realistic
350
692A
  3
Shaded
350
6935
  3
Shaded with edges
350
6934
  3
Shades of Gray
350
6931
  3
Sketchy
350
6932
  3
Thicken
350
692D
  3
Wireframe
350
6927
  3
X-Ray
350
6933
  0
XRECORD
  5
697F
102
{ACAD_REACTORS
330
1A
102
}
330
1A
100
AcDbXrecord
280
     1
 90
        1
330
1FCB
  0
DICTIONARY
  5
1FDC
102
{ACAD_REACTORS
330
1A
102
}
330
1A
100
AcDbDictionary
281
     1
  3
CANNOSCALE
350
697A
  3
CMLEADERSTYLE
350
6977
  3
CTABLESTYLE
350
1FDD
  3
CVIEWDETAILSTYLE
350
6978
  3
CVIEWSECTIONSTYLE
350
6979
  3
DIMASSOC
350
1FDE
  3
PROJECTNAME
350
1FDF
  3
XCLIPFRAME
350
697B
  0
XRECORD
  5
695C
102
{ACAD_REACTORS
330
695B
102
}
330
695B
100
AcDbXrecord
280
     1
290
     1
  0
XRECORD
  5
695E
102
{ACAD_REACTORS
330
695D
102
}
330
695D
100
AcDbXrecord
280
     1
290
     1
  0
XRECORD
  5
6960
102
{ACAD_REACTORS
330
695F
102
}
330
695F
100
AcDbXrecord
280
     1
290
     1
  0
XRECORD
  5
6962
102
{ACAD_REACTORS
330
6961
102
}
330
6961
100
AcDbXrecord
280
     1
290
     1
  0
XRECORD
  5
6964
102
{ACAD_REACTORS
330
6963
102
}
330
6963
100
AcDbXrecord
280
     1
290
     1
  0
XRECORD
  5
6966
102
{ACAD_REACTORS
330
6965
102
}
330
6965
100
AcDbXrecord
280
     1
290
     1
  0
XRECORD
  5
6968
102
{ACAD_REACTORS
330
6967
102
}
330
6967
100
AcDbXrecord
280
     1
290
     1
  0
XRECORD
  5
696A
102
{ACAD_REACTORS
330
6969
102
}
330
6969
100
AcDbXrecord
280
     1
290
     1
  0
XRECORD
  5
696C
102
{ACAD_REACTORS
330
696B
102
}
330
696B
100
AcDbXrecord
280
     1
290
     1
  0
XRECORD
  5
696E
102
{ACAD_REACTORS
330
696D
102
}
330
696D
100
AcDbXrecord
280
     1
290
     1
  0
XRECORD
  5
6970
102
{ACAD_REACTORS
330
696F
102
}
330
696F
100
AcDbXrecord
280
     1
290
     1
  0
XRECORD
  5
6972
102
{ACAD_REACTORS
330
6971
102
}
330
6971
100
AcDbXrecord
280
     1
290
     1
  0
XRECORD
  5
6974
102
{ACAD_REACTORS
330
6973
102
}
330
6973
100
AcDbXrecord
280
     1
290
     1
  0
XRECORD
  5
6976
102
{ACAD_REACTORS
330
6975
102
}
330
6975
100
AcDbXrecord
280
     1
290
     1
  0
ACDBDETAILVIEWSTYLE
  5
6950
102
{ACAD_REACTORS
330
694F
102
}
330
694F
100
AcDbModelDocViewStyle
 70
     0
  3
Imperial24
290
     0
100
AcDbDetailViewStyle
 70
     0
 71
     0
 90
        3
 71
     1
340
C
 62
   256
 40
0.24
340
0
 62
   256
 40
0.24
300

 40
0.36
280
     3
 71
     2
340
5
 90
       25
 62
   256
 71
     3
340
C
 62
   256
 40
0.24
 90
        1
 40
0.75
 90
        1
300
%<\AcVar ViewType \f "%tc1">% %<\AcVar ViewDetailId>%\PSCALE %<\AcVar ViewScale \f "%sn">%
 71
     4
340
5
 90
       25
 62
   256
340
5
 90
       25
 62
   256
280
     0
  0
LAYOUT
  5
1FCE
102
{ACAD_REACTORS
330
1FCC
102
}
330
1FCC
100
AcDbPlotSettings
  1

  2
\\DBSERVER1\Canon SEIZOU
  4
A4
  6

 40
5.873749732971191
 41
5.873747825622558
 42
5.873748779296875
 43
5.873748779296875
 44
209.9733276367187
 45
296.9259948730469
 46
-5.959999999999999
 47
-5.929999999999999
 48
-6341.559379514656
 49
-443.1344842068884
140
-4661.559379514655
141
1932.865515793112
142
1.0
143
12.0
 70
 11940
 72
     1
 73
     0
 74
     1
  7
monochrome.ctb
 75
     0
147
0.0833333333333333
 76
     0
 77
     2
 78
   300
148
8890.120762495604
149
1015.296805819269
100
AcDbLayout
  1
Model
 70
     1
 71
     0
 10
0.0
 20
0.0
 11
12.0
 21
9.0
 12
0.0
 22
0.0
 32
0.0
 14
0.0
 24
0.0
 34
0.0
 15
0.0
 25
0.0
 35
0.0
146
0.0
 13
0.0
 23
0.0
 33
0.0
 16
1.0
 26
0.0
 36
0.0
 17
0.0
 27
1.0
 37
0.0
 76
     0
330
2
331
6906
  0
LAYOUT
  5
1FCF
102
{ACAD_REACTORS
330
1FCC
102
}
330
1FCC
100
AcDbPlotSettings
  1

  2
none_device
  4
Letter_(8.50_x_11.00_Inches)
  6

 40
6.349999904632568
 41
6.349999904632568
 42
6.350006103515625
 43
6.350006103515625
 44
215.8999938964844
 45
279.3999938964844
 46
0.0
 47
0.0
 48
0.0
 49
0.0
140
0.0
141
0.0
142
1.0
143
1.0
 70
   688
 72
     0
 73
     1
 74
     5
  7
monochrome.ctb
 75
    16
147
1.0
 76
     0
 77
     2
 78
   300
148
0.0
149
0.0
100
AcDbLayout
  1
レイアウト1
 70
     0
 71
     1
 10
-0.2500002402958907
 20
-0.2499999962453767
 11
10.74999951940821
 21
8.249999763458731
 12
0.0
 22
0.0
 32
0.0
 14
1.049999952316284
 24
0.7999999523162842
 34
0.0
 15
9.449999570846555
 25
7.199999570846556
 35
0.0
146
0.0
 13
0.0
 23
0.0
 33
0.0
 16
1.0
 26
0.0
 36
0.0
 17
0.0
 27
1.0
 37
0.0
 76
     0
330
7
331
295B
  0
MATERIAL
  5
6910
102
{ACAD_XDICTIONARY
360
6911
102
}
102
{ACAD_REACTORS
330
1FC8
102
}
330
1FC8
100
AcDbMaterial
  1
ByBlock
 72
     0
 43
0.0008202099737533
 43
0.0
 43
0.0
 43
0.0
 43
0.0
 43
0.0008202099737533
 43
0.0
 43
0.0
 43
0.0
 43
0.0
 43
1.0
 43
0.0
 43
0.0
 43
0.0
 43
0.0
 43
1.0
 77
     0
 47
0.0008202099737533
 47
0.0
 47
0.0
 47
0.0
 47
0.0
 47
0.0008202099737533
 47
0.0
 47
0.0
 47
0.0
 47
0.0
 47
1.0
 47
0.0
 47
0.0
 47
0.0
 47
0.0
 47
1.0
171
     0
 49
0.0008202099737533
 49
0.0
 49
0.0
 49
0.0
 49
0.0
 49
0.0008202099737533
 49
0.0
 49
0.0
 49
0.0
 49
0.0
 49
1.0
 49
0.0
 49
0.0
 49
0.0
 49
0.0
 49
1.0
175
     0
142
0.0008202099737533
142
0.0
142
0.0
142
0.0
142
0.0
142
0.0008202099737533
142
0.0
142
0.0
142
0.0
142
0.0
142
1.0
142
0.0
142
0.0
142
0.0
142
0.0
142
1.0
179
     0
144
0.0008202099737533
144
0.0
144
0.0
144
0.0
144
0.0
144
0.0008202099737533
144
0.0
144
0.0
144
0.0
144
0.0
144
1.0
144
0.0
144
0.0
144
0.0
144
0.0
144
1.0
147
0.0008202099737533
147
0.0
147
0.0
147
0.0
147
0.0
147
0.0008202099737533
147
0.0
147
0.0
147
0.0
147
0.0
147
1.0
147
0.0
147
0.0
147
0.0
147
0.0
147
1.0
  0
MATERIAL
  5
6908
102
{ACAD_XDICTIONARY
360
6909
102
}
102
{ACAD_REACTORS
330
1FC8
102
}
330
1FC8
100
AcDbMaterial
  1
ByLayer
 72
     0
 43
0.0008202099737533
 43
0.0
 43
0.0
 43
0.0
 43
0.0
 43
0.0008202099737533
 43
0.0
 43
0.0
 43
0.0
 43
0.0
 43
1.0
 43
0.0
 43
0.0
 43
0.0
 43
0.0
 43
1.0
 77
     0
 47
0.0008202099737533
 47
0.0
 47
0.0
 47
0.0
 47
0.0
 47
0.0008202099737533
 47
0.0
 47
0.0
 47
0.0
 47
0.0
 47
1.0
 47
0.0
 47
0.0
 47
0.0
 47
0.0
 47
1.0
171
     0
 49
0.0008202099737533
 49
0.0
 49
0.0
 49
0.0
 49
0.0
 49
0.0008202099737533
 49
0.0
 49
0.0
 49
0.0
 49
0.0
 49
1.0
 49
0.0
 49
0.0
 49
0.0
 49
0.0
 49
1.0
175
     0
142
0.0008202099737533
142
0.0
142
0.0
142
0.0
142
0.0
142
0.0008202099737533
142
0.0
142
0.0
142
0.0
142
0.0
142
1.0
142
0.0
142
0.0
142
0.0
142
0.0
142
1.0
179
     0
144
0.0008202099737533
144
0.0
144
0.0
144
0.0
144
0.0
144
0.0008202099737533
144
0.0
144
0.0
144
0.0
144
0.0
144
1.0
144
0.0
144
0.0
144
0.0
144
0.0
144
1.0
147
0.0008202099737533
147
0.0
147
0.0
147
0.0
147
0.0
147
0.0008202099737533
147
0.0
147
0.0
147
0.0
147
0.0
147
1.0
147
0.0
147
0.0
147
0.0
147
0.0
147
1.0
  0
MATERIAL
  5
6918
102
{ACAD_XDICTIONARY
360
6919
102
}
102
{ACAD_REACTORS
330
1FC8
102
}
330
1FC8
100
AcDbMaterial
  1
Global
 72
     0
 43
0.0008202099737533
 43
0.0
 43
0.0
 43
0.0
 43
0.0
 43
0.0008202099737533
 43
0.0
 43
0.0
 43
0.0
 43
0.0
 43
1.0
 43
0.0
 43
0.0
 43
0.0
 43
0.0
 43
1.0
 77
     0
 47
0.0008202099737533
 47
0.0
 47
0.0
 47
0.0
 47
0.0
 47
0.0008202099737533
 47
0.0
 47
0.0
 47
0.0
 47
0.0
 47
1.0
 47
0.0
 47
0.0
 47
0.0
 47
0.0
 47
1.0
171
     0
 49
0.0008202099737533
 49
0.0
 49
0.0
 49
0.0
 49
0.0
 49
0.0008202099737533
 49
0.0
 49
0.0
 49
0.0
 49
0.0
 49
1.0
 49
0.0
 49
0.0
 49
0.0
 49
0.0
 49
1.0
175
     0
142
0.0008202099737533
142
0.0
142
0.0
142
0.0
142
0.0
142
0.0008202099737533
142
0.0
142
0.0
142
0.0
142
0.0
142
1.0
142
0.0
142
0.0
142
0.0
142
0.0
142
1.0
179
     0
144
0.0008202099737533
144
0.0
144
0.0
144
0.0
144
0.0
144
0.0008202099737533
144
0.0
144
0.0
144
0.0
144
0.0
144
1.0
144
0.0
144
0.0
144
0.0
144
0.0
144
1.0
147
0.0008202099737533
147
0.0
147
0.0
147
0.0
147
0.0
147
0.0008202099737533
147
0.0
147
0.0
147
0.0
147
0.0
147
1.0
147
0.0
147
0.0
147
0.0
147
0.0
147
1.0
  0
MLEADERSTYLE
  5
694C
102
{ACAD_XDICTIONARY
360
69B6
102
}
102
{ACAD_REACTORS
330
694B
102
}
330
694B
100
AcDbMLeaderStyle
170
     2
171
     1
172
     0
 90
        2
 40
0.0
 41
0.0
173
     1
 91
-1056964608
340
E
 92
       -2
290
     1
 42
0.09
291
     1
 43
0.36
  3
Standard
 44
0.18
300

342
C
174
     1
178
     6
175
     1
176
     0
 93
-1056964608
 45
0.18
292
     0
297
     0
 46
0.18
 94
-1056964608
 47
1.0
 49
1.0
140
1.0
293
     1
141
0.0
294
     1
177
     0
142
1.0
295
     0
296
     0
143
0.125
1001
ACAD_MLEADERVER
1070
     2
  0
MLINESTYLE
  5
1C
102
{ACAD_REACTORS
330
19
102
}
330
19
100
AcDbMlineStyle
  2
STANDARD
 70
     0
  3

 62
     0
 51
90.0
 52
90.0
 71
     2
 49
0.5
 62
   256
  6
BYLAYER
 49
-0.5
 62
   256
  6
BYLAYER
  0
ACDBPLACEHOLDER
  5
1FC7
102
{ACAD_REACTORS
330
1FC6
102
}
330
1FC6
  0
SCALE
  5
693A
102
{ACAD_REACTORS
330
6939
102
}
330
6939
100
AcDbScale
 70
     0
300
1:1
140
1.0
141
1.0
290
     1
  0
SCALE
  5
693B
102
{ACAD_REACTORS
330
6939
102
}
330
6939
100
AcDbScale
 70
     0
300
1/128" = 1'-0"
140
0.0078125
141
12.0
290
     0
  0
SCALE
  5
693C
102
{ACAD_REACTORS
330
6939
102
}
330
6939
100
AcDbScale
 70
     0
300
1/64" = 1'-0"
140
0.015625
141
12.0
290
     0
  0
SCALE
  5
693D
102
{ACAD_REACTORS
330
6939
102
}
330
6939
100
AcDbScale
 70
     0
300
1/32" = 1'-0"
140
0.03125
141
12.0
290
     0
  0
SCALE
  5
693E
102
{ACAD_REACTORS
330
6939
102
}
330
6939
100
AcDbScale
 70
     0
300
1/16" = 1'-0"
140
0.0625
141
12.0
290
     0
  0
SCALE
  5
693F
102
{ACAD_REACTORS
330
6939
102
}
330
6939
100
AcDbScale
 70
     0
300
3/32" = 1'-0"
140
0.09375
141
12.0
290
     0
  0
SCALE
  5
6940
102
{ACAD_REACTORS
330
6939
102
}
330
6939
100
AcDbScale
 70
     0
300
1/8" = 1'-0"
140
0.125
141
12.0
290
     0
  0
SCALE
  5
6941
102
{ACAD_REACTORS
330
6939
102
}
330
6939
100
AcDbScale
 70
     0
300
3/16" = 1'-0"
140
0.1875
141
12.0
290
     0
  0
SCALE
  5
6942
102
{ACAD_REACTORS
330
6939
102
}
330
6939
100
AcDbScale
 70
     0
300
1/4" = 1'-0"
140
0.25
141
12.0
290
     0
  0
SCALE
  5
6943
102
{ACAD_REACTORS
330
6939
102
}
330
6939
100
AcDbScale
 70
     0
300
3/8" = 1'-0"
140
0.375
141
12.0
290
     0
  0
SCALE
  5
6944
102
{ACAD_REACTORS
330
6939
102
}
330
6939
100
AcDbScale
 70
     0
300
1/2" = 1'-0"
140
0.5
141
12.0
290
     0
  0
SCALE
  5
6945
102
{ACAD_REACTORS
330
6939
102
}
330
6939
100
AcDbScale
 70
     0
300
3/4" = 1'-0"
140
0.75
141
12.0
290
     0
  0
SCALE
  5
6946
102
{ACAD_REACTORS
330
6939
102
}
330
6939
100
AcDbScale
 70
     0
300
1" = 1'-0"
140
1.0
141
12.0
290
     0
  0
SCALE
  5
6947
102
{ACAD_REACTORS
330
6939
102
}
330
6939
100
AcDbScale
 70
     0
300
1-1/2" = 1'-0"
140
1.5
141
12.0
290
     0
  0
SCALE
  5
6948
102
{ACAD_REACTORS
330
6939
102
}
330
6939
100
AcDbScale
 70
     0
300
3" = 1'-0"
140
3.0
141
12.0
290
     0
  0
SCALE
  5
6949
102
{ACAD_REACTORS
330
6939
102
}
330
6939
100
AcDbScale
 70
     0
300
6" = 1'-0"
140
6.0
141
12.0
290
     0
  0
SCALE
  5
694A
102
{ACAD_REACTORS
330
6939
102
}
330
6939
100
AcDbScale
 70
     0
300
1'-0" = 1'-0"
140
12.0
141
12.0
290
     0
  0
ACDBSECTIONVIEWSTYLE
  5
694E
102
{ACAD_REACTORS
330
694D
102
}
330
694D
100
AcDbModelDocViewStyle
 70
     0
  3
Imperial24
290
     0
100
AcDbSectionViewStyle
 70
     0
 71
     0
 90
       78
 71
     1
340
C
 62
   256
 40
0.24
340
0
340
0
 62
   256
 40
0.24
300
I, O, Q, S, X, Z
 40
0.48
 90
        3
 40
0.18
 90
        1
 71
     2
340
104D
 90
       25
 62
   256
340
5
 90
       50
 62
   256
 40
0.24
 40
0.0
 40
0.24
 71
     3
340
C
 62
   256
 40
0.24
 90
        1
 40
0.75
 90
        1
300
%<\AcVar ViewType \f "%tc1">% %<\AcVar ViewSectionStartId>%-%<\AcVar ViewSectionEndId>%\PSCALE %<\AcVar ViewScale \f "%sn">%
 71
     4
 62
   256
 62
   257
300
ANSI31
 40
1.0
 90
        0
290
     0
290
     0
 90
        6
 40
0.0
 40
1.570796326794896
 40
0.2617993877991494
 40
1.308996938995747
 40
-0.2617993877991494
 40
1.832595714594046
  0
TABLESTYLE
  5
1FCB
102
{ACAD_XDICTIONARY
360
697D
102
}
102
{ACAD_REACTORS
330
1FCA
102
}
330
1FCA
100
AcDbTableStyle
  3
Standard
 70
     0
 71
     0
 40
0.06
 41
0.06
280
     0
281
     0
  7
STANDARD
140
0.18
170
     2
 62
     0
 63
     7
283
     0
274
    -2
284
     1
 64
     0
275
    -2
285
     1
 65
     0
276
    -2
286
     1
 66
     0
277
    -2
287
     1
 67
     0
278
    -2
288
     1
 68
     0
279
    -2
289
     1
 69
     0
  7
STANDARD
140
0.25
170
     5
 62
     0
 63
     7
283
     0
274
    -2
284
     1
 64
     0
275
    -2
285
     1
 65
     0
276
    -2
286
     1
 66
     0
277
    -2
287
     1
 67
     0
278
    -2
288
     1
 68
     0
279
    -2
289
     1
 69
     0
  7
STANDARD
140
0.18
170
     5
 62
     0
 63
     7
283
     0
274
    -2
284
     1
 64
     0
275
    -2
285
     1
 65
     0
276
    -2
286
     1
 66
     0
277
    -2
287
     1
 67
     0
278
    -2
288
     1
 68
     0
279
    -2
289
     1
 69
     0
  0
VISUALSTYLE
  5
6926
102
{ACAD_XDICTIONARY
360
698F
102
}
102
{ACAD_REACTORS
330
6920
102
}
330
6920
100
AcDbVisualStyle
  2
2dWireframe
 70
     4
 71
     0
 72
     2
 73
     0
 90
        0
 40
-0.6
 41
-30.0
 62
     5
 63
     7
421
 16777215
 74
     1
 91
        4
 64
     7
 65
   257
 75
     1
175
     1
 42
1.0
 92
        0
 66
   257
 43
1.0
 76
     1
 77
     6
 78
     2
 67
     7
 79
     5
170
     0
171
     0
290
     0
174
     0
 93
        1
 44
0.0
173
     0
291
     0
 45
0.0
1001
ACAD
1000
AcDbSavedByObjectVersion
1070
     0
  0
VISUALSTYLE
  5
6925
102
{ACAD_XDICTIONARY
360
698D
102
}
102
{ACAD_REACTORS
330
6920
102
}
330
6920
100
AcDbVisualStyle
  2
Basic
 70
     7
 71
     1
 72
     0
 73
     1
 90
        0
 40
-0.6
 41
-30.0
 62
     5
 63
     7
421
 16777215
 74
     0
 91
        4
 64
     7
 65
   257
 75
     1
175
     1
 42
1.0
 92
        8
 66
     7
 43
1.0
 76
     1
 77
     6
 78
     2
 67
     7
 79
     5
170
     0
171
     0
290
     0
174
     0
 93
        1
 44
0.0
173
     0
291
     1
 45
0.0
1001
ACAD
1000
AcDbSavedByObjectVersion
1070
     0
  0
VISUALSTYLE
  5
692C
102
{ACAD_XDICTIONARY
360
699B
102
}
102
{ACAD_REACTORS
330
6920
102
}
330
6920
100
AcDbVisualStyle
  2
Brighten
 70
    12
 71
     2
 72
     2
 73
     0
 90
        0
 40
-0.6
 41
-30.0
 62
     5
 63
     7
421
 16777215
 74
     1
 91
        4
 64
     7
 65
   257
 75
     1
175
     1
 42
1.0
 92
        8
 66
     7
 43
1.0
 76
     1
 77
     6
 78
     2
 67
     7
 79
     5
170
     0
171
     0
290
     0
174
     0
 93
        1
 44
50.0
173
     0
291
     1
 45
0.0
1001
ACAD
1000
AcDbSavedByObjectVersion
1070
     0
  0
VISUALSTYLE
  5
6930
102
{ACAD_XDICTIONARY
360
69A3
102
}
102
{ACAD_REACTORS
330
6920
102
}
330
6920
100
AcDbVisualStyle
  2
ColorChange
 70
    16
 71
     2
 72
     2
 73
     3
 90
        0
 40
-0.6
 41
-30.0
 62
     5
 63
     8
421
  8421504
 74
     1
 91
        4
 64
     7
 65
   257
 75
     1
175
     1
 42
1.0
 92
        8
 66
     8
424
  8421504
 43
1.0
 76
     1
 77
     6
 78
     2
 67
     7
 79
     5
170
     0
171
     0
290
     0
174
     0
 93
        1
 44
0.0
173
     0
291
     1
 45
0.0
1001
ACAD
1000
AcDbSavedByObjectVersion
1070
     0
  0
VISUALSTYLE
  5
6929
102
{ACAD_XDICTIONARY
360
6995
102
}
102
{ACAD_REACTORS
330
6920
102
}
330
6920
100
AcDbVisualStyle
  2
Conceptual
 70
     9
 71
     3
 72
     2
 73
     0
 90
        0
 40
-0.6
 41
-30.0
 62
     5
 63
     7
421
 16777215
 74
     2
 91
        2
 64
     7
 65
   257
 75
     1
175
     1
 42
179.0
 92
        8
 66
     7
 43
1.0
 76
     1
 77
     6
 78
     2
 67
     7
 79
     3
170
     0
171
     0
290
     0
174
     0
 93
        1
 44
0.0
173
     0
291
     0
 45
0.0
1001
ACAD
1000
AcDbSavedByObjectVersion
1070
     0
  0
VISUALSTYLE
  5
692B
102
{ACAD_XDICTIONARY
360
6999
102
}
102
{ACAD_REACTORS
330
6920
102
}
330
6920
100
AcDbVisualStyle
  2
Dim
 70
    11
 71
     2
 72
     2
 73
     0
 90
        0
 40
-0.6
 41
-30.0
 62
     5
 63
     7
421
 16777215
 74
     1
 91
        4
 64
     7
 65
   257
 75
     1
175
     1
 42
1.0
 92
        8
 66
     7
 43
1.0
 76
     1
 77
     6
 78
     2
 67
     7
 79
     5
170
     0
171
     0
290
     0
174
     0
 93
        1
 44
-50.0
173
     0
291
     1
 45
0.0
1001
ACAD
1000
AcDbSavedByObjectVersion
1070
     0
  0
VISUALSTYLE
  5
6938
102
{ACAD_XDICTIONARY
360
69B3
102
}
102
{ACAD_REACTORS
330
6920
102
}
330
6920
100
AcDbVisualStyle
  2
EdgeColorOff
 70
    22
 71
     2
 72
     2
 73
     0
 90
        0
 40
-0.6
 41
-30.0
 62
     5
 63
     7
421
 16777215
 74
     1
 91
        4
 64
     7
 65
   257
 75
     1
175
     1
 42
1.0
 92
        8
 66
     7
 43
1.0
 76
     1
 77
     6
 78
     2
 67
     7
 79
     5
170
     0
171
     0
290
     0
174
     0
 93
        1
 44
0.0
173
     0
291
     1
 45
0.0
1001
ACAD
1000
AcDbSavedByObjectVersion
1070
     0
  0
VISUALSTYLE
  5
692F
102
{ACAD_XDICTIONARY
360
69A1
102
}
102
{ACAD_REACTORS
330
6920
102
}
330
6920
100
AcDbVisualStyle
  2
Facepattern
 70
    15
 71
     2
 72
     2
 73
     0
 90
        0
 40
-0.6
 41
-30.0
 62
     5
 63
     7
421
 16777215
 74
     1
 91
        4
 64
     7
 65
   257
 75
     1
175
     1
 42
1.0
 92
        8
 66
     7
 43
1.0
 76
     1
 77
     6
 78
     2
 67
     7
 79
     5
170
     0
171
     0
290
     0
174
     0
 93
        1
 44
0.0
173
     0
291
     1
 45
0.0
1001
ACAD
1000
AcDbSavedByObjectVersion
1070
     0
  0
VISUALSTYLE
  5
6921
102
{ACAD_XDICTIONARY
360
6985
102
}
102
{ACAD_REACTORS
330
6920
102
}
330
6920
100
AcDbVisualStyle
  2
Flat
 70
     0
 71
     2
 72
     1
 73
     1
 90
        2
 40
-0.6
 41
30.0
 62
     5
 63
     7
421
 16777215
 74
     0
 91
        0
 64
     7
 65
   257
 75
     1
175
     1
 42
1.0
 92
        8
 66
     7
 43
1.0
 76
     1
 77
     6
 78
     2
 67
     7
 79
     5
170
     0
171
     0
290
     0
174
     0
 93
       13
 44
0.0
173
     0
291
     1
 45
0.0
1001
ACAD
1000
AcDbSavedByObjectVersion
1070
     0
  0
VISUALSTYLE
  5
6922
102
{ACAD_XDICTIONARY
360
6987
102
}
102
{ACAD_REACTORS
330
6920
102
}
330
6920
100
AcDbVisualStyle
  2
FlatWithEdges
 70
     1
 71
     2
 72
     1
 73
     1
 90
        2
 40
-0.6
 41
30.0
 62
     5
 63
     7
421
 16777215
 74
     1
 91
        0
 64
     7
 65
   257
 75
     1
175
     1
 42
1.0
 92
        0
 66
   257
 43
1.0
 76
     1
 77
     6
 78
     2
 67
     7
 79
     5
170
     0
171
     0
290
     0
174
     0
 93
       13
 44
0.0
173
     0
291
     1
 45
0.0
1001
ACAD
1000
AcDbSavedByObjectVersion
1070
     0
  0
VISUALSTYLE
  5
6923
102
{ACAD_XDICTIONARY
360
6989
102
}
102
{ACAD_REACTORS
330
6920
102
}
330
6920
100
AcDbVisualStyle
  2
Gouraud
 70
     2
 71
     2
 72
     2
 73
     1
 90
        2
 40
-0.6
 41
30.0
 62
     5
 63
     7
421
 16777215
 74
     0
 91
        0
 64
     7
 65
   257
 75
     1
175
     1
 42
1.0
 92
        0
 66
     7
 43
1.0
 76
     1
 77
     6
 78
     2
 67
     7
 79
     5
170
     0
171
     0
290
     0
174
     0
 93
       13
 44
0.0
173
     0
291
     1
 45
0.0
1001
ACAD
1000
AcDbSavedByObjectVersion
1070
     0
  0
VISUALSTYLE
  5
6924
102
{ACAD_XDICTIONARY
360
698B
102
}
102
{ACAD_REACTORS
330
6920
102
}
330
6920
100
AcDbVisualStyle
  2
GouraudWithEdges
 70
     3
 71
     2
 72
     2
 73
     1
 90
        2
 40
-0.6
 41
30.0
 62
     5
 63
     7
421
 16777215
 74
     1
 91
        0
 64
     7
 65
   257
 75
     1
175
     1
 42
1.0
 92
        0
 66
   257
 43
1.0
 76
     1
 77
     6
 78
     2
 67
     7
 79
     5
170
     0
171
     0
290
     0
174
     0
 93
       13
 44
0.0
173
     0
291
     1
 45
0.0
1001
ACAD
1000
AcDbSavedByObjectVersion
1070
     0
  0
VISUALSTYLE
  5
6928
102
{ACAD_XDICTIONARY
360
6993
102
}
102
{ACAD_REACTORS
330
6920
102
}
330
6920
100
AcDbVisualStyle
  2
Hidden
 70
     6
 71
     1
 72
     2
 73
     2
 90
        0
 40
-0.6
 41
-30.0
 62
     5
 63
     7
421
 16777215
 74
     2
 91
        2
 64
     7
 65
   257
 75
     2
175
     1
 42
40.0
 92
        0
 66
   257
 43
1.0
 76
     1
 77
     6
 78
     2
 67
     7
 79
     3
170
     0
171
     0
290
     0
174
     0
 93
        1
 44
0.0
173
     0
291
     0
 45
0.0
1001
ACAD
1000
AcDbSavedByObjectVersion
1070
     0
  0
VISUALSTYLE
  5
6936
102
{ACAD_XDICTIONARY
360
69AF
102
}
102
{ACAD_REACTORS
330
6920
102
}
330
6920
100
AcDbVisualStyle
  2
JitterOff
 70
    20
 71
     2
 72
     2
 73
     0
 90
        0
 40
-0.6
 41
-30.0
 62
     5
 63
     7
421
 16777215
 74
     1
 91
        4
 64
     7
 65
   257
 75
     1
175
     1
 42
1.0
 92
       10
 66
     7
 43
1.0
 76
     1
 77
     6
 78
     2
 67
     7
 79
     5
170
     0
171
     0
290
     0
174
     0
 93
        1
 44
0.0
173
     0
291
     1
 45
0.0
1001
ACAD
1000
AcDbSavedByObjectVersion
1070
     0
  0
VISUALSTYLE
  5
692E
102
{ACAD_XDICTIONARY
360
699F
102
}
102
{ACAD_REACTORS
330
6920
102
}
330
6920
100
AcDbVisualStyle
  2
Linepattern
 70
    14
 71
     2
 72
     2
 73
     0
 90
        0
 40
-0.6
 41
-30.0
 62
     5
 63
     7
421
 16777215
 74
     1
 91
        4
 64
     7
 65
   257
 75
     7
175
     7
 42
1.0
 92
        8
 66
     7
 43
1.0
 76
     1
 77
     6
 78
     2
 67
     7
 79
     5
170
     0
171
     0
290
     0
174
     0
 93
        1
 44
0.0
173
     0
291
     1
 45
0.0
1001
ACAD
1000
AcDbSavedByObjectVersion
1070
     0
  0
VISUALSTYLE
  5
6937
102
{ACAD_XDICTIONARY
360
69B1
102
}
102
{ACAD_REACTORS
330
6920
102
}
330
6920
100
AcDbVisualStyle
  2
OverhangOff
 70
    21
 71
     2
 72
     2
 73
     0
 90
        0
 40
-0.6
 41
-30.0
 62
     5
 63
     7
421
 16777215
 74
     1
 91
        4
 64
     7
 65
   257
 75
     1
175
     1
 42
1.0
 92
        9
 66
     7
 43
1.0
 76
     1
 77
     6
 78
     2
 67
     7
 79
     5
170
     0
171
     0
290
     0
174
     0
 93
        1
 44
0.0
173
     0
291
     1
 45
0.0
1001
ACAD
1000
AcDbSavedByObjectVersion
1070
     0
  0
VISUALSTYLE
  5
692A
102
{ACAD_XDICTIONARY
360
6997
102
}
102
{ACAD_REACTORS
330
6920
102
}
330
6920
100
AcDbVisualStyle
  2
Realistic
 70
     8
 71
     2
 72
     3
 73
     0
 90
        2
 40
-0.6
 41
30.0
 62
     5
 63
     7
421
 16777215
 74
     0
 91
        0
 64
     7
 65
   257
 75
     1
175
     1
 42
1.0
 92
        8
 66
   257
 43
1.0
 76
     1
 77
     6
 78
     2
 67
     7
 79
     3
170
     0
171
     0
290
     0
174
     0
 93
       13
 44
0.0
173
     0
291
     0
 45
0.0
1001
ACAD
1000
AcDbSavedByObjectVersion
1070
     0
  0
VISUALSTYLE
  5
6935
102
{ACAD_XDICTIONARY
360
69AD
102
}
102
{ACAD_REACTORS
330
6920
102
}
330
6920
100
AcDbVisualStyle
  2
Shaded
 70
    27
 71
     2
 72
     2
 73
     1
 90
        2
 40
-0.6
 41
30.0
 62
     5
 63
     7
421
 16777215
 74
     0
 91
        4
 64
     7
 65
   257
 75
     1
175
     1
 42
1.0
 92
        8
 66
   257
 43
1.0
 76
     1
 77
     6
 78
     2
 67
     8
425
  7895160
 79
     3
170
     0
171
     0
290
     0
174
     0
 93
        5
 44
0.0
173
     0
291
     0
 45
0.0
1001
ACAD
1000
AcDbSavedByObjectVersion
1070
     0
  0
VISUALSTYLE
  5
6934
102
{ACAD_XDICTIONARY
360
69AB
102
}
102
{ACAD_REACTORS
330
6920
102
}
330
6920
100
AcDbVisualStyle
  2
Shaded with edges
 70
    26
 71
     2
 72
     2
 73
     1
 90
        2
 40
-0.6
 41
30.0
 62
     5
 63
     7
421
 16777215
 74
     1
 91
       10
 64
     7
 65
   257
 75
     2
175
     1
 42
1.0
 92
        8
 66
   257
 43
1.0
 76
     1
 77
     6
 78
     2
 67
     7
 79
     3
170
     0
171
     0
290
     0
174
     0
 93
        5
 44
0.0
173
     0
291
     0
 45
0.0
1001
ACAD
1000
AcDbSavedByObjectVersion
1070
     0
  0
VISUALSTYLE
  5
6931
102
{ACAD_XDICTIONARY
360
69A5
102
}
102
{ACAD_REACTORS
330
6920
102
}
330
6920
100
AcDbVisualStyle
  2
Shades of Gray
 70
    23
 71
     2
 72
     2
 73
     3
 90
        0
 40
-0.6
 41
-30.0
 62
     5
 63
     7
421
 16777215
 74
     2
 91
        2
 64
     7
 65
     7
 75
     1
175
     1
 42
40.0
 92
        8
 66
     7
 43
1.0
 76
     1
 77
     6
 78
     2
 67
     7
 79
     3
170
     0
171
     0
290
     0
174
     0
 93
        1
 44
0.0
173
     0
291
     0
 45
0.0
1001
ACAD
1000
AcDbSavedByObjectVersion
1070
     0
  0
VISUALSTYLE
  5
6932
102
{ACAD_XDICTIONARY
360
69A7
102
}
102
{ACAD_REACTORS
330
6920
102
}
330
6920
100
AcDbVisualStyle
  2
Sketchy
 70
    24
 71
     1
 72
     2
 73
     2
 90
        0
 40
-0.6
 41
-30.0
 62
     5
 63
     7
421
 16777215
 74
     2
 91
        2
 64
     7
 65
     7
 75
     1
175
     1
 42
40.0
 92
       11
 66
     7
 43
1.0
 76
     1
 77
     6
 78
     2
 67
     7
 79
     6
170
     0
171
     0
290
     0
174
     0
 93
        1
 44
0.0
173
     0
291
     0
 45
0.0
1001
ACAD
1000
AcDbSavedByObjectVersion
1070
     0
  0
VISUALSTYLE
  5
692D
102
{ACAD_XDICTIONARY
360
699D
102
}
102
{ACAD_REACTORS
330
6920
102
}
330
6920
100
AcDbVisualStyle
  2
Thicken
 70
    13
 71
     2
 72
     2
 73
     0
 90
        0
 40
-0.6
 41
-30.0
 62
     5
 63
     7
421
 16777215
 74
     1
 91
        4
 64
     7
 65
   257
 75
     1
175
     1
 42
1.0
 92
       12
 66
     7
 43
1.0
 76
     1
 77
     6
 78
     2
 67
     7
 79
     5
170
     0
171
     0
290
     0
174
     0
 93
        1
 44
0.0
173
     0
291
     1
 45
0.0
1001
ACAD
1000
AcDbSavedByObjectVersion
1070
     0
  0
VISUALSTYLE
  5
6927
102
{ACAD_XDICTIONARY
360
6991
102
}
102
{ACAD_REACTORS
330
6920
102
}
330
6920
100
AcDbVisualStyle
  2
Wireframe
 70
     5
 71
     0
 72
     2
 73
     0
 90
        0
 40
-0.6
 41
-30.0
 62
     5
 63
     7
421
 16777215
 74
     1
 91
        4
 64
     7
 65
   257
 75
     1
175
     1
 42
1.0
 92
        0
 66
   257
 43
1.0
 76
     1
 77
     6
 78
     2
 67
     7
 79
     3
170
     0
171
     0
290
     0
174
     0
 93
        1
 44
0.0
173
     0
291
     0
 45
0.0
1001
ACAD
1000
AcDbSavedByObjectVersion
1070
     0
  0
VISUALSTYLE
  5
6933
102
{ACAD_XDICTIONARY
360
69A9
102
}
102
{ACAD_REACTORS
330
6920
102
}
330
6920
100
AcDbVisualStyle
  2
X-Ray
 70
    25
 71
     2
 72
     2
 73
     1
 90
        1
 40
0.5
 41
-30.0
 62
     5
 63
     7
421
 16777215
 74
     1
 91
        0
 64
     7
 65
   257
 75
     1
175
     1
 42
1.0
 92
        8
 66
     7
 43
1.0
 76
     1
 77
     6
 78
     2
 67
     7
 79
     3
170
     0
171
     0
290
     0
174
     0
 93
       13
 44
0.0
173
     0
291
     0
 45
0.0
1001
ACAD
1000
AcDbSavedByObjectVersion
1070
     0
  0
DICTIONARYVAR
  5
697A
102
{ACAD_REACTORS
330
1FDC
102
}
330
1FDC
100
DictionaryVariables
280
     0
  1
1:1
  0
DICTIONARYVAR
  5
6977
102
{ACAD_REACTORS
330
1FDC
102
}
330
1FDC
100
DictionaryVariables
280
     0
  1
STANDARD
  0
DICTIONARYVAR
  5
1FDD
102
{ACAD_REACTORS
330
1FDC
102
}
330
1FDC
100
DictionaryVariables
280
     0
  1
STANDARD
  0
DICTIONARYVAR
  5
6978
102
{ACAD_REACTORS
330
1FDC
102
}
330
1FDC
100
DictionaryVariables
280
     0
  1
Imperial24
  0
DICTIONARYVAR
  5
6979
102
{ACAD_REACTORS
330
1FDC
102
}
330
1FDC
100
DictionaryVariables
280
     0
  1
Imperial24
  0
DICTIONARYVAR
  5
1FDE
102
{ACAD_REACTORS
330
1FDC
102
}
330
1FDC
100
DictionaryVariables
280
     0
  1
1
  0
DICTIONARYVAR
  5
1FDF
102
{ACAD_REACTORS
330
1FDC
102
}
330
1FDC
100
DictionaryVariables
280
     0
  1

  0
DICTIONARYVAR
  5
697B
102
{ACAD_REACTORS
330
1FDC
102
}
330
1FDC
100
DictionaryVariables
280
     0
  1
2
  0
DICTIONARY
  5
6911
330
6910
100
AcDbDictionary
280
     1
281
     1
  3
ACAD_XREC_ROUNDTRIP
360
6983
  3
BUMPTILE
360
6913
  3
DIFFUSETILE
360
6912
  3
OPACITYTILE
360
6916
  3
REFLECTIONTILE
360
6915
  3
REFRACTIONTILE
360
6917
  3
SPECULARTILE
360
6914
  0
DICTIONARY
  5
6909
330
6908
100
AcDbDictionary
280
     1
281
     1
  3
ACAD_XREC_ROUNDTRIP
360
6982
  3
BUMPTILE
360
690B
  3
DIFFUSETILE
360
690A
  3
OPACITYTILE
360
690E
  3
REFLECTIONTILE
360
690D
  3
REFRACTIONTILE
360
690F
  3
SPECULARTILE
360
690C
  0
DICTIONARY
  5
6919
330
6918
100
AcDbDictionary
280
     1
281
     1
  3
ACAD_XREC_ROUNDTRIP
360
6984
  3
BUMPTILE
360
691B
  3
DIFFUSETILE
360
691A
  3
OPACITYTILE
360
691E
  3
REFLECTIONTILE
360
691D
  3
REFRACTIONTILE
360
691F
  3
SPECULARTILE
360
691C
  0
DICTIONARY
  5
69B6
330
694C
100
AcDbDictionary
280
     1
281
     1
  3
ACAD_XREC_ROUNDTRIP
360
69B7
  0
DICTIONARY
  5
697D
330
1FCB
100
AcDbDictionary
280
     1
281
     1
  3
ACAD_ROUNDTRIP_2008_TABLESTYLE_CELLSTYLEMAP
360
697E
  3
ACAD_XREC_ROUNDTRIP
360
6980
  0
DICTIONARY
  5
698F
330
6926
100
AcDbDictionary
280
     1
281
     1
  3
ACAD_XREC_ROUNDTRIP
360
6990
  0
DICTIONARY
  5
698D
330
6925
100
AcDbDictionary
280
     1
281
     1
  3
ACAD_XREC_ROUNDTRIP
360
698E
  0
DICTIONARY
  5
699B
330
692C
100
AcDbDictionary
280
     1
281
     1
  3
ACAD_XREC_ROUNDTRIP
360
699C
  0
DICTIONARY
  5
69A3
330
6930
100
AcDbDictionary
280
     1
281
     1
  3
ACAD_XREC_ROUNDTRIP
360
69A4
  0
DICTIONARY
  5
6995
330
6929
100
AcDbDictionary
280
     1
281
     1
  3
ACAD_XREC_ROUNDTRIP
360
6996
  0
DICTIONARY
  5
6999
330
692B
100
AcDbDictionary
280
     1
281
     1
  3
ACAD_XREC_ROUNDTRIP
360
699A
  0
DICTIONARY
  5
69B3
330
6938
100
AcDbDictionary
280
     1
281
     1
  3
ACAD_XREC_ROUNDTRIP
360
69B4
  0
DICTIONARY
  5
69A1
330
692F
100
AcDbDictionary
280
     1
281
     1
  3
ACAD_XREC_ROUNDTRIP
360
69A2
  0
DICTIONARY
  5
6985
330
6921
100
AcDbDictionary
280
     1
281
     1
  3
ACAD_XREC_ROUNDTRIP
360
6986
  0
DICTIONARY
  5
6987
330
6922
100
AcDbDictionary
280
     1
281
     1
  3
ACAD_XREC_ROUNDTRIP
360
6988
  0
DICTIONARY
  5
6989
330
6923
100
AcDbDictionary
280
     1
281
     1
  3
ACAD_XREC_ROUNDTRIP
360
698A
  0
DICTIONARY
  5
698B
330
6924
100
AcDbDictionary
280
     1
281
     1
  3
ACAD_XREC_ROUNDTRIP
360
698C
  0
DICTIONARY
  5
6993
330
6928
100
AcDbDictionary
280
     1
281
     1
  3
ACAD_XREC_ROUNDTRIP
360
6994
  0
DICTIONARY
  5
69AF
330
6936
100
AcDbDictionary
280
     1
281
     1
  3
ACAD_XREC_ROUNDTRIP
360
69B0
  0
DICTIONARY
  5
699F
330
692E
100
AcDbDictionary
280
     1
281
     1
  3
ACAD_XREC_ROUNDTRIP
360
69A0
  0
DICTIONARY
  5
69B1
330
6937
100
AcDbDictionary
280
     1
281
     1
  3
ACAD_XREC_ROUNDTRIP
360
69B2
  0
DICTIONARY
  5
6997
330
692A
100
AcDbDictionary
280
     1
281
     1
  3
ACAD_XREC_ROUNDTRIP
360
6998
  0
DICTIONARY
  5
69AD
330
6935
100
AcDbDictionary
280
     1
281
     1
  3
ACAD_XREC_ROUNDTRIP
360
69AE
  0
DICTIONARY
  5
69AB
330
6934
100
AcDbDictionary
280
     1
281
     1
  3
ACAD_XREC_ROUNDTRIP
360
69AC
  0
DICTIONARY
  5
69A5
330
6931
100
AcDbDictionary
280
     1
281
     1
  3
ACAD_XREC_ROUNDTRIP
360
69A6
  0
DICTIONARY
  5
69A7
330
6932
100
AcDbDictionary
280
     1
281
     1
  3
ACAD_XREC_ROUNDTRIP
360
69A8
  0
DICTIONARY
  5
699D
330
692D
100
AcDbDictionary
280
     1
281
     1
  3
ACAD_XREC_ROUNDTRIP
360
699E
  0
DICTIONARY
  5
6991
330
6927
100
AcDbDictionary
280
     1
281
     1
  3
ACAD_XREC_ROUNDTRIP
360
6992
  0
DICTIONARY
  5
69A9
330
6933
100
AcDbDictionary
280
     1
281
     1
  3
ACAD_XREC_ROUNDTRIP
360
69AA
  0
XRECORD
  5
6983
102
{ACAD_REACTORS
330
6911
102
}
330
6911
100
AcDbXrecord
280
     1
102
MATERIAL
148
0.0
149
0.0
149
0.0
 93
        0
 94
      127
282
     0
 72
     0
 77
     0
171
     0
175
     0
179
     0
273
     0
  0
XRECORD
  5
6913
102
{ACAD_REACTORS
330
6911
102
}
330
6911
100
AcDbXrecord
280
     1
270
     1
271
     1
  0
XRECORD
  5
6912
102
{ACAD_REACTORS
330
6911
102
}
330
6911
100
AcDbXrecord
280
     1
270
     1
271
     1
  0
XRECORD
  5
6916
102
{ACAD_REACTORS
330
6911
102
}
330
6911
100
AcDbXrecord
280
     1
270
     1
271
     1
  0
XRECORD
  5
6915
102
{ACAD_REACTORS
330
6911
102
}
330
6911
100
AcDbXrecord
280
     1
270
     1
271
     1
  0
XRECORD
  5
6917
102
{ACAD_REACTORS
330
6911
102
}
330
6911
100
AcDbXrecord
280
     1
270
     1
271
     1
  0
XRECORD
  5
6914
102
{ACAD_REACTORS
330
6911
102
}
330
6911
100
AcDbXrecord
280
     1
270
     1
271
     1
  0
XRECORD
  5
6982
102
{ACAD_REACTORS
330
6909
102
}
330
6909
100
AcDbXrecord
280
     1
102
MATERIAL
148
0.0
149
0.0
149
0.0
 93
        0
 94
      127
282
     0
 72
     0
 77
     0
171
     0
175
     0
179
     0
273
     0
  0
XRECORD
  5
690B
102
{ACAD_REACTORS
330
6909
102
}
330
6909
100
AcDbXrecord
280
     1
270
     1
271
     1
  0
XRECORD
  5
690A
102
{ACAD_REACTORS
330
6909
102
}
330
6909
100
AcDbXrecord
280
     1
270
     1
271
     1
  0
XRECORD
  5
690E
102
{ACAD_REACTORS
330
6909
102
}
330
6909
100
AcDbXrecord
280
     1
270
     1
271
     1
  0
XRECORD
  5
690D
102
{ACAD_REACTORS
330
6909
102
}
330
6909
100
AcDbXrecord
280
     1
270
     1
271
     1
  0
XRECORD
  5
690F
102
{ACAD_REACTORS
330
6909
102
}
330
6909
100
AcDbXrecord
280
     1
270
     1
271
     1
  0
XRECORD
  5
690C
102
{ACAD_REACTORS
330
6909
102
}
330
6909
100
AcDbXrecord
280
     1
270
     1
271
     1
  0
XRECORD
  5
6984
102
{ACAD_REACTORS
330
6919
102
}
330
6919
100
AcDbXrecord
280
     1
102
MATERIAL
148
0.0
149
0.0
149
0.0
 93
        0
 94
      127
282
     0
 72
     0
 77
     0
171
     0
175
     0
179
     0
273
     0
  0
XRECORD
  5
691B
102
{ACAD_REACTORS
330
6919
102
}
330
6919
100
AcDbXrecord
280
     1
270
     1
271
     1
  0
XRECORD
  5
691A
102
{ACAD_REACTORS
330
6919
102
}
330
6919
100
AcDbXrecord
280
     1
270
     1
271
     1
  0
XRECORD
  5
691E
102
{ACAD_REACTORS
330
6919
102
}
330
6919
100
AcDbXrecord
280
     1
270
     1
271
     1
  0
XRECORD
  5
691D
102
{ACAD_REACTORS
330
6919
102
}
330
6919
100
AcDbXrecord
280
     1
270
     1
271
     1
  0
XRECORD
  5
691F
102
{ACAD_REACTORS
330
6919
102
}
330
6919
100
AcDbXrecord
280
     1
270
     1
271
     1
  0
XRECORD
  5
691C
102
{ACAD_REACTORS
330
6919
102
}
330
6919
100
AcDbXrecord
280
     1
270
     1
271
     1
  0
XRECORD
  5
69B7
102
{ACAD_REACTORS
330
69B6
102
}
330
69B6
100
AcDbXrecord
280
     1
102
ACAD_ROUNDTRIP_2012_MLEADER_STYLE
298
     1
  0
CELLSTYLEMAP
  5
697E
102
{ACAD_REACTORS
330
697D
102
}
330
697D
100
AcDbCellStyleMap
 90
        3
300
CELLSTYLE
  1
TABLEFORMAT_BEGIN
 90
        5
170
     1
 91
        0
 92
    32768
 62
   257
 93
        1
300
CONTENTFORMAT
  1
CONTENTFORMAT_BEGIN
 90
        0
 91
        0
 92
        4
 93
        0
300

 40
0.0
140
1.0
 94
        5
 62
     0
340
C
144
0.25
309
CONTENTFORMAT_END
171
     0
 94
        6
 95
        1
302
GRIDFORMAT
  1
GRIDFORMAT_BEGIN
 90
        0
 91
        1
 62
     0
 92
       -2
340
0
 93
        0
 40
0.045
309
GRIDFORMAT_END
 95
        2
302
GRIDFORMAT
  1
GRIDFORMAT_BEGIN
 90
        0
 91
        1
 62
     0
 92
       -2
340
0
 93
        0
 40
0.045
309
GRIDFORMAT_END
 95
        4
302
GRIDFORMAT
  1
GRIDFORMAT_BEGIN
 90
        0
 91
        1
 62
     0
 92
       -2
340
0
 93
        0
 40
0.045
309
GRIDFORMAT_END
 95
        8
302
GRIDFORMAT
  1
GRIDFORMAT_BEGIN
 90
        0
 91
        1
 62
     0
 92
       -2
340
0
 93
        0
 40
0.045
309
GRIDFORMAT_END
 95
       16
302
GRIDFORMAT
  1
GRIDFORMAT_BEGIN
 90
        0
 91
        1
 62
     0
 92
       -2
340
0
 93
        0
 40
0.045
309
GRIDFORMAT_END
 95
       32
302
GRIDFORMAT
  1
GRIDFORMAT_BEGIN
 90
        0
 91
        1
 62
     0
 92
       -2
340
0
 93
        0
 40
0.045
309
GRIDFORMAT_END
309
TABLEFORMAT_END
  1
CELLSTYLE_BEGIN
 90
        1
 91
        1
300
_TITLE
309
CELLSTYLE_END
300
CELLSTYLE
  1
TABLEFORMAT_BEGIN
 90
        5
170
     1
 91
        0
 92
        0
 62
   257
 93
        1
300
CONTENTFORMAT
  1
CONTENTFORMAT_BEGIN
 90
        0
 91
        0
 92
        4
 93
        0
300

 40
0.0
140
1.0
 94
        5
 62
     0
340
C
144
0.18
309
CONTENTFORMAT_END
171
     0
 94
        6
 95
        1
302
GRIDFORMAT
  1
GRIDFORMAT_BEGIN
 90
        0
 91
        1
 62
     0
 92
       -2
340
0
 93
        0
 40
0.045
309
GRIDFORMAT_END
 95
        2
302
GRIDFORMAT
  1
GRIDFORMAT_BEGIN
 90
        0
 91
        1
 62
     0
 92
       -2
340
0
 93
        0
 40
0.045
309
GRIDFORMAT_END
 95
        4
302
GRIDFORMAT
  1
GRIDFORMAT_BEGIN
 90
        0
 91
        1
 62
     0
 92
       -2
340
0
 93
        0
 40
0.045
309
GRIDFORMAT_END
 95
        8
302
GRIDFORMAT
  1
GRIDFORMAT_BEGIN
 90
        0
 91
        1
 62
     0
 92
       -2
340
0
 93
        0
 40
0.045
309
GRIDFORMAT_END
 95
       16
302
GRIDFORMAT
  1
GRIDFORMAT_BEGIN
 90
        0
 91
        1
 62
     0
 92
       -2
340
0
 93
        0
 40
0.045
309
GRIDFORMAT_END
 95
       32
302
GRIDFORMAT
  1
GRIDFORMAT_BEGIN
 90
        0
 91
        1
 62
     0
 92
       -2
340
0
 93
        0
 40
0.045
309
GRIDFORMAT_END
309
TABLEFORMAT_END
  1
CELLSTYLE_BEGIN
 90
        2
 91
        1
300
_HEADER
309
CELLSTYLE_END
300
CELLSTYLE
  1
TABLEFORMAT_BEGIN
 90
        5
170
     1
 91
        0
 92
        0
 62
   257
 93
        1
300
CONTENTFORMAT
  1
CONTENTFORMAT_BEGIN
 90
        0
 91
        0
 92
        4
 93
        0
300

 40
0.0
140
1.0
 94
        2
 62
     0
340
C
144
0.18
309
CONTENTFORMAT_END
171
     0
 94
        6
 95
        1
302
GRIDFORMAT
  1
GRIDFORMAT_BEGIN
 90
        0
 91
        1
 62
     0
 92
       -2
340
0
 93
        0
 40
0.045
309
GRIDFORMAT_END
 95
        2
302
GRIDFORMAT
  1
GRIDFORMAT_BEGIN
 90
        0
 91
        1
 62
     0
 92
       -2
340
0
 93
        0
 40
0.045
309
GRIDFORMAT_END
 95
        4
302
GRIDFORMAT
  1
GRIDFORMAT_BEGIN
 90
        0
 91
        1
 62
     0
 92
       -2
340
0
 93
        0
 40
0.045
309
GRIDFORMAT_END
 95
        8
302
GRIDFORMAT
  1
GRIDFORMAT_BEGIN
 90
        0
 91
        1
 62
     0
 92
       -2
340
0
 93
        0
 40
0.045
309
GRIDFORMAT_END
 95
       16
302
GRIDFORMAT
  1
GRIDFORMAT_BEGIN
 90
        0
 91
        1
 62
     0
 92
       -2
340
0
 93
        0
 40
0.045
309
GRIDFORMAT_END
 95
       32
302
GRIDFORMAT
  1
GRIDFORMAT_BEGIN
 90
        0
 91
        1
 62
     0
 92
       -2
340
0
 93
        0
 40
0.045
309
GRIDFORMAT_END
309
TABLEFORMAT_END
  1
CELLSTYLE_BEGIN
 90
        3
 91
        2
300
_DATA
309
CELLSTYLE_END
  0
XRECORD
  5
6980
102
{ACAD_REACTORS
330
697D
102
}
330
697D
100
AcDbXrecord
280
     1
102
ACAD_ROUNDTRIP_PRE2007_TABLESTYLE
 90
        4
 91
        0
  1

 92
        4
 93
        0
  2

 94
        4
 95
        0
  3

  0
XRECORD
  5
6990
102
{ACAD_REACTORS
330
698F
102
}
330
698F
100
AcDbXrecord
280
     1
102
RTVSPost2010Prop28
280
     1
102
RTVSPost2010PropOp28
 70
     1
102
RTVSPost2010Prop29
280
     1
102
RTVSPost2010PropOp29
 70
     1
102
RTVSPost2010Prop30
280
     0
102
RTVSPost2010PropOp30
 70
     1
102
RTVSPost2010Prop31
280
     0
102
RTVSPost2010PropOp31
 70
     1
102
RTVSPost2010Prop32
280
     0
102
RTVSPost2010PropOp32
 70
     1
102
RTVSPost2010Prop33
280
     0
102
RTVSPost2010PropOp33
 70
     1
102
RTVSPost2010Prop34
280
     0
102
RTVSPost2010PropOp34
 70
     1
102
RTVSPost2010Prop35
280
     0
102
RTVSPost2010PropOp35
 70
     1
102
RTVSPost2010Prop36
280
     0
102
RTVSPost2010PropOp36
 70
     1
102
RTVSPost2010Prop37
 90
       50
102
RTVSPost2010PropOp37
 70
     1
102
RTVSPost2010Prop38
140
0.0
102
RTVSPost2010PropOp38
 70
     1
102
RTVSPost2010Prop39
140
1.0
102
RTVSPost2010PropOp39
 70
     1
102
RTVSPost2010Prop40
 90
        0
102
RTVSPost2010PropOp40
 70
     1
102
RTVSPost2010Prop41ColorIndex
 90
       18
102
RTVSPost2010Prop41ColorRGB
 90
        0
102
RTVSPost2010PropOp41
 70
     1
102
RTVSPost2010Prop42
 90
       50
102
RTVSPost2010PropOp42
 70
     1
102
RTVSPost2010Prop43
 90
        3
102
RTVSPost2010PropOp43
 70
     1
102
RTVSPost2010Prop44ColorIndex
 90
        5
102
RTVSPost2010Prop44ColorRGB
 90
      255
102
RTVSPost2010PropOp44
 70
     1
102
RTVSPost2010Prop45
280
     0
102
RTVSPost2010PropOp45
 70
     1
102
RTVSPost2010Prop46
 90
       50
102
RTVSPost2010PropOp46
 70
     1
102
RTVSPost2010Prop47
 90
       50
102
RTVSPost2010PropOp47
 70
     1
102
RTVSPost2010Prop48
 90
       50
102
RTVSPost2010PropOp48
 70
     1
102
RTVSPost2010Prop49
280
     0
102
RTVSPost2010PropOp49
 70
     1
102
RTVSPost2010Prop50
 90
       50
102
RTVSPost2010PropOp50
 70
     1
102
RTVSPost2010Prop51ColorIndex
 90
      256
102
RTVSPost2010Prop51ColorRGB
 90
-16777216
102
RTVSPost2010PropOp51
 70
     0
102
RTVSPost2010Prop52
140
1.0
102
RTVSPost2010PropOp52
 70
     0
102
RTVSPost2010Prop53
 90
        2
102
RTVSPost2010PropOp53
 70
     1
102
RTVSPost2010Prop54
  1
strokes_ogs.tif
102
RTVSPost2010PropOp54
 70
     1
102
RTVSPost2010Prop55
280
     0
102
RTVSPost2010PropOp55
 70
     1
102
RTVSPost2010Prop56
140
1.0
102
RTVSPost2010PropOp56
 70
     1
102
RTVSPost2010Prop57
140
1.0
102
RTVSPost2010PropOp57
 70
     1
102
RTVSPropertyOp0
 70
     1
102
RTVSPropertyOp1
 70
     1
102
RTVSPropertyOp2
 70
     1
102
RTVSPropertyOp3
 70
     1
102
RTVSPropertyOp4
 70
     1
102
RTVSPropertyOp5
 70
     1
102
RTVSPropertyOp6
 70
     1
102
RTVSPropertyOp7
 70
     1
102
RTVSPropertyOp8
 70
     1
102
RTVSPropertyOp9
 70
     1
102
RTVSPropertyOp10
 70
     1
102
RTVSPropertyOp11
 70
     1
102
RTVSPropertyOp12
 70
     1
102
RTVSPropertyOp13
 70
     1
102
RTVSPropertyOp14
 70
     1
102
RTVSPropertyOp15
 70
     1
102
RTVSPropertyOp16
 70
     1
102
RTVSPropertyOp17
 70
     1
102
RTVSPropertyOp18
 70
     1
102
RTVSPropertyOp19
 70
     1
102
RTVSPropertyOp20
 70
     1
102
RTVSPropertyOp21
 70
     1
102
RTVSPropertyOp22
 70
     1
102
RTVSPropertyOp23
 70
     1
102
RTVSPropertyOp24
 70
     1
102
RTVSPropertyOp25
 70
     1
102
RTVSPropertyOp26
 70
     1
102
RTVSPropertyOp27
 70
     1
102
RTVSPropertyOp28
 70
     1
102
RTVSPropertyOp29
 70
     1
102
RTVSPropertyOp30
 70
     1
102
RTVSPropertyOp31
 70
     1
102
RTVSPropertyOp32
 70
     1
102
RTVSPropertyOp33
 70
     1
102
RTVSPropertyOp34
 70
     1
102
RTVSPropertyOp35
 70
     1
102
RTVSPropertyOp36
 70
     1
102
RTVSPropertyOp37
 70
     1
102
RTVSPropertyOp38
 70
     1
102
RTVSPropertyOp39
 70
     1
102
RTVSPropertyOp40
 70
     1
102
RTVSPropertyOp41
 70
     1
102
RTVSPropertyOp42
 70
     1
102
RTVSPropertyOp43
 70
     1
102
RTVSPropertyOp44
 70
     1
102
RTVSPropertyOp45
 70
     1
102
RTVSPropertyOp46
 70
     1
102
RTVSPropertyOp47
 70
     1
102
RTVSPropertyOp48
 70
     1
102
RTVSPropertyOp49
 70
     1
102
RTVSPropertyOp50
 70
     1
102
RTVSPropertyOp51
 70
     0
102
RTVSPropertyOp52
 70
     0
102
RTVSPropertyOp53
 70
     1
102
RTVSPropertyOp54
 70
     1
102
RTVSPropertyOp55
 70
     1
102
RTVSPropertyOp56
 70
     1
102
RTVSPropertyOp57
 70
     1
102
RTVSPropertyOp58
 70
     1
102
RTVSPropertyOp59
 70
     1
102
RTVSPropertyOp60
 70
     1
102
RTVSPropertyOp61
 70
     1
102
RTVSPropertyOp62
 70
     1
  0
XRECORD
  5
698E
102
{ACAD_REACTORS
330
698D
102
}
330
698D
100
AcDbXrecord
280
     1
102
RTVSPost2010Prop28
280
     0
102
RTVSPost2010PropOp28
 70
     1
102
RTVSPost2010Prop29
280
     1
102
RTVSPost2010PropOp29
 70
     1
102
RTVSPost2010Prop30
280
     1
102
RTVSPost2010PropOp30
 70
     1
102
RTVSPost2010Prop31
280
     0
102
RTVSPost2010PropOp31
 70
     1
102
RTVSPost2010Prop32
280
     0
102
RTVSPost2010PropOp32
 70
     1
102
RTVSPost2010Prop33
280
     0
102
RTVSPost2010PropOp33
 70
     1
102
RTVSPost2010Prop34
280
     0
102
RTVSPost2010PropOp34
 70
     1
102
RTVSPost2010Prop35
280
     0
102
RTVSPost2010PropOp35
 70
     1
102
RTVSPost2010Prop36
280
     0
102
RTVSPost2010PropOp36
 70
     1
102
RTVSPost2010Prop37
 90
       50
102
RTVSPost2010PropOp37
 70
     1
102
RTVSPost2010Prop38
140
0.0
102
RTVSPost2010PropOp38
 70
     1
102
RTVSPost2010Prop39
140
1.0
102
RTVSPost2010PropOp39
 70
     1
102
RTVSPost2010Prop40
 90
        0
102
RTVSPost2010PropOp40
 70
     1
102
RTVSPost2010Prop41ColorIndex
 90
       18
102
RTVSPost2010Prop41ColorRGB
 90
        0
102
RTVSPost2010PropOp41
 70
     1
102
RTVSPost2010Prop42
 90
       50
102
RTVSPost2010PropOp42
 70
     1
102
RTVSPost2010Prop43
 90
        3
102
RTVSPost2010PropOp43
 70
     1
102
RTVSPost2010Prop44ColorIndex
 90
        5
102
RTVSPost2010Prop44ColorRGB
 90
      255
102
RTVSPost2010PropOp44
 70
     1
102
RTVSPost2010Prop45
280
     0
102
RTVSPost2010PropOp45
 70
     1
102
RTVSPost2010Prop46
 90
       50
102
RTVSPost2010PropOp46
 70
     1
102
RTVSPost2010Prop47
 90
       50
102
RTVSPost2010PropOp47
 70
     1
102
RTVSPost2010Prop48
 90
       50
102
RTVSPost2010PropOp48
 70
     1
102
RTVSPost2010Prop49
280
     0
102
RTVSPost2010PropOp49
 70
     1
102
RTVSPost2010Prop50
 90
       50
102
RTVSPost2010PropOp50
 70
     1
102
RTVSPost2010Prop51ColorIndex
 90
      256
102
RTVSPost2010Prop51ColorRGB
 90
-16777216
102
RTVSPost2010PropOp51
 70
     0
102
RTVSPost2010Prop52
140
1.0
102
RTVSPost2010PropOp52
 70
     0
102
RTVSPost2010Prop53
 90
        2
102
RTVSPost2010PropOp53
 70
     1
102
RTVSPost2010Prop54
  1
strokes_ogs.tif
102
RTVSPost2010PropOp54
 70
     1
102
RTVSPost2010Prop55
280
     0
102
RTVSPost2010PropOp55
 70
     1
102
RTVSPost2010Prop56
140
1.0
102
RTVSPost2010PropOp56
 70
     1
102
RTVSPost2010Prop57
140
1.0
102
RTVSPost2010PropOp57
 70
     1
102
RTVSPropertyOp0
 70
     1
102
RTVSPropertyOp1
 70
     1
102
RTVSPropertyOp2
 70
     1
102
RTVSPropertyOp3
 70
     1
102
RTVSPropertyOp4
 70
     1
102
RTVSPropertyOp5
 70
     1
102
RTVSPropertyOp6
 70
     1
102
RTVSPropertyOp7
 70
     1
102
RTVSPropertyOp8
 70
     1
102
RTVSPropertyOp9
 70
     1
102
RTVSPropertyOp10
 70
     1
102
RTVSPropertyOp11
 70
     1
102
RTVSPropertyOp12
 70
     1
102
RTVSPropertyOp13
 70
     1
102
RTVSPropertyOp14
 70
     1
102
RTVSPropertyOp15
 70
     1
102
RTVSPropertyOp16
 70
     1
102
RTVSPropertyOp17
 70
     1
102
RTVSPropertyOp18
 70
     1
102
RTVSPropertyOp19
 70
     1
102
RTVSPropertyOp20
 70
     1
102
RTVSPropertyOp21
 70
     1
102
RTVSPropertyOp22
 70
     1
102
RTVSPropertyOp23
 70
     1
102
RTVSPropertyOp24
 70
     1
102
RTVSPropertyOp25
 70
     1
102
RTVSPropertyOp26
 70
     1
102
RTVSPropertyOp27
 70
     1
102
RTVSPropertyOp28
 70
     1
102
RTVSPropertyOp29
 70
     1
102
RTVSPropertyOp30
 70
     1
102
RTVSPropertyOp31
 70
     1
102
RTVSPropertyOp32
 70
     1
102
RTVSPropertyOp33
 70
     1
102
RTVSPropertyOp34
 70
     1
102
RTVSPropertyOp35
 70
     1
102
RTVSPropertyOp36
 70
     1
102
RTVSPropertyOp37
 70
     1
102
RTVSPropertyOp38
 70
     1
102
RTVSPropertyOp39
 70
     1
102
RTVSPropertyOp40
 70
     1
102
RTVSPropertyOp41
 70
     1
102
RTVSPropertyOp42
 70
     1
102
RTVSPropertyOp43
 70
     1
102
RTVSPropertyOp44
 70
     1
102
RTVSPropertyOp45
 70
     1
102
RTVSPropertyOp46
 70
     1
102
RTVSPropertyOp47
 70
     1
102
RTVSPropertyOp48
 70
     1
102
RTVSPropertyOp49
 70
     1
102
RTVSPropertyOp50
 70
     1
102
RTVSPropertyOp51
 70
     0
102
RTVSPropertyOp52
 70
     0
102
RTVSPropertyOp53
 70
     1
102
RTVSPropertyOp54
 70
     1
102
RTVSPropertyOp55
 70
     1
102
RTVSPropertyOp56
 70
     1
102
RTVSPropertyOp57
 70
     1
102
RTVSPropertyOp58
 70
     1
102
RTVSPropertyOp59
 70
     1
102
RTVSPropertyOp60
 70
     1
102
RTVSPropertyOp61
 70
     1
102
RTVSPropertyOp62
 70
     1
  0
XRECORD
  5
699C
102
{ACAD_REACTORS
330
699B
102
}
330
699B
100
AcDbXrecord
280
     1
102
RTVSPost2010Prop28
280
     0
102
RTVSPost2010PropOp28
 70
     1
102
RTVSPost2010Prop29
280
     1
102
RTVSPost2010PropOp29
 70
     1
102
RTVSPost2010Prop30
280
     1
102
RTVSPost2010PropOp30
 70
     1
102
RTVSPost2010Prop31
280
     0
102
RTVSPost2010PropOp31
 70
     1
102
RTVSPost2010Prop32
280
     0
102
RTVSPost2010PropOp32
 70
     1
102
RTVSPost2010Prop33
280
     0
102
RTVSPost2010PropOp33
 70
     1
102
RTVSPost2010Prop34
280
     0
102
RTVSPost2010PropOp34
 70
     1
102
RTVSPost2010Prop35
280
     0
102
RTVSPost2010PropOp35
 70
     1
102
RTVSPost2010Prop36
280
     0
102
RTVSPost2010PropOp36
 70
     1
102
RTVSPost2010Prop37
 90
       50
102
RTVSPost2010PropOp37
 70
     1
102
RTVSPost2010Prop38
140
0.0
102
RTVSPost2010PropOp38
 70
     1
102
RTVSPost2010Prop39
140
1.0
102
RTVSPost2010PropOp39
 70
     1
102
RTVSPost2010Prop40
 90
        0
102
RTVSPost2010PropOp40
 70
     1
102
RTVSPost2010Prop41ColorIndex
 90
       18
102
RTVSPost2010Prop41ColorRGB
 90
        0
102
RTVSPost2010PropOp41
 70
     1
102
RTVSPost2010Prop42
 90
       50
102
RTVSPost2010PropOp42
 70
     1
102
RTVSPost2010Prop43
 90
        3
102
RTVSPost2010PropOp43
 70
     1
102
RTVSPost2010Prop44ColorIndex
 90
        5
102
RTVSPost2010Prop44ColorRGB
 90
      255
102
RTVSPost2010PropOp44
 70
     1
102
RTVSPost2010Prop45
280
     0
102
RTVSPost2010PropOp45
 70
     1
102
RTVSPost2010Prop46
 90
       50
102
RTVSPost2010PropOp46
 70
     1
102
RTVSPost2010Prop47
 90
       50
102
RTVSPost2010PropOp47
 70
     1
102
RTVSPost2010Prop48
 90
       50
102
RTVSPost2010PropOp48
 70
     1
102
RTVSPost2010Prop49
280
     0
102
RTVSPost2010PropOp49
 70
     1
102
RTVSPost2010Prop50
 90
       50
102
RTVSPost2010PropOp50
 70
     1
102
RTVSPost2010Prop51ColorIndex
 90
      256
102
RTVSPost2010Prop51ColorRGB
 90
-16777216
102
RTVSPost2010PropOp51
 70
     0
102
RTVSPost2010Prop52
140
1.0
102
RTVSPost2010PropOp52
 70
     0
102
RTVSPost2010Prop53
 90
        2
102
RTVSPost2010PropOp53
 70
     1
102
RTVSPost2010Prop54
  1
strokes_ogs.tif
102
RTVSPost2010PropOp54
 70
     1
102
RTVSPost2010Prop55
280
     0
102
RTVSPost2010PropOp55
 70
     1
102
RTVSPost2010Prop56
140
1.0
102
RTVSPost2010PropOp56
 70
     1
102
RTVSPost2010Prop57
140
1.0
102
RTVSPost2010PropOp57
 70
     1
102
RTVSPropertyOp0
 70
     1
102
RTVSPropertyOp1
 70
     1
102
RTVSPropertyOp2
 70
     1
102
RTVSPropertyOp3
 70
     1
102
RTVSPropertyOp4
 70
     1
102
RTVSPropertyOp5
 70
     1
102
RTVSPropertyOp6
 70
     1
102
RTVSPropertyOp7
 70
     1
102
RTVSPropertyOp8
 70
     1
102
RTVSPropertyOp9
 70
     1
102
RTVSPropertyOp10
 70
     1
102
RTVSPropertyOp11
 70
     1
102
RTVSPropertyOp12
 70
     1
102
RTVSPropertyOp13
 70
     1
102
RTVSPropertyOp14
 70
     1
102
RTVSPropertyOp15
 70
     1
102
RTVSPropertyOp16
 70
     1
102
RTVSPropertyOp17
 70
     1
102
RTVSPropertyOp18
 70
     1
102
RTVSPropertyOp19
 70
     1
102
RTVSPropertyOp20
 70
     1
102
RTVSPropertyOp21
 70
     1
102
RTVSPropertyOp22
 70
     1
102
RTVSPropertyOp23
 70
     1
102
RTVSPropertyOp24
 70
     1
102
RTVSPropertyOp25
 70
     1
102
RTVSPropertyOp26
 70
     1
102
RTVSPropertyOp27
 70
     1
102
RTVSPropertyOp28
 70
     1
102
RTVSPropertyOp29
 70
     1
102
RTVSPropertyOp30
 70
     1
102
RTVSPropertyOp31
 70
     1
102
RTVSPropertyOp32
 70
     1
102
RTVSPropertyOp33
 70
     1
102
RTVSPropertyOp34
 70
     1
102
RTVSPropertyOp35
 70
     1
102
RTVSPropertyOp36
 70
     1
102
RTVSPropertyOp37
 70
     1
102
RTVSPropertyOp38
 70
     1
102
RTVSPropertyOp39
 70
     1
102
RTVSPropertyOp40
 70
     1
102
RTVSPropertyOp41
 70
     1
102
RTVSPropertyOp42
 70
     1
102
RTVSPropertyOp43
 70
     1
102
RTVSPropertyOp44
 70
     1
102
RTVSPropertyOp45
 70
     1
102
RTVSPropertyOp46
 70
     1
102
RTVSPropertyOp47
 70
     1
102
RTVSPropertyOp48
 70
     1
102
RTVSPropertyOp49
 70
     1
102
RTVSPropertyOp50
 70
     1
102
RTVSPropertyOp51
 70
     0
102
RTVSPropertyOp52
 70
     0
102
RTVSPropertyOp53
 70
     1
102
RTVSPropertyOp54
 70
     1
102
RTVSPropertyOp55
 70
     1
102
RTVSPropertyOp56
 70
     1
102
RTVSPropertyOp57
 70
     1
102
RTVSPropertyOp58
 70
     1
102
RTVSPropertyOp59
 70
     1
102
RTVSPropertyOp60
 70
     1
102
RTVSPropertyOp61
 70
     1
102
RTVSPropertyOp62
 70
     1
  0
XRECORD
  5
69A4
102
{ACAD_REACTORS
330
69A3
102
}
330
69A3
100
AcDbXrecord
280
     1
102
RTVSPost2010Prop28
280
     0
102
RTVSPost2010PropOp28
 70
     1
102
RTVSPost2010Prop29
280
     1
102
RTVSPost2010PropOp29
 70
     1
102
RTVSPost2010Prop30
280
     1
102
RTVSPost2010PropOp30
 70
     1
102
RTVSPost2010Prop31
280
     0
102
RTVSPost2010PropOp31
 70
     1
102
RTVSPost2010Prop32
280
     0
102
RTVSPost2010PropOp32
 70
     1
102
RTVSPost2010Prop33
280
     0
102
RTVSPost2010PropOp33
 70
     1
102
RTVSPost2010Prop34
280
     0
102
RTVSPost2010PropOp34
 70
     1
102
RTVSPost2010Prop35
280
     0
102
RTVSPost2010PropOp35
 70
     1
102
RTVSPost2010Prop36
280
     0
102
RTVSPost2010PropOp36
 70
     1
102
RTVSPost2010Prop37
 90
       50
102
RTVSPost2010PropOp37
 70
     1
102
RTVSPost2010Prop38
140
0.0
102
RTVSPost2010PropOp38
 70
     1
102
RTVSPost2010Prop39
140
1.0
102
RTVSPost2010PropOp39
 70
     1
102
RTVSPost2010Prop40
 90
        0
102
RTVSPost2010PropOp40
 70
     1
102
RTVSPost2010Prop41ColorIndex
 90
       18
102
RTVSPost2010Prop41ColorRGB
 90
        0
102
RTVSPost2010PropOp41
 70
     1
102
RTVSPost2010Prop42
 90
       50
102
RTVSPost2010PropOp42
 70
     1
102
RTVSPost2010Prop43
 90
        3
102
RTVSPost2010PropOp43
 70
     1
102
RTVSPost2010Prop44ColorIndex
 90
        5
102
RTVSPost2010Prop44ColorRGB
 90
      255
102
RTVSPost2010PropOp44
 70
     1
102
RTVSPost2010Prop45
280
     0
102
RTVSPost2010PropOp45
 70
     1
102
RTVSPost2010Prop46
 90
       50
102
RTVSPost2010PropOp46
 70
     1
102
RTVSPost2010Prop47
 90
       50
102
RTVSPost2010PropOp47
 70
     1
102
RTVSPost2010Prop48
 90
       50
102
RTVSPost2010PropOp48
 70
     1
102
RTVSPost2010Prop49
280
     0
102
RTVSPost2010PropOp49
 70
     1
102
RTVSPost2010Prop50
 90
       50
102
RTVSPost2010PropOp50
 70
     1
102
RTVSPost2010Prop51ColorIndex
 90
      256
102
RTVSPost2010Prop51ColorRGB
 90
-16777216
102
RTVSPost2010PropOp51
 70
     0
102
RTVSPost2010Prop52
140
1.0
102
RTVSPost2010PropOp52
 70
     0
102
RTVSPost2010Prop53
 90
        2
102
RTVSPost2010PropOp53
 70
     1
102
RTVSPost2010Prop54
  1
strokes_ogs.tif
102
RTVSPost2010PropOp54
 70
     1
102
RTVSPost2010Prop55
280
     0
102
RTVSPost2010PropOp55
 70
     1
102
RTVSPost2010Prop56
140
1.0
102
RTVSPost2010PropOp56
 70
     1
102
RTVSPost2010Prop57
140
1.0
102
RTVSPost2010PropOp57
 70
     1
102
RTVSPropertyOp0
 70
     1
102
RTVSPropertyOp1
 70
     1
102
RTVSPropertyOp2
 70
     1
102
RTVSPropertyOp3
 70
     1
102
RTVSPropertyOp4
 70
     1
102
RTVSPropertyOp5
 70
     1
102
RTVSPropertyOp6
 70
     1
102
RTVSPropertyOp7
 70
     1
102
RTVSPropertyOp8
 70
     1
102
RTVSPropertyOp9
 70
     1
102
RTVSPropertyOp10
 70
     1
102
RTVSPropertyOp11
 70
     1
102
RTVSPropertyOp12
 70
     1
102
RTVSPropertyOp13
 70
     1
102
RTVSPropertyOp14
 70
     1
102
RTVSPropertyOp15
 70
     1
102
RTVSPropertyOp16
 70
     1
102
RTVSPropertyOp17
 70
     1
102
RTVSPropertyOp18
 70
     1
102
RTVSPropertyOp19
 70
     1
102
RTVSPropertyOp20
 70
     1
102
RTVSPropertyOp21
 70
     1
102
RTVSPropertyOp22
 70
     1
102
RTVSPropertyOp23
 70
     1
102
RTVSPropertyOp24
 70
     1
102
RTVSPropertyOp25
 70
     1
102
RTVSPropertyOp26
 70
     1
102
RTVSPropertyOp27
 70
     1
102
RTVSPropertyOp28
 70
     1
102
RTVSPropertyOp29
 70
     1
102
RTVSPropertyOp30
 70
     1
102
RTVSPropertyOp31
 70
     1
102
RTVSPropertyOp32
 70
     1
102
RTVSPropertyOp33
 70
     1
102
RTVSPropertyOp34
 70
     1
102
RTVSPropertyOp35
 70
     1
102
RTVSPropertyOp36
 70
     1
102
RTVSPropertyOp37
 70
     1
102
RTVSPropertyOp38
 70
     1
102
RTVSPropertyOp39
 70
     1
102
RTVSPropertyOp40
 70
     1
102
RTVSPropertyOp41
 70
     1
102
RTVSPropertyOp42
 70
     1
102
RTVSPropertyOp43
 70
     1
102
RTVSPropertyOp44
 70
     1
102
RTVSPropertyOp45
 70
     1
102
RTVSPropertyOp46
 70
     1
102
RTVSPropertyOp47
 70
     1
102
RTVSPropertyOp48
 70
     1
102
RTVSPropertyOp49
 70
     1
102
RTVSPropertyOp50
 70
     1
102
RTVSPropertyOp51
 70
     0
102
RTVSPropertyOp52
 70
     0
102
RTVSPropertyOp53
 70
     1
102
RTVSPropertyOp54
 70
     1
102
RTVSPropertyOp55
 70
     1
102
RTVSPropertyOp56
 70
     1
102
RTVSPropertyOp57
 70
     1
102
RTVSPropertyOp58
 70
     1
102
RTVSPropertyOp59
 70
     1
102
RTVSPropertyOp60
 70
     1
102
RTVSPropertyOp61
 70
     1
102
RTVSPropertyOp62
 70
     1
  0
XRECORD
  5
6996
102
{ACAD_REACTORS
330
6995
102
}
330
6995
100
AcDbXrecord
280
     1
102
RTVSPost2010Prop28
280
     0
102
RTVSPost2010PropOp28
 70
     1
102
RTVSPost2010Prop29
280
     1
102
RTVSPost2010PropOp29
 70
     1
102
RTVSPost2010Prop30
280
     1
102
RTVSPost2010PropOp30
 70
     1
102
RTVSPost2010Prop31
280
     0
102
RTVSPost2010PropOp31
 70
     1
102
RTVSPost2010Prop32
280
     0
102
RTVSPost2010PropOp32
 70
     1
102
RTVSPost2010Prop33
280
     0
102
RTVSPost2010PropOp33
 70
     1
102
RTVSPost2010Prop34
280
     0
102
RTVSPost2010PropOp34
 70
     1
102
RTVSPost2010Prop35
280
     0
102
RTVSPost2010PropOp35
 70
     1
102
RTVSPost2010Prop36
280
     0
102
RTVSPost2010PropOp36
 70
     1
102
RTVSPost2010Prop37
 90
       50
102
RTVSPost2010PropOp37
 70
     1
102
RTVSPost2010Prop38
140
0.0
102
RTVSPost2010PropOp38
 70
     1
102
RTVSPost2010Prop39
140
1.0
102
RTVSPost2010PropOp39
 70
     1
102
RTVSPost2010Prop40
 90
        0
102
RTVSPost2010PropOp40
 70
     1
102
RTVSPost2010Prop41ColorIndex
 90
       18
102
RTVSPost2010Prop41ColorRGB
 90
        0
102
RTVSPost2010PropOp41
 70
     1
102
RTVSPost2010Prop42
 90
       50
102
RTVSPost2010PropOp42
 70
     1
102
RTVSPost2010Prop43
 90
        3
102
RTVSPost2010PropOp43
 70
     1
102
RTVSPost2010Prop44ColorIndex
 90
        5
102
RTVSPost2010Prop44ColorRGB
 90
      255
102
RTVSPost2010PropOp44
 70
     1
102
RTVSPost2010Prop45
280
     0
102
RTVSPost2010PropOp45
 70
     1
102
RTVSPost2010Prop46
 90
       50
102
RTVSPost2010PropOp46
 70
     1
102
RTVSPost2010Prop47
 90
       50
102
RTVSPost2010PropOp47
 70
     1
102
RTVSPost2010Prop48
 90
       50
102
RTVSPost2010PropOp48
 70
     1
102
RTVSPost2010Prop49
280
     0
102
RTVSPost2010PropOp49
 70
     1
102
RTVSPost2010Prop50
 90
       50
102
RTVSPost2010PropOp50
 70
     1
102
RTVSPost2010Prop51ColorIndex
 90
      256
102
RTVSPost2010Prop51ColorRGB
 90
-16777216
102
RTVSPost2010PropOp51
 70
     0
102
RTVSPost2010Prop52
140
1.0
102
RTVSPost2010PropOp52
 70
     0
102
RTVSPost2010Prop53
 90
        2
102
RTVSPost2010PropOp53
 70
     1
102
RTVSPost2010Prop54
  1
strokes_ogs.tif
102
RTVSPost2010PropOp54
 70
     1
102
RTVSPost2010Prop55
280
     0
102
RTVSPost2010PropOp55
 70
     1
102
RTVSPost2010Prop56
140
1.0
102
RTVSPost2010PropOp56
 70
     1
102
RTVSPost2010Prop57
140
1.0
102
RTVSPost2010PropOp57
 70
     1
102
RTVSPropertyOp0
 70
     1
102
RTVSPropertyOp1
 70
     1
102
RTVSPropertyOp2
 70
     1
102
RTVSPropertyOp3
 70
     1
102
RTVSPropertyOp4
 70
     1
102
RTVSPropertyOp5
 70
     1
102
RTVSPropertyOp6
 70
     1
102
RTVSPropertyOp7
 70
     1
102
RTVSPropertyOp8
 70
     1
102
RTVSPropertyOp9
 70
     1
102
RTVSPropertyOp10
 70
     1
102
RTVSPropertyOp11
 70
     1
102
RTVSPropertyOp12
 70
     1
102
RTVSPropertyOp13
 70
     1
102
RTVSPropertyOp14
 70
     1
102
RTVSPropertyOp15
 70
     1
102
RTVSPropertyOp16
 70
     1
102
RTVSPropertyOp17
 70
     1
102
RTVSPropertyOp18
 70
     1
102
RTVSPropertyOp19
 70
     1
102
RTVSPropertyOp20
 70
     1
102
RTVSPropertyOp21
 70
     1
102
RTVSPropertyOp22
 70
     1
102
RTVSPropertyOp23
 70
     1
102
RTVSPropertyOp24
 70
     1
102
RTVSPropertyOp25
 70
     1
102
RTVSPropertyOp26
 70
     1
102
RTVSPropertyOp27
 70
     1
102
RTVSPropertyOp28
 70
     1
102
RTVSPropertyOp29
 70
     1
102
RTVSPropertyOp30
 70
     1
102
RTVSPropertyOp31
 70
     1
102
RTVSPropertyOp32
 70
     1
102
RTVSPropertyOp33
 70
     1
102
RTVSPropertyOp34
 70
     1
102
RTVSPropertyOp35
 70
     1
102
RTVSPropertyOp36
 70
     1
102
RTVSPropertyOp37
 70
     1
102
RTVSPropertyOp38
 70
     1
102
RTVSPropertyOp39
 70
     1
102
RTVSPropertyOp40
 70
     1
102
RTVSPropertyOp41
 70
     1
102
RTVSPropertyOp42
 70
     1
102
RTVSPropertyOp43
 70
     1
102
RTVSPropertyOp44
 70
     1
102
RTVSPropertyOp45
 70
     1
102
RTVSPropertyOp46
 70
     1
102
RTVSPropertyOp47
 70
     1
102
RTVSPropertyOp48
 70
     1
102
RTVSPropertyOp49
 70
     1
102
RTVSPropertyOp50
 70
     1
102
RTVSPropertyOp51
 70
     0
102
RTVSPropertyOp52
 70
     0
102
RTVSPropertyOp53
 70
     1
102
RTVSPropertyOp54
 70
     1
102
RTVSPropertyOp55
 70
     1
102
RTVSPropertyOp56
 70
     1
102
RTVSPropertyOp57
 70
     1
102
RTVSPropertyOp58
 70
     1
102
RTVSPropertyOp59
 70
     1
102
RTVSPropertyOp60
 70
     1
102
RTVSPropertyOp61
 70
     1
102
RTVSPropertyOp62
 70
     1
  0
XRECORD
  5
699A
102
{ACAD_REACTORS
330
6999
102
}
330
6999
100
AcDbXrecord
280
     1
102
RTVSPost2010Prop28
280
     0
102
RTVSPost2010PropOp28
 70
     1
102
RTVSPost2010Prop29
280
     1
102
RTVSPost2010PropOp29
 70
     1
102
RTVSPost2010Prop30
280
     1
102
RTVSPost2010PropOp30
 70
     1
102
RTVSPost2010Prop31
280
     0
102
RTVSPost2010PropOp31
 70
     1
102
RTVSPost2010Prop32
280
     0
102
RTVSPost2010PropOp32
 70
     1
102
RTVSPost2010Prop33
280
     0
102
RTVSPost2010PropOp33
 70
     1
102
RTVSPost2010Prop34
280
     0
102
RTVSPost2010PropOp34
 70
     1
102
RTVSPost2010Prop35
280
     0
102
RTVSPost2010PropOp35
 70
     1
102
RTVSPost2010Prop36
280
     0
102
RTVSPost2010PropOp36
 70
     1
102
RTVSPost2010Prop37
 90
       50
102
RTVSPost2010PropOp37
 70
     1
102
RTVSPost2010Prop38
140
0.0
102
RTVSPost2010PropOp38
 70
     1
102
RTVSPost2010Prop39
140
1.0
102
RTVSPost2010PropOp39
 70
     1
102
RTVSPost2010Prop40
 90
        0
102
RTVSPost2010PropOp40
 70
     1
102
RTVSPost2010Prop41ColorIndex
 90
       18
102
RTVSPost2010Prop41ColorRGB
 90
        0
102
RTVSPost2010PropOp41
 70
     1
102
RTVSPost2010Prop42
 90
       50
102
RTVSPost2010PropOp42
 70
     1
102
RTVSPost2010Prop43
 90
        3
102
RTVSPost2010PropOp43
 70
     1
102
RTVSPost2010Prop44ColorIndex
 90
        5
102
RTVSPost2010Prop44ColorRGB
 90
      255
102
RTVSPost2010PropOp44
 70
     1
102
RTVSPost2010Prop45
280
     0
102
RTVSPost2010PropOp45
 70
     1
102
RTVSPost2010Prop46
 90
       50
102
RTVSPost2010PropOp46
 70
     1
102
RTVSPost2010Prop47
 90
       50
102
RTVSPost2010PropOp47
 70
     1
102
RTVSPost2010Prop48
 90
       50
102
RTVSPost2010PropOp48
 70
     1
102
RTVSPost2010Prop49
280
     0
102
RTVSPost2010PropOp49
 70
     1
102
RTVSPost2010Prop50
 90
       50
102
RTVSPost2010PropOp50
 70
     1
102
RTVSPost2010Prop51ColorIndex
 90
      256
102
RTVSPost2010Prop51ColorRGB
 90
-16777216
102
RTVSPost2010PropOp51
 70
     0
102
RTVSPost2010Prop52
140
1.0
102
RTVSPost2010PropOp52
 70
     0
102
RTVSPost2010Prop53
 90
        2
102
RTVSPost2010PropOp53
 70
     1
102
RTVSPost2010Prop54
  1
strokes_ogs.tif
102
RTVSPost2010PropOp54
 70
     1
102
RTVSPost2010Prop55
280
     0
102
RTVSPost2010PropOp55
 70
     1
102
RTVSPost2010Prop56
140
1.0
102
RTVSPost2010PropOp56
 70
     1
102
RTVSPost2010Prop57
140
1.0
102
RTVSPost2010PropOp57
 70
     1
102
RTVSPropertyOp0
 70
     1
102
RTVSPropertyOp1
 70
     1
102
RTVSPropertyOp2
 70
     1
102
RTVSPropertyOp3
 70
     1
102
RTVSPropertyOp4
 70
     1
102
RTVSPropertyOp5
 70
     1
102
RTVSPropertyOp6
 70
     1
102
RTVSPropertyOp7
 70
     1
102
RTVSPropertyOp8
 70
     1
102
RTVSPropertyOp9
 70
     1
102
RTVSPropertyOp10
 70
     1
102
RTVSPropertyOp11
 70
     1
102
RTVSPropertyOp12
 70
     1
102
RTVSPropertyOp13
 70
     1
102
RTVSPropertyOp14
 70
     1
102
RTVSPropertyOp15
 70
     1
102
RTVSPropertyOp16
 70
     1
102
RTVSPropertyOp17
 70
     1
102
RTVSPropertyOp18
 70
     1
102
RTVSPropertyOp19
 70
     1
102
RTVSPropertyOp20
 70
     1
102
RTVSPropertyOp21
 70
     1
102
RTVSPropertyOp22
 70
     1
102
RTVSPropertyOp23
 70
     1
102
RTVSPropertyOp24
 70
     1
102
RTVSPropertyOp25
 70
     1
102
RTVSPropertyOp26
 70
     1
102
RTVSPropertyOp27
 70
     1
102
RTVSPropertyOp28
 70
     1
102
RTVSPropertyOp29
 70
     1
102
RTVSPropertyOp30
 70
     1
102
RTVSPropertyOp31
 70
     1
102
RTVSPropertyOp32
 70
     1
102
RTVSPropertyOp33
 70
     1
102
RTVSPropertyOp34
 70
     1
102
RTVSPropertyOp35
 70
     1
102
RTVSPropertyOp36
 70
     1
102
RTVSPropertyOp37
 70
     1
102
RTVSPropertyOp38
 70
     1
102
RTVSPropertyOp39
 70
     1
102
RTVSPropertyOp40
 70
     1
102
RTVSPropertyOp41
 70
     1
102
RTVSPropertyOp42
 70
     1
102
RTVSPropertyOp43
 70
     1
102
RTVSPropertyOp44
 70
     1
102
RTVSPropertyOp45
 70
     1
102
RTVSPropertyOp46
 70
     1
102
RTVSPropertyOp47
 70
     1
102
RTVSPropertyOp48
 70
     1
102
RTVSPropertyOp49
 70
     1
102
RTVSPropertyOp50
 70
     1
102
RTVSPropertyOp51
 70
     0
102
RTVSPropertyOp52
 70
     0
102
RTVSPropertyOp53
 70
     1
102
RTVSPropertyOp54
 70
     1
102
RTVSPropertyOp55
 70
     1
102
RTVSPropertyOp56
 70
     1
102
RTVSPropertyOp57
 70
     1
102
RTVSPropertyOp58
 70
     1
102
RTVSPropertyOp59
 70
     1
102
RTVSPropertyOp60
 70
     1
102
RTVSPropertyOp61
 70
     1
102
RTVSPropertyOp62
 70
     1
  0
XRECORD
  5
69B4
102
{ACAD_REACTORS
330
69B3
102
}
330
69B3
100
AcDbXrecord
280
     1
102
RTVSPost2010Prop28
280
     0
102
RTVSPost2010PropOp28
 70
     0
102
RTVSPost2010Prop29
280
     1
102
RTVSPost2010PropOp29
 70
     0
102
RTVSPost2010Prop30
280
     1
102
RTVSPost2010PropOp30
 70
     0
102
RTVSPost2010Prop31
280
     0
102
RTVSPost2010PropOp31
 70
     0
102
RTVSPost2010Prop32
280
     0
102
RTVSPost2010PropOp32
 70
     0
102
RTVSPost2010Prop33
280
     0
102
RTVSPost2010PropOp33
 70
     0
102
RTVSPost2010Prop34
280
     0
102
RTVSPost2010PropOp34
 70
     0
102
RTVSPost2010Prop35
280
     0
102
RTVSPost2010PropOp35
 70
     0
102
RTVSPost2010Prop36
280
     0
102
RTVSPost2010PropOp36
 70
     0
102
RTVSPost2010Prop37
 90
       50
102
RTVSPost2010PropOp37
 70
     0
102
RTVSPost2010Prop38
140
0.0
102
RTVSPost2010PropOp38
 70
     0
102
RTVSPost2010Prop39
140
1.0
102
RTVSPost2010PropOp39
 70
     0
102
RTVSPost2010Prop40
 90
        0
102
RTVSPost2010PropOp40
 70
     0
102
RTVSPost2010Prop41ColorIndex
 90
       18
102
RTVSPost2010Prop41ColorRGB
 90
        0
102
RTVSPost2010PropOp41
 70
     0
102
RTVSPost2010Prop42
 90
       50
102
RTVSPost2010PropOp42
 70
     0
102
RTVSPost2010Prop43
 90
        3
102
RTVSPost2010PropOp43
 70
     0
102
RTVSPost2010Prop44ColorIndex
 90
        5
102
RTVSPost2010Prop44ColorRGB
 90
      255
102
RTVSPost2010PropOp44
 70
     0
102
RTVSPost2010Prop45
280
     0
102
RTVSPost2010PropOp45
 70
     0
102
RTVSPost2010Prop46
 90
       50
102
RTVSPost2010PropOp46
 70
     0
102
RTVSPost2010Prop47
 90
       50
102
RTVSPost2010PropOp47
 70
     0
102
RTVSPost2010Prop48
 90
       50
102
RTVSPost2010PropOp48
 70
     0
102
RTVSPost2010Prop49
280
     0
102
RTVSPost2010PropOp49
 70
     0
102
RTVSPost2010Prop50
 90
       50
102
RTVSPost2010PropOp50
 70
     0
102
RTVSPost2010Prop51ColorIndex
 90
      256
102
RTVSPost2010Prop51ColorRGB
 90
-16777216
102
RTVSPost2010PropOp51
 70
     0
102
RTVSPost2010Prop52
140
1.0
102
RTVSPost2010PropOp52
 70
     0
102
RTVSPost2010Prop53
 90
        2
102
RTVSPost2010PropOp53
 70
     0
102
RTVSPost2010Prop54
  1
strokes_ogs.tif
102
RTVSPost2010PropOp54
 70
     0
102
RTVSPost2010Prop55
280
     0
102
RTVSPost2010PropOp55
 70
     0
102
RTVSPost2010Prop56
140
1.0
102
RTVSPost2010PropOp56
 70
     0
102
RTVSPost2010Prop57
140
1.0
102
RTVSPost2010PropOp57
 70
     0
102
RTVSPropertyOp0
 70
     0
102
RTVSPropertyOp1
 70
     0
102
RTVSPropertyOp2
 70
     0
102
RTVSPropertyOp3
 70
     0
102
RTVSPropertyOp4
 70
     0
102
RTVSPropertyOp5
 70
     0
102
RTVSPropertyOp6
 70
     0
102
RTVSPropertyOp7
 70
     0
102
RTVSPropertyOp8
 70
     0
102
RTVSPropertyOp9
 70
     0
102
RTVSPropertyOp10
 70
     0
102
RTVSPropertyOp11
 70
     0
102
RTVSPropertyOp12
 70
     0
102
RTVSPropertyOp13
 70
     0
102
RTVSPropertyOp14
 70
     2
102
RTVSPropertyOp15
 70
     0
102
RTVSPropertyOp16
 70
     0
102
RTVSPropertyOp17
 70
     0
102
RTVSPropertyOp18
 70
     0
102
RTVSPropertyOp19
 70
     0
102
RTVSPropertyOp20
 70
     0
102
RTVSPropertyOp21
 70
     0
102
RTVSPropertyOp22
 70
     0
102
RTVSPropertyOp23
 70
     0
102
RTVSPropertyOp24
 70
     0
102
RTVSPropertyOp25
 70
     0
102
RTVSPropertyOp26
 70
     0
102
RTVSPropertyOp27
 70
     0
102
RTVSPropertyOp28
 70
     0
102
RTVSPropertyOp29
 70
     0
102
RTVSPropertyOp30
 70
     0
102
RTVSPropertyOp31
 70
     0
102
RTVSPropertyOp32
 70
     0
102
RTVSPropertyOp33
 70
     0
102
RTVSPropertyOp34
 70
     0
102
RTVSPropertyOp35
 70
     0
102
RTVSPropertyOp36
 70
     0
102
RTVSPropertyOp37
 70
     0
102
RTVSPropertyOp38
 70
     0
102
RTVSPropertyOp39
 70
     0
102
RTVSPropertyOp40
 70
     0
102
RTVSPropertyOp41
 70
     0
102
RTVSPropertyOp42
 70
     0
102
RTVSPropertyOp43
 70
     0
102
RTVSPropertyOp44
 70
     0
102
RTVSPropertyOp45
 70
     0
102
RTVSPropertyOp46
 70
     0
102
RTVSPropertyOp47
 70
     0
102
RTVSPropertyOp48
 70
     0
102
RTVSPropertyOp49
 70
     0
102
RTVSPropertyOp50
 70
     0
102
RTVSPropertyOp51
 70
     0
102
RTVSPropertyOp52
 70
     0
102
RTVSPropertyOp53
 70
     0
102
RTVSPropertyOp54
 70
     0
102
RTVSPropertyOp55
 70
     0
102
RTVSPropertyOp56
 70
     0
102
RTVSPropertyOp57
 70
     0
102
RTVSPropertyOp58
 70
     0
102
RTVSPropertyOp59
 70
     0
102
RTVSPropertyOp60
 70
     0
102
RTVSPropertyOp61
 70
     0
102
RTVSPropertyOp62
 70
     0
  0
XRECORD
  5
69A2
102
{ACAD_REACTORS
330
69A1
102
}
330
69A1
100
AcDbXrecord
280
     1
102
RTVSPost2010Prop28
280
     0
102
RTVSPost2010PropOp28
 70
     1
102
RTVSPost2010Prop29
280
     1
102
RTVSPost2010PropOp29
 70
     1
102
RTVSPost2010Prop30
280
     1
102
RTVSPost2010PropOp30
 70
     1
102
RTVSPost2010Prop31
280
     0
102
RTVSPost2010PropOp31
 70
     1
102
RTVSPost2010Prop32
280
     0
102
RTVSPost2010PropOp32
 70
     1
102
RTVSPost2010Prop33
280
     0
102
RTVSPost2010PropOp33
 70
     1
102
RTVSPost2010Prop34
280
     0
102
RTVSPost2010PropOp34
 70
     1
102
RTVSPost2010Prop35
280
     0
102
RTVSPost2010PropOp35
 70
     1
102
RTVSPost2010Prop36
280
     0
102
RTVSPost2010PropOp36
 70
     1
102
RTVSPost2010Prop37
 90
       50
102
RTVSPost2010PropOp37
 70
     1
102
RTVSPost2010Prop38
140
0.0
102
RTVSPost2010PropOp38
 70
     1
102
RTVSPost2010Prop39
140
1.0
102
RTVSPost2010PropOp39
 70
     1
102
RTVSPost2010Prop40
 90
        0
102
RTVSPost2010PropOp40
 70
     1
102
RTVSPost2010Prop41ColorIndex
 90
       18
102
RTVSPost2010Prop41ColorRGB
 90
        0
102
RTVSPost2010PropOp41
 70
     1
102
RTVSPost2010Prop42
 90
       50
102
RTVSPost2010PropOp42
 70
     1
102
RTVSPost2010Prop43
 90
        3
102
RTVSPost2010PropOp43
 70
     1
102
RTVSPost2010Prop44ColorIndex
 90
        5
102
RTVSPost2010Prop44ColorRGB
 90
      255
102
RTVSPost2010PropOp44
 70
     1
102
RTVSPost2010Prop45
280
     0
102
RTVSPost2010PropOp45
 70
     1
102
RTVSPost2010Prop46
 90
       50
102
RTVSPost2010PropOp46
 70
     1
102
RTVSPost2010Prop47
 90
       50
102
RTVSPost2010PropOp47
 70
     1
102
RTVSPost2010Prop48
 90
       50
102
RTVSPost2010PropOp48
 70
     1
102
RTVSPost2010Prop49
280
     0
102
RTVSPost2010PropOp49
 70
     1
102
RTVSPost2010Prop50
 90
       50
102
RTVSPost2010PropOp50
 70
     1
102
RTVSPost2010Prop51ColorIndex
 90
      256
102
RTVSPost2010Prop51ColorRGB
 90
-16777216
102
RTVSPost2010PropOp51
 70
     0
102
RTVSPost2010Prop52
140
1.0
102
RTVSPost2010PropOp52
 70
     0
102
RTVSPost2010Prop53
 90
        2
102
RTVSPost2010PropOp53
 70
     1
102
RTVSPost2010Prop54
  1
strokes_ogs.tif
102
RTVSPost2010PropOp54
 70
     1
102
RTVSPost2010Prop55
280
     0
102
RTVSPost2010PropOp55
 70
     1
102
RTVSPost2010Prop56
140
1.0
102
RTVSPost2010PropOp56
 70
     1
102
RTVSPost2010Prop57
140
1.0
102
RTVSPost2010PropOp57
 70
     1
102
RTVSPropertyOp0
 70
     1
102
RTVSPropertyOp1
 70
     1
102
RTVSPropertyOp2
 70
     1
102
RTVSPropertyOp3
 70
     1
102
RTVSPropertyOp4
 70
     1
102
RTVSPropertyOp5
 70
     1
102
RTVSPropertyOp6
 70
     1
102
RTVSPropertyOp7
 70
     1
102
RTVSPropertyOp8
 70
     1
102
RTVSPropertyOp9
 70
     1
102
RTVSPropertyOp10
 70
     1
102
RTVSPropertyOp11
 70
     1
102
RTVSPropertyOp12
 70
     1
102
RTVSPropertyOp13
 70
     1
102
RTVSPropertyOp14
 70
     1
102
RTVSPropertyOp15
 70
     1
102
RTVSPropertyOp16
 70
     1
102
RTVSPropertyOp17
 70
     1
102
RTVSPropertyOp18
 70
     1
102
RTVSPropertyOp19
 70
     1
102
RTVSPropertyOp20
 70
     1
102
RTVSPropertyOp21
 70
     1
102
RTVSPropertyOp22
 70
     1
102
RTVSPropertyOp23
 70
     1
102
RTVSPropertyOp24
 70
     1
102
RTVSPropertyOp25
 70
     1
102
RTVSPropertyOp26
 70
     1
102
RTVSPropertyOp27
 70
     1
102
RTVSPropertyOp28
 70
     1
102
RTVSPropertyOp29
 70
     1
102
RTVSPropertyOp30
 70
     1
102
RTVSPropertyOp31
 70
     1
102
RTVSPropertyOp32
 70
     1
102
RTVSPropertyOp33
 70
     1
102
RTVSPropertyOp34
 70
     1
102
RTVSPropertyOp35
 70
     1
102
RTVSPropertyOp36
 70
     1
102
RTVSPropertyOp37
 70
     1
102
RTVSPropertyOp38
 70
     1
102
RTVSPropertyOp39
 70
     1
102
RTVSPropertyOp40
 70
     1
102
RTVSPropertyOp41
 70
     1
102
RTVSPropertyOp42
 70
     1
102
RTVSPropertyOp43
 70
     1
102
RTVSPropertyOp44
 70
     1
102
RTVSPropertyOp45
 70
     1
102
RTVSPropertyOp46
 70
     1
102
RTVSPropertyOp47
 70
     1
102
RTVSPropertyOp48
 70
     1
102
RTVSPropertyOp49
 70
     1
102
RTVSPropertyOp50
 70
     1
102
RTVSPropertyOp51
 70
     0
102
RTVSPropertyOp52
 70
     0
102
RTVSPropertyOp53
 70
     1
102
RTVSPropertyOp54
 70
     1
102
RTVSPropertyOp55
 70
     1
102
RTVSPropertyOp56
 70
     1
102
RTVSPropertyOp57
 70
     1
102
RTVSPropertyOp58
 70
     1
102
RTVSPropertyOp59
 70
     1
102
RTVSPropertyOp60
 70
     1
102
RTVSPropertyOp61
 70
     1
102
RTVSPropertyOp62
 70
     1
  0
XRECORD
  5
6986
102
{ACAD_REACTORS
330
6985
102
}
330
6985
100
AcDbXrecord
280
     1
102
RTVSPost2010Prop28
280
     0
102
RTVSPost2010PropOp28
 70
     1
102
RTVSPost2010Prop29
280
     1
102
RTVSPost2010PropOp29
 70
     1
102
RTVSPost2010Prop30
280
     1
102
RTVSPost2010PropOp30
 70
     1
102
RTVSPost2010Prop31
280
     0
102
RTVSPost2010PropOp31
 70
     1
102
RTVSPost2010Prop32
280
     0
102
RTVSPost2010PropOp32
 70
     1
102
RTVSPost2010Prop33
280
     0
102
RTVSPost2010PropOp33
 70
     1
102
RTVSPost2010Prop34
280
     0
102
RTVSPost2010PropOp34
 70
     1
102
RTVSPost2010Prop35
280
     0
102
RTVSPost2010PropOp35
 70
     1
102
RTVSPost2010Prop36
280
     0
102
RTVSPost2010PropOp36
 70
     1
102
RTVSPost2010Prop37
 90
       50
102
RTVSPost2010PropOp37
 70
     1
102
RTVSPost2010Prop38
140
0.0
102
RTVSPost2010PropOp38
 70
     1
102
RTVSPost2010Prop39
140
1.0
102
RTVSPost2010PropOp39
 70
     1
102
RTVSPost2010Prop40
 90
        0
102
RTVSPost2010PropOp40
 70
     1
102
RTVSPost2010Prop41ColorIndex
 90
       18
102
RTVSPost2010Prop41ColorRGB
 90
        0
102
RTVSPost2010PropOp41
 70
     1
102
RTVSPost2010Prop42
 90
       50
102
RTVSPost2010PropOp42
 70
     1
102
RTVSPost2010Prop43
 90
        3
102
RTVSPost2010PropOp43
 70
     1
102
RTVSPost2010Prop44ColorIndex
 90
        5
102
RTVSPost2010Prop44ColorRGB
 90
      255
102
RTVSPost2010PropOp44
 70
     1
102
RTVSPost2010Prop45
280
     0
102
RTVSPost2010PropOp45
 70
     1
102
RTVSPost2010Prop46
 90
       50
102
RTVSPost2010PropOp46
 70
     1
102
RTVSPost2010Prop47
 90
       50
102
RTVSPost2010PropOp47
 70
     1
102
RTVSPost2010Prop48
 90
       50
102
RTVSPost2010PropOp48
 70
     1
102
RTVSPost2010Prop49
280
     0
102
RTVSPost2010PropOp49
 70
     1
102
RTVSPost2010Prop50
 90
       50
102
RTVSPost2010PropOp50
 70
     1
102
RTVSPost2010Prop51ColorIndex
 90
      256
102
RTVSPost2010Prop51ColorRGB
 90
-16777216
102
RTVSPost2010PropOp51
 70
     0
102
RTVSPost2010Prop52
140
1.0
102
RTVSPost2010PropOp52
 70
     0
102
RTVSPost2010Prop53
 90
        2
102
RTVSPost2010PropOp53
 70
     1
102
RTVSPost2010Prop54
  1
strokes_ogs.tif
102
RTVSPost2010PropOp54
 70
     1
102
RTVSPost2010Prop55
280
     0
102
RTVSPost2010PropOp55
 70
     1
102
RTVSPost2010Prop56
140
1.0
102
RTVSPost2010PropOp56
 70
     1
102
RTVSPost2010Prop57
140
1.0
102
RTVSPost2010PropOp57
 70
     1
102
RTVSPropertyOp0
 70
     1
102
RTVSPropertyOp1
 70
     1
102
RTVSPropertyOp2
 70
     1
102
RTVSPropertyOp3
 70
     1
102
RTVSPropertyOp4
 70
     1
102
RTVSPropertyOp5
 70
     1
102
RTVSPropertyOp6
 70
     1
102
RTVSPropertyOp7
 70
     1
102
RTVSPropertyOp8
 70
     1
102
RTVSPropertyOp9
 70
     1
102
RTVSPropertyOp10
 70
     1
102
RTVSPropertyOp11
 70
     1
102
RTVSPropertyOp12
 70
     1
102
RTVSPropertyOp13
 70
     1
102
RTVSPropertyOp14
 70
     1
102
RTVSPropertyOp15
 70
     1
102
RTVSPropertyOp16
 70
     1
102
RTVSPropertyOp17
 70
     1
102
RTVSPropertyOp18
 70
     1
102
RTVSPropertyOp19
 70
     1
102
RTVSPropertyOp20
 70
     1
102
RTVSPropertyOp21
 70
     1
102
RTVSPropertyOp22
 70
     1
102
RTVSPropertyOp23
 70
     1
102
RTVSPropertyOp24
 70
     1
102
RTVSPropertyOp25
 70
     1
102
RTVSPropertyOp26
 70
     1
102
RTVSPropertyOp27
 70
     1
102
RTVSPropertyOp28
 70
     1
102
RTVSPropertyOp29
 70
     1
102
RTVSPropertyOp30
 70
     1
102
RTVSPropertyOp31
 70
     1
102
RTVSPropertyOp32
 70
     1
102
RTVSPropertyOp33
 70
     1
102
RTVSPropertyOp34
 70
     1
102
RTVSPropertyOp35
 70
     1
102
RTVSPropertyOp36
 70
     1
102
RTVSPropertyOp37
 70
     1
102
RTVSPropertyOp38
 70
     1
102
RTVSPropertyOp39
 70
     1
102
RTVSPropertyOp40
 70
     1
102
RTVSPropertyOp41
 70
     1
102
RTVSPropertyOp42
 70
     1
102
RTVSPropertyOp43
 70
     1
102
RTVSPropertyOp44
 70
     1
102
RTVSPropertyOp45
 70
     1
102
RTVSPropertyOp46
 70
     1
102
RTVSPropertyOp47
 70
     1
102
RTVSPropertyOp48
 70
     1
102
RTVSPropertyOp49
 70
     1
102
RTVSPropertyOp50
 70
     1
102
RTVSPropertyOp51
 70
     0
102
RTVSPropertyOp52
 70
     0
102
RTVSPropertyOp53
 70
     1
102
RTVSPropertyOp54
 70
     1
102
RTVSPropertyOp55
 70
     1
102
RTVSPropertyOp56
 70
     1
102
RTVSPropertyOp57
 70
     1
102
RTVSPropertyOp58
 70
     1
102
RTVSPropertyOp59
 70
     1
102
RTVSPropertyOp60
 70
     1
102
RTVSPropertyOp61
 70
     1
102
RTVSPropertyOp62
 70
     1
  0
XRECORD
  5
6988
102
{ACAD_REACTORS
330
6987
102
}
330
6987
100
AcDbXrecord
280
     1
102
RTVSPost2010Prop28
280
     0
102
RTVSPost2010PropOp28
 70
     1
102
RTVSPost2010Prop29
280
     1
102
RTVSPost2010PropOp29
 70
     1
102
RTVSPost2010Prop30
280
     1
102
RTVSPost2010PropOp30
 70
     1
102
RTVSPost2010Prop31
280
     0
102
RTVSPost2010PropOp31
 70
     1
102
RTVSPost2010Prop32
280
     0
102
RTVSPost2010PropOp32
 70
     1
102
RTVSPost2010Prop33
280
     0
102
RTVSPost2010PropOp33
 70
     1
102
RTVSPost2010Prop34
280
     0
102
RTVSPost2010PropOp34
 70
     1
102
RTVSPost2010Prop35
280
     0
102
RTVSPost2010PropOp35
 70
     1
102
RTVSPost2010Prop36
280
     0
102
RTVSPost2010PropOp36
 70
     1
102
RTVSPost2010Prop37
 90
       50
102
RTVSPost2010PropOp37
 70
     1
102
RTVSPost2010Prop38
140
0.0
102
RTVSPost2010PropOp38
 70
     1
102
RTVSPost2010Prop39
140
1.0
102
RTVSPost2010PropOp39
 70
     1
102
RTVSPost2010Prop40
 90
        0
102
RTVSPost2010PropOp40
 70
     1
102
RTVSPost2010Prop41ColorIndex
 90
       18
102
RTVSPost2010Prop41ColorRGB
 90
        0
102
RTVSPost2010PropOp41
 70
     1
102
RTVSPost2010Prop42
 90
       50
102
RTVSPost2010PropOp42
 70
     1
102
RTVSPost2010Prop43
 90
        3
102
RTVSPost2010PropOp43
 70
     1
102
RTVSPost2010Prop44ColorIndex
 90
        5
102
RTVSPost2010Prop44ColorRGB
 90
      255
102
RTVSPost2010PropOp44
 70
     1
102
RTVSPost2010Prop45
280
     0
102
RTVSPost2010PropOp45
 70
     1
102
RTVSPost2010Prop46
 90
       50
102
RTVSPost2010PropOp46
 70
     1
102
RTVSPost2010Prop47
 90
       50
102
RTVSPost2010PropOp47
 70
     1
102
RTVSPost2010Prop48
 90
       50
102
RTVSPost2010PropOp48
 70
     1
102
RTVSPost2010Prop49
280
     0
102
RTVSPost2010PropOp49
 70
     1
102
RTVSPost2010Prop50
 90
       50
102
RTVSPost2010PropOp50
 70
     1
102
RTVSPost2010Prop51ColorIndex
 90
      256
102
RTVSPost2010Prop51ColorRGB
 90
-16777216
102
RTVSPost2010PropOp51
 70
     0
102
RTVSPost2010Prop52
140
1.0
102
RTVSPost2010PropOp52
 70
     0
102
RTVSPost2010Prop53
 90
        2
102
RTVSPost2010PropOp53
 70
     1
102
RTVSPost2010Prop54
  1
strokes_ogs.tif
102
RTVSPost2010PropOp54
 70
     1
102
RTVSPost2010Prop55
280
     0
102
RTVSPost2010PropOp55
 70
     1
102
RTVSPost2010Prop56
140
1.0
102
RTVSPost2010PropOp56
 70
     1
102
RTVSPost2010Prop57
140
1.0
102
RTVSPost2010PropOp57
 70
     1
102
RTVSPropertyOp0
 70
     1
102
RTVSPropertyOp1
 70
     1
102
RTVSPropertyOp2
 70
     1
102
RTVSPropertyOp3
 70
     1
102
RTVSPropertyOp4
 70
     1
102
RTVSPropertyOp5
 70
     1
102
RTVSPropertyOp6
 70
     1
102
RTVSPropertyOp7
 70
     1
102
RTVSPropertyOp8
 70
     1
102
RTVSPropertyOp9
 70
     1
102
RTVSPropertyOp10
 70
     1
102
RTVSPropertyOp11
 70
     1
102
RTVSPropertyOp12
 70
     1
102
RTVSPropertyOp13
 70
     1
102
RTVSPropertyOp14
 70
     1
102
RTVSPropertyOp15
 70
     1
102
RTVSPropertyOp16
 70
     1
102
RTVSPropertyOp17
 70
     1
102
RTVSPropertyOp18
 70
     1
102
RTVSPropertyOp19
 70
     1
102
RTVSPropertyOp20
 70
     1
102
RTVSPropertyOp21
 70
     1
102
RTVSPropertyOp22
 70
     1
102
RTVSPropertyOp23
 70
     1
102
RTVSPropertyOp24
 70
     1
102
RTVSPropertyOp25
 70
     1
102
RTVSPropertyOp26
 70
     1
102
RTVSPropertyOp27
 70
     1
102
RTVSPropertyOp28
 70
     1
102
RTVSPropertyOp29
 70
     1
102
RTVSPropertyOp30
 70
     1
102
RTVSPropertyOp31
 70
     1
102
RTVSPropertyOp32
 70
     1
102
RTVSPropertyOp33
 70
     1
102
RTVSPropertyOp34
 70
     1
102
RTVSPropertyOp35
 70
     1
102
RTVSPropertyOp36
 70
     1
102
RTVSPropertyOp37
 70
     1
102
RTVSPropertyOp38
 70
     1
102
RTVSPropertyOp39
 70
     1
102
RTVSPropertyOp40
 70
     1
102
RTVSPropertyOp41
 70
     1
102
RTVSPropertyOp42
 70
     1
102
RTVSPropertyOp43
 70
     1
102
RTVSPropertyOp44
 70
     1
102
RTVSPropertyOp45
 70
     1
102
RTVSPropertyOp46
 70
     1
102
RTVSPropertyOp47
 70
     1
102
RTVSPropertyOp48
 70
     1
102
RTVSPropertyOp49
 70
     1
102
RTVSPropertyOp50
 70
     1
102
RTVSPropertyOp51
 70
     0
102
RTVSPropertyOp52
 70
     0
102
RTVSPropertyOp53
 70
     1
102
RTVSPropertyOp54
 70
     1
102
RTVSPropertyOp55
 70
     1
102
RTVSPropertyOp56
 70
     1
102
RTVSPropertyOp57
 70
     1
102
RTVSPropertyOp58
 70
     1
102
RTVSPropertyOp59
 70
     1
102
RTVSPropertyOp60
 70
     1
102
RTVSPropertyOp61
 70
     1
102
RTVSPropertyOp62
 70
     1
  0
XRECORD
  5
698A
102
{ACAD_REACTORS
330
6989
102
}
330
6989
100
AcDbXrecord
280
     1
102
RTVSPost2010Prop28
280
     0
102
RTVSPost2010PropOp28
 70
     1
102
RTVSPost2010Prop29
280
     1
102
RTVSPost2010PropOp29
 70
     1
102
RTVSPost2010Prop30
280
     1
102
RTVSPost2010PropOp30
 70
     1
102
RTVSPost2010Prop31
280
     0
102
RTVSPost2010PropOp31
 70
     1
102
RTVSPost2010Prop32
280
     0
102
RTVSPost2010PropOp32
 70
     1
102
RTVSPost2010Prop33
280
     0
102
RTVSPost2010PropOp33
 70
     1
102
RTVSPost2010Prop34
280
     0
102
RTVSPost2010PropOp34
 70
     1
102
RTVSPost2010Prop35
280
     0
102
RTVSPost2010PropOp35
 70
     1
102
RTVSPost2010Prop36
280
     0
102
RTVSPost2010PropOp36
 70
     1
102
RTVSPost2010Prop37
 90
       50
102
RTVSPost2010PropOp37
 70
     1
102
RTVSPost2010Prop38
140
0.0
102
RTVSPost2010PropOp38
 70
     1
102
RTVSPost2010Prop39
140
1.0
102
RTVSPost2010PropOp39
 70
     1
102
RTVSPost2010Prop40
 90
        0
102
RTVSPost2010PropOp40
 70
     1
102
RTVSPost2010Prop41ColorIndex
 90
       18
102
RTVSPost2010Prop41ColorRGB
 90
        0
102
RTVSPost2010PropOp41
 70
     1
102
RTVSPost2010Prop42
 90
       50
102
RTVSPost2010PropOp42
 70
     1
102
RTVSPost2010Prop43
 90
        3
102
RTVSPost2010PropOp43
 70
     1
102
RTVSPost2010Prop44ColorIndex
 90
        5
102
RTVSPost2010Prop44ColorRGB
 90
      255
102
RTVSPost2010PropOp44
 70
     1
102
RTVSPost2010Prop45
280
     0
102
RTVSPost2010PropOp45
 70
     1
102
RTVSPost2010Prop46
 90
       50
102
RTVSPost2010PropOp46
 70
     1
102
RTVSPost2010Prop47
 90
       50
102
RTVSPost2010PropOp47
 70
     1
102
RTVSPost2010Prop48
 90
       50
102
RTVSPost2010PropOp48
 70
     1
102
RTVSPost2010Prop49
280
     0
102
RTVSPost2010PropOp49
 70
     1
102
RTVSPost2010Prop50
 90
       50
102
RTVSPost2010PropOp50
 70
     1
102
RTVSPost2010Prop51ColorIndex
 90
      256
102
RTVSPost2010Prop51ColorRGB
 90
-16777216
102
RTVSPost2010PropOp51
 70
     0
102
RTVSPost2010Prop52
140
1.0
102
RTVSPost2010PropOp52
 70
     0
102
RTVSPost2010Prop53
 90
        2
102
RTVSPost2010PropOp53
 70
     1
102
RTVSPost2010Prop54
  1
strokes_ogs.tif
102
RTVSPost2010PropOp54
 70
     1
102
RTVSPost2010Prop55
280
     0
102
RTVSPost2010PropOp55
 70
     1
102
RTVSPost2010Prop56
140
1.0
102
RTVSPost2010PropOp56
 70
     1
102
RTVSPost2010Prop57
140
1.0
102
RTVSPost2010PropOp57
 70
     1
102
RTVSPropertyOp0
 70
     1
102
RTVSPropertyOp1
 70
     1
102
RTVSPropertyOp2
 70
     1
102
RTVSPropertyOp3
 70
     1
102
RTVSPropertyOp4
 70
     1
102
RTVSPropertyOp5
 70
     1
102
RTVSPropertyOp6
 70
     1
102
RTVSPropertyOp7
 70
     1
102
RTVSPropertyOp8
 70
     1
102
RTVSPropertyOp9
 70
     1
102
RTVSPropertyOp10
 70
     1
102
RTVSPropertyOp11
 70
     1
102
RTVSPropertyOp12
 70
     1
102
RTVSPropertyOp13
 70
     1
102
RTVSPropertyOp14
 70
     1
102
RTVSPropertyOp15
 70
     1
102
RTVSPropertyOp16
 70
     1
102
RTVSPropertyOp17
 70
     1
102
RTVSPropertyOp18
 70
     1
102
RTVSPropertyOp19
 70
     1
102
RTVSPropertyOp20
 70
     1
102
RTVSPropertyOp21
 70
     1
102
RTVSPropertyOp22
 70
     1
102
RTVSPropertyOp23
 70
     1
102
RTVSPropertyOp24
 70
     1
102
RTVSPropertyOp25
 70
     1
102
RTVSPropertyOp26
 70
     1
102
RTVSPropertyOp27
 70
     1
102
RTVSPropertyOp28
 70
     1
102
RTVSPropertyOp29
 70
     1
102
RTVSPropertyOp30
 70
     1
102
RTVSPropertyOp31
 70
     1
102
RTVSPropertyOp32
 70
     1
102
RTVSPropertyOp33
 70
     1
102
RTVSPropertyOp34
 70
     1
102
RTVSPropertyOp35
 70
     1
102
RTVSPropertyOp36
 70
     1
102
RTVSPropertyOp37
 70
     1
102
RTVSPropertyOp38
 70
     1
102
RTVSPropertyOp39
 70
     1
102
RTVSPropertyOp40
 70
     1
102
RTVSPropertyOp41
 70
     1
102
RTVSPropertyOp42
 70
     1
102
RTVSPropertyOp43
 70
     1
102
RTVSPropertyOp44
 70
     1
102
RTVSPropertyOp45
 70
     1
102
RTVSPropertyOp46
 70
     1
102
RTVSPropertyOp47
 70
     1
102
RTVSPropertyOp48
 70
     1
102
RTVSPropertyOp49
 70
     1
102
RTVSPropertyOp50
 70
     1
102
RTVSPropertyOp51
 70
     0
102
RTVSPropertyOp52
 70
     0
102
RTVSPropertyOp53
 70
     1
102
RTVSPropertyOp54
 70
     1
102
RTVSPropertyOp55
 70
     1
102
RTVSPropertyOp56
 70
     1
102
RTVSPropertyOp57
 70
     1
102
RTVSPropertyOp58
 70
     1
102
RTVSPropertyOp59
 70
     1
102
RTVSPropertyOp60
 70
     1
102
RTVSPropertyOp61
 70
     1
102
RTVSPropertyOp62
 70
     1
  0
XRECORD
  5
698C
102
{ACAD_REACTORS
330
698B
102
}
330
698B
100
AcDbXrecord
280
     1
102
RTVSPost2010Prop28
280
     0
102
RTVSPost2010PropOp28
 70
     1
102
RTVSPost2010Prop29
280
     1
102
RTVSPost2010PropOp29
 70
     1
102
RTVSPost2010Prop30
280
     1
102
RTVSPost2010PropOp30
 70
     1
102
RTVSPost2010Prop31
280
     0
102
RTVSPost2010PropOp31
 70
     1
102
RTVSPost2010Prop32
280
     0
102
RTVSPost2010PropOp32
 70
     1
102
RTVSPost2010Prop33
280
     0
102
RTVSPost2010PropOp33
 70
     1
102
RTVSPost2010Prop34
280
     0
102
RTVSPost2010PropOp34
 70
     1
102
RTVSPost2010Prop35
280
     0
102
RTVSPost2010PropOp35
 70
     1
102
RTVSPost2010Prop36
280
     0
102
RTVSPost2010PropOp36
 70
     1
102
RTVSPost2010Prop37
 90
       50
102
RTVSPost2010PropOp37
 70
     1
102
RTVSPost2010Prop38
140
0.0
102
RTVSPost2010PropOp38
 70
     1
102
RTVSPost2010Prop39
140
1.0
102
RTVSPost2010PropOp39
 70
     1
102
RTVSPost2010Prop40
 90
        0
102
RTVSPost2010PropOp40
 70
     1
102
RTVSPost2010Prop41ColorIndex
 90
       18
102
RTVSPost2010Prop41ColorRGB
 90
        0
102
RTVSPost2010PropOp41
 70
     1
102
RTVSPost2010Prop42
 90
       50
102
RTVSPost2010PropOp42
 70
     1
102
RTVSPost2010Prop43
 90
        3
102
RTVSPost2010PropOp43
 70
     1
102
RTVSPost2010Prop44ColorIndex
 90
        5
102
RTVSPost2010Prop44ColorRGB
 90
      255
102
RTVSPost2010PropOp44
 70
     1
102
RTVSPost2010Prop45
280
     0
102
RTVSPost2010PropOp45
 70
     1
102
RTVSPost2010Prop46
 90
       50
102
RTVSPost2010PropOp46
 70
     1
102
RTVSPost2010Prop47
 90
       50
102
RTVSPost2010PropOp47
 70
     1
102
RTVSPost2010Prop48
 90
       50
102
RTVSPost2010PropOp48
 70
     1
102
RTVSPost2010Prop49
280
     0
102
RTVSPost2010PropOp49
 70
     1
102
RTVSPost2010Prop50
 90
       50
102
RTVSPost2010PropOp50
 70
     1
102
RTVSPost2010Prop51ColorIndex
 90
      256
102
RTVSPost2010Prop51ColorRGB
 90
-16777216
102
RTVSPost2010PropOp51
 70
     0
102
RTVSPost2010Prop52
140
1.0
102
RTVSPost2010PropOp52
 70
     0
102
RTVSPost2010Prop53
 90
        2
102
RTVSPost2010PropOp53
 70
     1
102
RTVSPost2010Prop54
  1
strokes_ogs.tif
102
RTVSPost2010PropOp54
 70
     1
102
RTVSPost2010Prop55
280
     0
102
RTVSPost2010PropOp55
 70
     1
102
RTVSPost2010Prop56
140
1.0
102
RTVSPost2010PropOp56
 70
     1
102
RTVSPost2010Prop57
140
1.0
102
RTVSPost2010PropOp57
 70
     1
102
RTVSPropertyOp0
 70
     1
102
RTVSPropertyOp1
 70
     1
102
RTVSPropertyOp2
 70
     1
102
RTVSPropertyOp3
 70
     1
102
RTVSPropertyOp4
 70
     1
102
RTVSPropertyOp5
 70
     1
102
RTVSPropertyOp6
 70
     1
102
RTVSPropertyOp7
 70
     1
102
RTVSPropertyOp8
 70
     1
102
RTVSPropertyOp9
 70
     1
102
RTVSPropertyOp10
 70
     1
102
RTVSPropertyOp11
 70
     1
102
RTVSPropertyOp12
 70
     1
102
RTVSPropertyOp13
 70
     1
102
RTVSPropertyOp14
 70
     1
102
RTVSPropertyOp15
 70
     1
102
RTVSPropertyOp16
 70
     1
102
RTVSPropertyOp17
 70
     1
102
RTVSPropertyOp18
 70
     1
102
RTVSPropertyOp19
 70
     1
102
RTVSPropertyOp20
 70
     1
102
RTVSPropertyOp21
 70
     1
102
RTVSPropertyOp22
 70
     1
102
RTVSPropertyOp23
 70
     1
102
RTVSPropertyOp24
 70
     1
102
RTVSPropertyOp25
 70
     1
102
RTVSPropertyOp26
 70
     1
102
RTVSPropertyOp27
 70
     1
102
RTVSPropertyOp28
 70
     1
102
RTVSPropertyOp29
 70
     1
102
RTVSPropertyOp30
 70
     1
102
RTVSPropertyOp31
 70
     1
102
RTVSPropertyOp32
 70
     1
102
RTVSPropertyOp33
 70
     1
102
RTVSPropertyOp34
 70
     1
102
RTVSPropertyOp35
 70
     1
102
RTVSPropertyOp36
 70
     1
102
RTVSPropertyOp37
 70
     1
102
RTVSPropertyOp38
 70
     1
102
RTVSPropertyOp39
 70
     1
102
RTVSPropertyOp40
 70
     1
102
RTVSPropertyOp41
 70
     1
102
RTVSPropertyOp42
 70
     1
102
RTVSPropertyOp43
 70
     1
102
RTVSPropertyOp44
 70
     1
102
RTVSPropertyOp45
 70
     1
102
RTVSPropertyOp46
 70
     1
102
RTVSPropertyOp47
 70
     1
102
RTVSPropertyOp48
 70
     1
102
RTVSPropertyOp49
 70
     1
102
RTVSPropertyOp50
 70
     1
102
RTVSPropertyOp51
 70
     0
102
RTVSPropertyOp52
 70
     0
102
RTVSPropertyOp53
 70
     1
102
RTVSPropertyOp54
 70
     1
102
RTVSPropertyOp55
 70
     1
102
RTVSPropertyOp56
 70
     1
102
RTVSPropertyOp57
 70
     1
102
RTVSPropertyOp58
 70
     1
102
RTVSPropertyOp59
 70
     1
102
RTVSPropertyOp60
 70
     1
102
RTVSPropertyOp61
 70
     1
102
RTVSPropertyOp62
 70
     1
  0
XRECORD
  5
6994
102
{ACAD_REACTORS
330
6993
102
}
330
6993
100
AcDbXrecord
280
     1
102
RTVSPost2010Prop28
280
     0
102
RTVSPost2010PropOp28
 70
     1
102
RTVSPost2010Prop29
280
     1
102
RTVSPost2010PropOp29
 70
     1
102
RTVSPost2010Prop30
280
     1
102
RTVSPost2010PropOp30
 70
     1
102
RTVSPost2010Prop31
280
     0
102
RTVSPost2010PropOp31
 70
     1
102
RTVSPost2010Prop32
280
     0
102
RTVSPost2010PropOp32
 70
     1
102
RTVSPost2010Prop33
280
     0
102
RTVSPost2010PropOp33
 70
     1
102
RTVSPost2010Prop34
280
     0
102
RTVSPost2010PropOp34
 70
     1
102
RTVSPost2010Prop35
280
     0
102
RTVSPost2010PropOp35
 70
     1
102
RTVSPost2010Prop36
280
     0
102
RTVSPost2010PropOp36
 70
     1
102
RTVSPost2010Prop37
 90
       50
102
RTVSPost2010PropOp37
 70
     1
102
RTVSPost2010Prop38
140
0.0
102
RTVSPost2010PropOp38
 70
     1
102
RTVSPost2010Prop39
140
1.0
102
RTVSPost2010PropOp39
 70
     1
102
RTVSPost2010Prop40
 90
        0
102
RTVSPost2010PropOp40
 70
     1
102
RTVSPost2010Prop41ColorIndex
 90
       18
102
RTVSPost2010Prop41ColorRGB
 90
        0
102
RTVSPost2010PropOp41
 70
     1
102
RTVSPost2010Prop42
 90
       50
102
RTVSPost2010PropOp42
 70
     1
102
RTVSPost2010Prop43
 90
        3
102
RTVSPost2010PropOp43
 70
     1
102
RTVSPost2010Prop44ColorIndex
 90
        5
102
RTVSPost2010Prop44ColorRGB
 90
      255
102
RTVSPost2010PropOp44
 70
     1
102
RTVSPost2010Prop45
280
     0
102
RTVSPost2010PropOp45
 70
     1
102
RTVSPost2010Prop46
 90
       50
102
RTVSPost2010PropOp46
 70
     1
102
RTVSPost2010Prop47
 90
       50
102
RTVSPost2010PropOp47
 70
     1
102
RTVSPost2010Prop48
 90
       50
102
RTVSPost2010PropOp48
 70
     1
102
RTVSPost2010Prop49
280
     0
102
RTVSPost2010PropOp49
 70
     1
102
RTVSPost2010Prop50
 90
       50
102
RTVSPost2010PropOp50
 70
     1
102
RTVSPost2010Prop51ColorIndex
 90
      256
102
RTVSPost2010Prop51ColorRGB
 90
-16777216
102
RTVSPost2010PropOp51
 70
     0
102
RTVSPost2010Prop52
140
1.0
102
RTVSPost2010PropOp52
 70
     0
102
RTVSPost2010Prop53
 90
        2
102
RTVSPost2010PropOp53
 70
     1
102
RTVSPost2010Prop54
  1
strokes_ogs.tif
102
RTVSPost2010PropOp54
 70
     1
102
RTVSPost2010Prop55
280
     0
102
RTVSPost2010PropOp55
 70
     1
102
RTVSPost2010Prop56
140
1.0
102
RTVSPost2010PropOp56
 70
     1
102
RTVSPost2010Prop57
140
1.0
102
RTVSPost2010PropOp57
 70
     1
102
RTVSPropertyOp0
 70
     1
102
RTVSPropertyOp1
 70
     1
102
RTVSPropertyOp2
 70
     1
102
RTVSPropertyOp3
 70
     1
102
RTVSPropertyOp4
 70
     1
102
RTVSPropertyOp5
 70
     1
102
RTVSPropertyOp6
 70
     1
102
RTVSPropertyOp7
 70
     1
102
RTVSPropertyOp8
 70
     1
102
RTVSPropertyOp9
 70
     1
102
RTVSPropertyOp10
 70
     1
102
RTVSPropertyOp11
 70
     1
102
RTVSPropertyOp12
 70
     1
102
RTVSPropertyOp13
 70
     1
102
RTVSPropertyOp14
 70
     1
102
RTVSPropertyOp15
 70
     1
102
RTVSPropertyOp16
 70
     1
102
RTVSPropertyOp17
 70
     1
102
RTVSPropertyOp18
 70
     1
102
RTVSPropertyOp19
 70
     1
102
RTVSPropertyOp20
 70
     1
102
RTVSPropertyOp21
 70
     1
102
RTVSPropertyOp22
 70
     1
102
RTVSPropertyOp23
 70
     1
102
RTVSPropertyOp24
 70
     1
102
RTVSPropertyOp25
 70
     1
102
RTVSPropertyOp26
 70
     1
102
RTVSPropertyOp27
 70
     1
102
RTVSPropertyOp28
 70
     1
102
RTVSPropertyOp29
 70
     1
102
RTVSPropertyOp30
 70
     1
102
RTVSPropertyOp31
 70
     1
102
RTVSPropertyOp32
 70
     1
102
RTVSPropertyOp33
 70
     1
102
RTVSPropertyOp34
 70
     1
102
RTVSPropertyOp35
 70
     1
102
RTVSPropertyOp36
 70
     1
102
RTVSPropertyOp37
 70
     1
102
RTVSPropertyOp38
 70
     1
102
RTVSPropertyOp39
 70
     1
102
RTVSPropertyOp40
 70
     1
102
RTVSPropertyOp41
 70
     1
102
RTVSPropertyOp42
 70
     1
102
RTVSPropertyOp43
 70
     1
102
RTVSPropertyOp44
 70
     1
102
RTVSPropertyOp45
 70
     1
102
RTVSPropertyOp46
 70
     1
102
RTVSPropertyOp47
 70
     1
102
RTVSPropertyOp48
 70
     1
102
RTVSPropertyOp49
 70
     1
102
RTVSPropertyOp50
 70
     1
102
RTVSPropertyOp51
 70
     0
102
RTVSPropertyOp52
 70
     0
102
RTVSPropertyOp53
 70
     1
102
RTVSPropertyOp54
 70
     1
102
RTVSPropertyOp55
 70
     1
102
RTVSPropertyOp56
 70
     1
102
RTVSPropertyOp57
 70
     1
102
RTVSPropertyOp58
 70
     1
102
RTVSPropertyOp59
 70
     1
102
RTVSPropertyOp60
 70
     1
102
RTVSPropertyOp61
 70
     1
102
RTVSPropertyOp62
 70
     1
  0
XRECORD
  5
69B0
102
{ACAD_REACTORS
330
69AF
102
}
330
69AF
100
AcDbXrecord
280
     1
102
RTVSPost2010Prop28
280
     0
102
RTVSPost2010PropOp28
 70
     0
102
RTVSPost2010Prop29
280
     1
102
RTVSPost2010PropOp29
 70
     0
102
RTVSPost2010Prop30
280
     1
102
RTVSPost2010PropOp30
 70
     0
102
RTVSPost2010Prop31
280
     0
102
RTVSPost2010PropOp31
 70
     0
102
RTVSPost2010Prop32
280
     0
102
RTVSPost2010PropOp32
 70
     0
102
RTVSPost2010Prop33
280
     0
102
RTVSPost2010PropOp33
 70
     0
102
RTVSPost2010Prop34
280
     0
102
RTVSPost2010PropOp34
 70
     0
102
RTVSPost2010Prop35
280
     0
102
RTVSPost2010PropOp35
 70
     0
102
RTVSPost2010Prop36
280
     0
102
RTVSPost2010PropOp36
 70
     0
102
RTVSPost2010Prop37
 90
       50
102
RTVSPost2010PropOp37
 70
     0
102
RTVSPost2010Prop38
140
0.0
102
RTVSPost2010PropOp38
 70
     0
102
RTVSPost2010Prop39
140
1.0
102
RTVSPost2010PropOp39
 70
     0
102
RTVSPost2010Prop40
 90
        0
102
RTVSPost2010PropOp40
 70
     0
102
RTVSPost2010Prop41ColorIndex
 90
       18
102
RTVSPost2010Prop41ColorRGB
 90
        0
102
RTVSPost2010PropOp41
 70
     0
102
RTVSPost2010Prop42
 90
       50
102
RTVSPost2010PropOp42
 70
     0
102
RTVSPost2010Prop43
 90
        3
102
RTVSPost2010PropOp43
 70
     0
102
RTVSPost2010Prop44ColorIndex
 90
        5
102
RTVSPost2010Prop44ColorRGB
 90
      255
102
RTVSPost2010PropOp44
 70
     0
102
RTVSPost2010Prop45
280
     0
102
RTVSPost2010PropOp45
 70
     0
102
RTVSPost2010Prop46
 90
       50
102
RTVSPost2010PropOp46
 70
     0
102
RTVSPost2010Prop47
 90
       50
102
RTVSPost2010PropOp47
 70
     0
102
RTVSPost2010Prop48
 90
       50
102
RTVSPost2010PropOp48
 70
     0
102
RTVSPost2010Prop49
280
     0
102
RTVSPost2010PropOp49
 70
     0
102
RTVSPost2010Prop50
 90
       50
102
RTVSPost2010PropOp50
 70
     0
102
RTVSPost2010Prop51ColorIndex
 90
      256
102
RTVSPost2010Prop51ColorRGB
 90
-16777216
102
RTVSPost2010PropOp51
 70
     0
102
RTVSPost2010Prop52
140
1.0
102
RTVSPost2010PropOp52
 70
     0
102
RTVSPost2010Prop53
 90
        2
102
RTVSPost2010PropOp53
 70
     0
102
RTVSPost2010Prop54
  1
strokes_ogs.tif
102
RTVSPost2010PropOp54
 70
     0
102
RTVSPost2010Prop55
280
     0
102
RTVSPost2010PropOp55
 70
     0
102
RTVSPost2010Prop56
140
1.0
102
RTVSPost2010PropOp56
 70
     0
102
RTVSPost2010Prop57
140
1.0
102
RTVSPost2010PropOp57
 70
     0
102
RTVSPropertyOp0
 70
     0
102
RTVSPropertyOp1
 70
     0
102
RTVSPropertyOp2
 70
     0
102
RTVSPropertyOp3
 70
     0
102
RTVSPropertyOp4
 70
     0
102
RTVSPropertyOp5
 70
     0
102
RTVSPropertyOp6
 70
     0
102
RTVSPropertyOp7
 70
     0
102
RTVSPropertyOp8
 70
     0
102
RTVSPropertyOp9
 70
     0
102
RTVSPropertyOp10
 70
     0
102
RTVSPropertyOp11
 70
     0
102
RTVSPropertyOp12
 70
     0
102
RTVSPropertyOp13
 70
     0
102
RTVSPropertyOp14
 70
     2
102
RTVSPropertyOp15
 70
     0
102
RTVSPropertyOp16
 70
     0
102
RTVSPropertyOp17
 70
     0
102
RTVSPropertyOp18
 70
     0
102
RTVSPropertyOp19
 70
     0
102
RTVSPropertyOp20
 70
     0
102
RTVSPropertyOp21
 70
     0
102
RTVSPropertyOp22
 70
     0
102
RTVSPropertyOp23
 70
     0
102
RTVSPropertyOp24
 70
     0
102
RTVSPropertyOp25
 70
     0
102
RTVSPropertyOp26
 70
     0
102
RTVSPropertyOp27
 70
     0
102
RTVSPropertyOp28
 70
     0
102
RTVSPropertyOp29
 70
     0
102
RTVSPropertyOp30
 70
     0
102
RTVSPropertyOp31
 70
     0
102
RTVSPropertyOp32
 70
     0
102
RTVSPropertyOp33
 70
     0
102
RTVSPropertyOp34
 70
     0
102
RTVSPropertyOp35
 70
     0
102
RTVSPropertyOp36
 70
     0
102
RTVSPropertyOp37
 70
     0
102
RTVSPropertyOp38
 70
     0
102
RTVSPropertyOp39
 70
     0
102
RTVSPropertyOp40
 70
     0
102
RTVSPropertyOp41
 70
     0
102
RTVSPropertyOp42
 70
     0
102
RTVSPropertyOp43
 70
     0
102
RTVSPropertyOp44
 70
     0
102
RTVSPropertyOp45
 70
     0
102
RTVSPropertyOp46
 70
     0
102
RTVSPropertyOp47
 70
     0
102
RTVSPropertyOp48
 70
     0
102
RTVSPropertyOp49
 70
     0
102
RTVSPropertyOp50
 70
     0
102
RTVSPropertyOp51
 70
     0
102
RTVSPropertyOp52
 70
     0
102
RTVSPropertyOp53
 70
     0
102
RTVSPropertyOp54
 70
     0
102
RTVSPropertyOp55
 70
     0
102
RTVSPropertyOp56
 70
     0
102
RTVSPropertyOp57
 70
     0
102
RTVSPropertyOp58
 70
     0
102
RTVSPropertyOp59
 70
     0
102
RTVSPropertyOp60
 70
     0
102
RTVSPropertyOp61
 70
     0
102
RTVSPropertyOp62
 70
     0
  0
XRECORD
  5
69A0
102
{ACAD_REACTORS
330
699F
102
}
330
699F
100
AcDbXrecord
280
     1
102
RTVSPost2010Prop28
280
     0
102
RTVSPost2010PropOp28
 70
     1
102
RTVSPost2010Prop29
280
     1
102
RTVSPost2010PropOp29
 70
     1
102
RTVSPost2010Prop30
280
     1
102
RTVSPost2010PropOp30
 70
     1
102
RTVSPost2010Prop31
280
     0
102
RTVSPost2010PropOp31
 70
     1
102
RTVSPost2010Prop32
280
     0
102
RTVSPost2010PropOp32
 70
     1
102
RTVSPost2010Prop33
280
     0
102
RTVSPost2010PropOp33
 70
     1
102
RTVSPost2010Prop34
280
     0
102
RTVSPost2010PropOp34
 70
     1
102
RTVSPost2010Prop35
280
     0
102
RTVSPost2010PropOp35
 70
     1
102
RTVSPost2010Prop36
280
     0
102
RTVSPost2010PropOp36
 70
     1
102
RTVSPost2010Prop37
 90
       50
102
RTVSPost2010PropOp37
 70
     1
102
RTVSPost2010Prop38
140
0.0
102
RTVSPost2010PropOp38
 70
     1
102
RTVSPost2010Prop39
140
1.0
102
RTVSPost2010PropOp39
 70
     1
102
RTVSPost2010Prop40
 90
        0
102
RTVSPost2010PropOp40
 70
     1
102
RTVSPost2010Prop41ColorIndex
 90
       18
102
RTVSPost2010Prop41ColorRGB
 90
        0
102
RTVSPost2010PropOp41
 70
     1
102
RTVSPost2010Prop42
 90
       50
102
RTVSPost2010PropOp42
 70
     1
102
RTVSPost2010Prop43
 90
        3
102
RTVSPost2010PropOp43
 70
     1
102
RTVSPost2010Prop44ColorIndex
 90
        5
102
RTVSPost2010Prop44ColorRGB
 90
      255
102
RTVSPost2010PropOp44
 70
     1
102
RTVSPost2010Prop45
280
     0
102
RTVSPost2010PropOp45
 70
     1
102
RTVSPost2010Prop46
 90
       50
102
RTVSPost2010PropOp46
 70
     1
102
RTVSPost2010Prop47
 90
       50
102
RTVSPost2010PropOp47
 70
     1
102
RTVSPost2010Prop48
 90
       50
102
RTVSPost2010PropOp48
 70
     1
102
RTVSPost2010Prop49
280
     0
102
RTVSPost2010PropOp49
 70
     1
102
RTVSPost2010Prop50
 90
       50
102
RTVSPost2010PropOp50
 70
     1
102
RTVSPost2010Prop51ColorIndex
 90
      256
102
RTVSPost2010Prop51ColorRGB
 90
-16777216
102
RTVSPost2010PropOp51
 70
     0
102
RTVSPost2010Prop52
140
1.0
102
RTVSPost2010PropOp52
 70
     0
102
RTVSPost2010Prop53
 90
        2
102
RTVSPost2010PropOp53
 70
     1
102
RTVSPost2010Prop54
  1
strokes_ogs.tif
102
RTVSPost2010PropOp54
 70
     1
102
RTVSPost2010Prop55
280
     0
102
RTVSPost2010PropOp55
 70
     1
102
RTVSPost2010Prop56
140
1.0
102
RTVSPost2010PropOp56
 70
     1
102
RTVSPost2010Prop57
140
1.0
102
RTVSPost2010PropOp57
 70
     1
102
RTVSPropertyOp0
 70
     1
102
RTVSPropertyOp1
 70
     1
102
RTVSPropertyOp2
 70
     1
102
RTVSPropertyOp3
 70
     1
102
RTVSPropertyOp4
 70
     1
102
RTVSPropertyOp5
 70
     1
102
RTVSPropertyOp6
 70
     1
102
RTVSPropertyOp7
 70
     1
102
RTVSPropertyOp8
 70
     1
102
RTVSPropertyOp9
 70
     1
102
RTVSPropertyOp10
 70
     1
102
RTVSPropertyOp11
 70
     1
102
RTVSPropertyOp12
 70
     1
102
RTVSPropertyOp13
 70
     1
102
RTVSPropertyOp14
 70
     1
102
RTVSPropertyOp15
 70
     1
102
RTVSPropertyOp16
 70
     1
102
RTVSPropertyOp17
 70
     1
102
RTVSPropertyOp18
 70
     1
102
RTVSPropertyOp19
 70
     1
102
RTVSPropertyOp20
 70
     1
102
RTVSPropertyOp21
 70
     1
102
RTVSPropertyOp22
 70
     1
102
RTVSPropertyOp23
 70
     1
102
RTVSPropertyOp24
 70
     1
102
RTVSPropertyOp25
 70
     1
102
RTVSPropertyOp26
 70
     1
102
RTVSPropertyOp27
 70
     1
102
RTVSPropertyOp28
 70
     1
102
RTVSPropertyOp29
 70
     1
102
RTVSPropertyOp30
 70
     1
102
RTVSPropertyOp31
 70
     1
102
RTVSPropertyOp32
 70
     1
102
RTVSPropertyOp33
 70
     1
102
RTVSPropertyOp34
 70
     1
102
RTVSPropertyOp35
 70
     1
102
RTVSPropertyOp36
 70
     1
102
RTVSPropertyOp37
 70
     1
102
RTVSPropertyOp38
 70
     1
102
RTVSPropertyOp39
 70
     1
102
RTVSPropertyOp40
 70
     1
102
RTVSPropertyOp41
 70
     1
102
RTVSPropertyOp42
 70
     1
102
RTVSPropertyOp43
 70
     1
102
RTVSPropertyOp44
 70
     1
102
RTVSPropertyOp45
 70
     1
102
RTVSPropertyOp46
 70
     1
102
RTVSPropertyOp47
 70
     1
102
RTVSPropertyOp48
 70
     1
102
RTVSPropertyOp49
 70
     1
102
RTVSPropertyOp50
 70
     1
102
RTVSPropertyOp51
 70
     0
102
RTVSPropertyOp52
 70
     0
102
RTVSPropertyOp53
 70
     1
102
RTVSPropertyOp54
 70
     1
102
RTVSPropertyOp55
 70
     1
102
RTVSPropertyOp56
 70
     1
102
RTVSPropertyOp57
 70
     1
102
RTVSPropertyOp58
 70
     1
102
RTVSPropertyOp59
 70
     1
102
RTVSPropertyOp60
 70
     1
102
RTVSPropertyOp61
 70
     1
102
RTVSPropertyOp62
 70
     1
  0
XRECORD
  5
69B2
102
{ACAD_REACTORS
330
69B1
102
}
330
69B1
100
AcDbXrecord
280
     1
102
RTVSPost2010Prop28
280
     0
102
RTVSPost2010PropOp28
 70
     0
102
RTVSPost2010Prop29
280
     1
102
RTVSPost2010PropOp29
 70
     0
102
RTVSPost2010Prop30
280
     1
102
RTVSPost2010PropOp30
 70
     0
102
RTVSPost2010Prop31
280
     0
102
RTVSPost2010PropOp31
 70
     0
102
RTVSPost2010Prop32
280
     0
102
RTVSPost2010PropOp32
 70
     0
102
RTVSPost2010Prop33
280
     0
102
RTVSPost2010PropOp33
 70
     0
102
RTVSPost2010Prop34
280
     0
102
RTVSPost2010PropOp34
 70
     0
102
RTVSPost2010Prop35
280
     0
102
RTVSPost2010PropOp35
 70
     0
102
RTVSPost2010Prop36
280
     0
102
RTVSPost2010PropOp36
 70
     0
102
RTVSPost2010Prop37
 90
       50
102
RTVSPost2010PropOp37
 70
     0
102
RTVSPost2010Prop38
140
0.0
102
RTVSPost2010PropOp38
 70
     0
102
RTVSPost2010Prop39
140
1.0
102
RTVSPost2010PropOp39
 70
     0
102
RTVSPost2010Prop40
 90
        0
102
RTVSPost2010PropOp40
 70
     0
102
RTVSPost2010Prop41ColorIndex
 90
       18
102
RTVSPost2010Prop41ColorRGB
 90
        0
102
RTVSPost2010PropOp41
 70
     0
102
RTVSPost2010Prop42
 90
       50
102
RTVSPost2010PropOp42
 70
     0
102
RTVSPost2010Prop43
 90
        3
102
RTVSPost2010PropOp43
 70
     0
102
RTVSPost2010Prop44ColorIndex
 90
        5
102
RTVSPost2010Prop44ColorRGB
 90
      255
102
RTVSPost2010PropOp44
 70
     0
102
RTVSPost2010Prop45
280
     0
102
RTVSPost2010PropOp45
 70
     0
102
RTVSPost2010Prop46
 90
       50
102
RTVSPost2010PropOp46
 70
     0
102
RTVSPost2010Prop47
 90
       50
102
RTVSPost2010PropOp47
 70
     0
102
RTVSPost2010Prop48
 90
       50
102
RTVSPost2010PropOp48
 70
     0
102
RTVSPost2010Prop49
280
     0
102
RTVSPost2010PropOp49
 70
     0
102
RTVSPost2010Prop50
 90
       50
102
RTVSPost2010PropOp50
 70
     0
102
RTVSPost2010Prop51ColorIndex
 90
      256
102
RTVSPost2010Prop51ColorRGB
 90
-16777216
102
RTVSPost2010PropOp51
 70
     0
102
RTVSPost2010Prop52
140
1.0
102
RTVSPost2010PropOp52
 70
     0
102
RTVSPost2010Prop53
 90
        2
102
RTVSPost2010PropOp53
 70
     0
102
RTVSPost2010Prop54
  1
strokes_ogs.tif
102
RTVSPost2010PropOp54
 70
     0
102
RTVSPost2010Prop55
280
     0
102
RTVSPost2010PropOp55
 70
     0
102
RTVSPost2010Prop56
140
1.0
102
RTVSPost2010PropOp56
 70
     0
102
RTVSPost2010Prop57
140
1.0
102
RTVSPost2010PropOp57
 70
     0
102
RTVSPropertyOp0
 70
     0
102
RTVSPropertyOp1
 70
     0
102
RTVSPropertyOp2
 70
     0
102
RTVSPropertyOp3
 70
     0
102
RTVSPropertyOp4
 70
     0
102
RTVSPropertyOp5
 70
     0
102
RTVSPropertyOp6
 70
     0
102
RTVSPropertyOp7
 70
     0
102
RTVSPropertyOp8
 70
     0
102
RTVSPropertyOp9
 70
     0
102
RTVSPropertyOp10
 70
     0
102
RTVSPropertyOp11
 70
     0
102
RTVSPropertyOp12
 70
     0
102
RTVSPropertyOp13
 70
     0
102
RTVSPropertyOp14
 70
     2
102
RTVSPropertyOp15
 70
     0
102
RTVSPropertyOp16
 70
     0
102
RTVSPropertyOp17
 70
     0
102
RTVSPropertyOp18
 70
     0
102
RTVSPropertyOp19
 70
     0
102
RTVSPropertyOp20
 70
     0
102
RTVSPropertyOp21
 70
     0
102
RTVSPropertyOp22
 70
     0
102
RTVSPropertyOp23
 70
     0
102
RTVSPropertyOp24
 70
     0
102
RTVSPropertyOp25
 70
     0
102
RTVSPropertyOp26
 70
     0
102
RTVSPropertyOp27
 70
     0
102
RTVSPropertyOp28
 70
     0
102
RTVSPropertyOp29
 70
     0
102
RTVSPropertyOp30
 70
     0
102
RTVSPropertyOp31
 70
     0
102
RTVSPropertyOp32
 70
     0
102
RTVSPropertyOp33
 70
     0
102
RTVSPropertyOp34
 70
     0
102
RTVSPropertyOp35
 70
     0
102
RTVSPropertyOp36
 70
     0
102
RTVSPropertyOp37
 70
     0
102
RTVSPropertyOp38
 70
     0
102
RTVSPropertyOp39
 70
     0
102
RTVSPropertyOp40
 70
     0
102
RTVSPropertyOp41
 70
     0
102
RTVSPropertyOp42
 70
     0
102
RTVSPropertyOp43
 70
     0
102
RTVSPropertyOp44
 70
     0
102
RTVSPropertyOp45
 70
     0
102
RTVSPropertyOp46
 70
     0
102
RTVSPropertyOp47
 70
     0
102
RTVSPropertyOp48
 70
     0
102
RTVSPropertyOp49
 70
     0
102
RTVSPropertyOp50
 70
     0
102
RTVSPropertyOp51
 70
     0
102
RTVSPropertyOp52
 70
     0
102
RTVSPropertyOp53
 70
     0
102
RTVSPropertyOp54
 70
     0
102
RTVSPropertyOp55
 70
     0
102
RTVSPropertyOp56
 70
     0
102
RTVSPropertyOp57
 70
     0
102
RTVSPropertyOp58
 70
     0
102
RTVSPropertyOp59
 70
     0
102
RTVSPropertyOp60
 70
     0
102
RTVSPropertyOp61
 70
     0
102
RTVSPropertyOp62
 70
     0
  0
XRECORD
  5
6998
102
{ACAD_REACTORS
330
6997
102
}
330
6997
100
AcDbXrecord
280
     1
102
RTVSPost2010Prop28
280
     0
102
RTVSPost2010PropOp28
 70
     1
102
RTVSPost2010Prop29
280
     1
102
RTVSPost2010PropOp29
 70
     1
102
RTVSPost2010Prop30
280
     1
102
RTVSPost2010PropOp30
 70
     1
102
RTVSPost2010Prop31
280
     0
102
RTVSPost2010PropOp31
 70
     1
102
RTVSPost2010Prop32
280
     0
102
RTVSPost2010PropOp32
 70
     1
102
RTVSPost2010Prop33
280
     0
102
RTVSPost2010PropOp33
 70
     1
102
RTVSPost2010Prop34
280
     0
102
RTVSPost2010PropOp34
 70
     1
102
RTVSPost2010Prop35
280
     0
102
RTVSPost2010PropOp35
 70
     1
102
RTVSPost2010Prop36
280
     0
102
RTVSPost2010PropOp36
 70
     1
102
RTVSPost2010Prop37
 90
       50
102
RTVSPost2010PropOp37
 70
     1
102
RTVSPost2010Prop38
140
0.0
102
RTVSPost2010PropOp38
 70
     1
102
RTVSPost2010Prop39
140
1.0
102
RTVSPost2010PropOp39
 70
     1
102
RTVSPost2010Prop40
 90
        0
102
RTVSPost2010PropOp40
 70
     1
102
RTVSPost2010Prop41ColorIndex
 90
       18
102
RTVSPost2010Prop41ColorRGB
 90
        0
102
RTVSPost2010PropOp41
 70
     1
102
RTVSPost2010Prop42
 90
       50
102
RTVSPost2010PropOp42
 70
     1
102
RTVSPost2010Prop43
 90
        3
102
RTVSPost2010PropOp43
 70
     1
102
RTVSPost2010Prop44ColorIndex
 90
        5
102
RTVSPost2010Prop44ColorRGB
 90
      255
102
RTVSPost2010PropOp44
 70
     1
102
RTVSPost2010Prop45
280
     0
102
RTVSPost2010PropOp45
 70
     1
102
RTVSPost2010Prop46
 90
       50
102
RTVSPost2010PropOp46
 70
     1
102
RTVSPost2010Prop47
 90
       50
102
RTVSPost2010PropOp47
 70
     1
102
RTVSPost2010Prop48
 90
       50
102
RTVSPost2010PropOp48
 70
     1
102
RTVSPost2010Prop49
280
     0
102
RTVSPost2010PropOp49
 70
     1
102
RTVSPost2010Prop50
 90
       50
102
RTVSPost2010PropOp50
 70
     1
102
RTVSPost2010Prop51ColorIndex
 90
      256
102
RTVSPost2010Prop51ColorRGB
 90
-16777216
102
RTVSPost2010PropOp51
 70
     0
102
RTVSPost2010Prop52
140
1.0
102
RTVSPost2010PropOp52
 70
     0
102
RTVSPost2010Prop53
 90
        2
102
RTVSPost2010PropOp53
 70
     1
102
RTVSPost2010Prop54
  1
strokes_ogs.tif
102
RTVSPost2010PropOp54
 70
     1
102
RTVSPost2010Prop55
280
     0
102
RTVSPost2010PropOp55
 70
     1
102
RTVSPost2010Prop56
140
1.0
102
RTVSPost2010PropOp56
 70
     1
102
RTVSPost2010Prop57
140
1.0
102
RTVSPost2010PropOp57
 70
     1
102
RTVSPropertyOp0
 70
     1
102
RTVSPropertyOp1
 70
     1
102
RTVSPropertyOp2
 70
     1
102
RTVSPropertyOp3
 70
     1
102
RTVSPropertyOp4
 70
     1
102
RTVSPropertyOp5
 70
     1
102
RTVSPropertyOp6
 70
     1
102
RTVSPropertyOp7
 70
     1
102
RTVSPropertyOp8
 70
     1
102
RTVSPropertyOp9
 70
     1
102
RTVSPropertyOp10
 70
     1
102
RTVSPropertyOp11
 70
     1
102
RTVSPropertyOp12
 70
     1
102
RTVSPropertyOp13
 70
     1
102
RTVSPropertyOp14
 70
     1
102
RTVSPropertyOp15
 70
     1
102
RTVSPropertyOp16
 70
     1
102
RTVSPropertyOp17
 70
     1
102
RTVSPropertyOp18
 70
     1
102
RTVSPropertyOp19
 70
     1
102
RTVSPropertyOp20
 70
     1
102
RTVSPropertyOp21
 70
     1
102
RTVSPropertyOp22
 70
     1
102
RTVSPropertyOp23
 70
     1
102
RTVSPropertyOp24
 70
     1
102
RTVSPropertyOp25
 70
     1
102
RTVSPropertyOp26
 70
     1
102
RTVSPropertyOp27
 70
     1
102
RTVSPropertyOp28
 70
     1
102
RTVSPropertyOp29
 70
     1
102
RTVSPropertyOp30
 70
     1
102
RTVSPropertyOp31
 70
     1
102
RTVSPropertyOp32
 70
     1
102
RTVSPropertyOp33
 70
     1
102
RTVSPropertyOp34
 70
     1
102
RTVSPropertyOp35
 70
     1
102
RTVSPropertyOp36
 70
     1
102
RTVSPropertyOp37
 70
     1
102
RTVSPropertyOp38
 70
     1
102
RTVSPropertyOp39
 70
     1
102
RTVSPropertyOp40
 70
     1
102
RTVSPropertyOp41
 70
     1
102
RTVSPropertyOp42
 70
     1
102
RTVSPropertyOp43
 70
     1
102
RTVSPropertyOp44
 70
     1
102
RTVSPropertyOp45
 70
     1
102
RTVSPropertyOp46
 70
     1
102
RTVSPropertyOp47
 70
     1
102
RTVSPropertyOp48
 70
     1
102
RTVSPropertyOp49
 70
     1
102
RTVSPropertyOp50
 70
     1
102
RTVSPropertyOp51
 70
     0
102
RTVSPropertyOp52
 70
     0
102
RTVSPropertyOp53
 70
     1
102
RTVSPropertyOp54
 70
     1
102
RTVSPropertyOp55
 70
     1
102
RTVSPropertyOp56
 70
     1
102
RTVSPropertyOp57
 70
     1
102
RTVSPropertyOp58
 70
     1
102
RTVSPropertyOp59
 70
     1
102
RTVSPropertyOp60
 70
     1
102
RTVSPropertyOp61
 70
     1
102
RTVSPropertyOp62
 70
     1
  0
XRECORD
  5
69AE
102
{ACAD_REACTORS
330
69AD
102
}
330
69AD
100
AcDbXrecord
280
     1
102
RTVSPost2010Prop28
280
     0
102
RTVSPost2010PropOp28
 70
     1
102
RTVSPost2010Prop29
280
     1
102
RTVSPost2010PropOp29
 70
     1
102
RTVSPost2010Prop30
280
     1
102
RTVSPost2010PropOp30
 70
     1
102
RTVSPost2010Prop31
280
     0
102
RTVSPost2010PropOp31
 70
     1
102
RTVSPost2010Prop32
280
     0
102
RTVSPost2010PropOp32
 70
     1
102
RTVSPost2010Prop33
280
     0
102
RTVSPost2010PropOp33
 70
     1
102
RTVSPost2010Prop34
280
     0
102
RTVSPost2010PropOp34
 70
     1
102
RTVSPost2010Prop35
280
     0
102
RTVSPost2010PropOp35
 70
     1
102
RTVSPost2010Prop36
280
     0
102
RTVSPost2010PropOp36
 70
     1
102
RTVSPost2010Prop37
 90
       50
102
RTVSPost2010PropOp37
 70
     1
102
RTVSPost2010Prop38
140
0.0
102
RTVSPost2010PropOp38
 70
     1
102
RTVSPost2010Prop39
140
1.0
102
RTVSPost2010PropOp39
 70
     1
102
RTVSPost2010Prop40
 90
        0
102
RTVSPost2010PropOp40
 70
     1
102
RTVSPost2010Prop41ColorIndex
 90
       18
102
RTVSPost2010Prop41ColorRGB
 90
        0
102
RTVSPost2010PropOp41
 70
     1
102
RTVSPost2010Prop42
 90
       50
102
RTVSPost2010PropOp42
 70
     1
102
RTVSPost2010Prop43
 90
        3
102
RTVSPost2010PropOp43
 70
     1
102
RTVSPost2010Prop44ColorIndex
 90
        5
102
RTVSPost2010Prop44ColorRGB
 90
      255
102
RTVSPost2010PropOp44
 70
     1
102
RTVSPost2010Prop45
280
     0
102
RTVSPost2010PropOp45
 70
     1
102
RTVSPost2010Prop46
 90
       50
102
RTVSPost2010PropOp46
 70
     1
102
RTVSPost2010Prop47
 90
       50
102
RTVSPost2010PropOp47
 70
     1
102
RTVSPost2010Prop48
 90
       50
102
RTVSPost2010PropOp48
 70
     1
102
RTVSPost2010Prop49
280
     0
102
RTVSPost2010PropOp49
 70
     1
102
RTVSPost2010Prop50
 90
       50
102
RTVSPost2010PropOp50
 70
     1
102
RTVSPost2010Prop51ColorIndex
 90
      256
102
RTVSPost2010Prop51ColorRGB
 90
-16777216
102
RTVSPost2010PropOp51
 70
     0
102
RTVSPost2010Prop52
140
1.0
102
RTVSPost2010PropOp52
 70
     0
102
RTVSPost2010Prop53
 90
        2
102
RTVSPost2010PropOp53
 70
     1
102
RTVSPost2010Prop54
  1
strokes_ogs.tif
102
RTVSPost2010PropOp54
 70
     1
102
RTVSPost2010Prop55
280
     0
102
RTVSPost2010PropOp55
 70
     1
102
RTVSPost2010Prop56
140
1.0
102
RTVSPost2010PropOp56
 70
     1
102
RTVSPost2010Prop57
140
1.0
102
RTVSPost2010PropOp57
 70
     1
102
RTVSPropertyOp0
 70
     1
102
RTVSPropertyOp1
 70
     1
102
RTVSPropertyOp2
 70
     1
102
RTVSPropertyOp3
 70
     1
102
RTVSPropertyOp4
 70
     1
102
RTVSPropertyOp5
 70
     1
102
RTVSPropertyOp6
 70
     1
102
RTVSPropertyOp7
 70
     1
102
RTVSPropertyOp8
 70
     1
102
RTVSPropertyOp9
 70
     1
102
RTVSPropertyOp10
 70
     1
102
RTVSPropertyOp11
 70
     1
102
RTVSPropertyOp12
 70
     1
102
RTVSPropertyOp13
 70
     1
102
RTVSPropertyOp14
 70
     1
102
RTVSPropertyOp15
 70
     1
102
RTVSPropertyOp16
 70
     1
102
RTVSPropertyOp17
 70
     1
102
RTVSPropertyOp18
 70
     1
102
RTVSPropertyOp19
 70
     1
102
RTVSPropertyOp20
 70
     1
102
RTVSPropertyOp21
 70
     1
102
RTVSPropertyOp22
 70
     1
102
RTVSPropertyOp23
 70
     1
102
RTVSPropertyOp24
 70
     1
102
RTVSPropertyOp25
 70
     1
102
RTVSPropertyOp26
 70
     1
102
RTVSPropertyOp27
 70
     1
102
RTVSPropertyOp28
 70
     1
102
RTVSPropertyOp29
 70
     1
102
RTVSPropertyOp30
 70
     1
102
RTVSPropertyOp31
 70
     1
102
RTVSPropertyOp32
 70
     1
102
RTVSPropertyOp33
 70
     1
102
RTVSPropertyOp34
 70
     1
102
RTVSPropertyOp35
 70
     1
102
RTVSPropertyOp36
 70
     1
102
RTVSPropertyOp37
 70
     1
102
RTVSPropertyOp38
 70
     1
102
RTVSPropertyOp39
 70
     1
102
RTVSPropertyOp40
 70
     1
102
RTVSPropertyOp41
 70
     1
102
RTVSPropertyOp42
 70
     1
102
RTVSPropertyOp43
 70
     1
102
RTVSPropertyOp44
 70
     1
102
RTVSPropertyOp45
 70
     1
102
RTVSPropertyOp46
 70
     1
102
RTVSPropertyOp47
 70
     1
102
RTVSPropertyOp48
 70
     1
102
RTVSPropertyOp49
 70
     1
102
RTVSPropertyOp50
 70
     1
102
RTVSPropertyOp51
 70
     0
102
RTVSPropertyOp52
 70
     0
102
RTVSPropertyOp53
 70
     1
102
RTVSPropertyOp54
 70
     1
102
RTVSPropertyOp55
 70
     1
102
RTVSPropertyOp56
 70
     1
102
RTVSPropertyOp57
 70
     1
102
RTVSPropertyOp58
 70
     1
102
RTVSPropertyOp59
 70
     1
102
RTVSPropertyOp60
 70
     1
102
RTVSPropertyOp61
 70
     1
102
RTVSPropertyOp62
 70
     1
  0
XRECORD
  5
69AC
102
{ACAD_REACTORS
330
69AB
102
}
330
69AB
100
AcDbXrecord
280
     1
102
RTVSPost2010Prop28
280
     0
102
RTVSPost2010PropOp28
 70
     1
102
RTVSPost2010Prop29
280
     1
102
RTVSPost2010PropOp29
 70
     1
102
RTVSPost2010Prop30
280
     1
102
RTVSPost2010PropOp30
 70
     1
102
RTVSPost2010Prop31
280
     0
102
RTVSPost2010PropOp31
 70
     1
102
RTVSPost2010Prop32
280
     0
102
RTVSPost2010PropOp32
 70
     1
102
RTVSPost2010Prop33
280
     0
102
RTVSPost2010PropOp33
 70
     1
102
RTVSPost2010Prop34
280
     0
102
RTVSPost2010PropOp34
 70
     1
102
RTVSPost2010Prop35
280
     0
102
RTVSPost2010PropOp35
 70
     1
102
RTVSPost2010Prop36
280
     0
102
RTVSPost2010PropOp36
 70
     1
102
RTVSPost2010Prop37
 90
       50
102
RTVSPost2010PropOp37
 70
     1
102
RTVSPost2010Prop38
140
0.0
102
RTVSPost2010PropOp38
 70
     1
102
RTVSPost2010Prop39
140
1.0
102
RTVSPost2010PropOp39
 70
     1
102
RTVSPost2010Prop40
 90
        0
102
RTVSPost2010PropOp40
 70
     1
102
RTVSPost2010Prop41ColorIndex
 90
       18
102
RTVSPost2010Prop41ColorRGB
 90
        0
102
RTVSPost2010PropOp41
 70
     1
102
RTVSPost2010Prop42
 90
       50
102
RTVSPost2010PropOp42
 70
     1
102
RTVSPost2010Prop43
 90
        3
102
RTVSPost2010PropOp43
 70
     1
102
RTVSPost2010Prop44ColorIndex
 90
        5
102
RTVSPost2010Prop44ColorRGB
 90
      255
102
RTVSPost2010PropOp44
 70
     1
102
RTVSPost2010Prop45
280
     0
102
RTVSPost2010PropOp45
 70
     1
102
RTVSPost2010Prop46
 90
       50
102
RTVSPost2010PropOp46
 70
     1
102
RTVSPost2010Prop47
 90
       50
102
RTVSPost2010PropOp47
 70
     1
102
RTVSPost2010Prop48
 90
       50
102
RTVSPost2010PropOp48
 70
     1
102
RTVSPost2010Prop49
280
     0
102
RTVSPost2010PropOp49
 70
     1
102
RTVSPost2010Prop50
 90
       50
102
RTVSPost2010PropOp50
 70
     1
102
RTVSPost2010Prop51ColorIndex
 90
      256
102
RTVSPost2010Prop51ColorRGB
 90
-16777216
102
RTVSPost2010PropOp51
 70
     0
102
RTVSPost2010Prop52
140
1.0
102
RTVSPost2010PropOp52
 70
     0
102
RTVSPost2010Prop53
 90
        2
102
RTVSPost2010PropOp53
 70
     1
102
RTVSPost2010Prop54
  1
strokes_ogs.tif
102
RTVSPost2010PropOp54
 70
     1
102
RTVSPost2010Prop55
280
     0
102
RTVSPost2010PropOp55
 70
     1
102
RTVSPost2010Prop56
140
1.0
102
RTVSPost2010PropOp56
 70
     1
102
RTVSPost2010Prop57
140
1.0
102
RTVSPost2010PropOp57
 70
     1
102
RTVSPropertyOp0
 70
     1
102
RTVSPropertyOp1
 70
     1
102
RTVSPropertyOp2
 70
     1
102
RTVSPropertyOp3
 70
     1
102
RTVSPropertyOp4
 70
     1
102
RTVSPropertyOp5
 70
     1
102
RTVSPropertyOp6
 70
     1
102
RTVSPropertyOp7
 70
     1
102
RTVSPropertyOp8
 70
     1
102
RTVSPropertyOp9
 70
     1
102
RTVSPropertyOp10
 70
     1
102
RTVSPropertyOp11
 70
     1
102
RTVSPropertyOp12
 70
     1
102
RTVSPropertyOp13
 70
     1
102
RTVSPropertyOp14
 70
     1
102
RTVSPropertyOp15
 70
     1
102
RTVSPropertyOp16
 70
     1
102
RTVSPropertyOp17
 70
     1
102
RTVSPropertyOp18
 70
     1
102
RTVSPropertyOp19
 70
     1
102
RTVSPropertyOp20
 70
     1
102
RTVSPropertyOp21
 70
     1
102
RTVSPropertyOp22
 70
     1
102
RTVSPropertyOp23
 70
     1
102
RTVSPropertyOp24
 70
     1
102
RTVSPropertyOp25
 70
     1
102
RTVSPropertyOp26
 70
     1
102
RTVSPropertyOp27
 70
     1
102
RTVSPropertyOp28
 70
     1
102
RTVSPropertyOp29
 70
     1
102
RTVSPropertyOp30
 70
     1
102
RTVSPropertyOp31
 70
     1
102
RTVSPropertyOp32
 70
     1
102
RTVSPropertyOp33
 70
     1
102
RTVSPropertyOp34
 70
     1
102
RTVSPropertyOp35
 70
     1
102
RTVSPropertyOp36
 70
     1
102
RTVSPropertyOp37
 70
     1
102
RTVSPropertyOp38
 70
     1
102
RTVSPropertyOp39
 70
     1
102
RTVSPropertyOp40
 70
     1
102
RTVSPropertyOp41
 70
     1
102
RTVSPropertyOp42
 70
     1
102
RTVSPropertyOp43
 70
     1
102
RTVSPropertyOp44
 70
     1
102
RTVSPropertyOp45
 70
     1
102
RTVSPropertyOp46
 70
     1
102
RTVSPropertyOp47
 70
     1
102
RTVSPropertyOp48
 70
     1
102
RTVSPropertyOp49
 70
     1
102
RTVSPropertyOp50
 70
     1
102
RTVSPropertyOp51
 70
     0
102
RTVSPropertyOp52
 70
     0
102
RTVSPropertyOp53
 70
     1
102
RTVSPropertyOp54
 70
     1
102
RTVSPropertyOp55
 70
     1
102
RTVSPropertyOp56
 70
     1
102
RTVSPropertyOp57
 70
     1
102
RTVSPropertyOp58
 70
     1
102
RTVSPropertyOp59
 70
     1
102
RTVSPropertyOp60
 70
     1
102
RTVSPropertyOp61
 70
     1
102
RTVSPropertyOp62
 70
     1
  0
XRECORD
  5
69A6
102
{ACAD_REACTORS
330
69A5
102
}
330
69A5
100
AcDbXrecord
280
     1
102
RTVSPost2010Prop28
280
     0
102
RTVSPost2010PropOp28
 70
     1
102
RTVSPost2010Prop29
280
     1
102
RTVSPost2010PropOp29
 70
     1
102
RTVSPost2010Prop30
280
     1
102
RTVSPost2010PropOp30
 70
     1
102
RTVSPost2010Prop31
280
     0
102
RTVSPost2010PropOp31
 70
     1
102
RTVSPost2010Prop32
280
     0
102
RTVSPost2010PropOp32
 70
     1
102
RTVSPost2010Prop33
280
     0
102
RTVSPost2010PropOp33
 70
     1
102
RTVSPost2010Prop34
280
     0
102
RTVSPost2010PropOp34
 70
     1
102
RTVSPost2010Prop35
280
     0
102
RTVSPost2010PropOp35
 70
     1
102
RTVSPost2010Prop36
280
     0
102
RTVSPost2010PropOp36
 70
     1
102
RTVSPost2010Prop37
 90
       50
102
RTVSPost2010PropOp37
 70
     1
102
RTVSPost2010Prop38
140
0.0
102
RTVSPost2010PropOp38
 70
     1
102
RTVSPost2010Prop39
140
1.0
102
RTVSPost2010PropOp39
 70
     1
102
RTVSPost2010Prop40
 90
        0
102
RTVSPost2010PropOp40
 70
     1
102
RTVSPost2010Prop41ColorIndex
 90
       18
102
RTVSPost2010Prop41ColorRGB
 90
        0
102
RTVSPost2010PropOp41
 70
     1
102
RTVSPost2010Prop42
 90
       50
102
RTVSPost2010PropOp42
 70
     1
102
RTVSPost2010Prop43
 90
        3
102
RTVSPost2010PropOp43
 70
     1
102
RTVSPost2010Prop44ColorIndex
 90
        5
102
RTVSPost2010Prop44ColorRGB
 90
      255
102
RTVSPost2010PropOp44
 70
     1
102
RTVSPost2010Prop45
280
     0
102
RTVSPost2010PropOp45
 70
     1
102
RTVSPost2010Prop46
 90
       50
102
RTVSPost2010PropOp46
 70
     1
102
RTVSPost2010Prop47
 90
       50
102
RTVSPost2010PropOp47
 70
     1
102
RTVSPost2010Prop48
 90
       50
102
RTVSPost2010PropOp48
 70
     1
102
RTVSPost2010Prop49
280
     0
102
RTVSPost2010PropOp49
 70
     1
102
RTVSPost2010Prop50
 90
       50
102
RTVSPost2010PropOp50
 70
     1
102
RTVSPost2010Prop51ColorIndex
 90
      256
102
RTVSPost2010Prop51ColorRGB
 90
-16777216
102
RTVSPost2010PropOp51
 70
     0
102
RTVSPost2010Prop52
140
1.0
102
RTVSPost2010PropOp52
 70
     0
102
RTVSPost2010Prop53
 90
        2
102
RTVSPost2010PropOp53
 70
     1
102
RTVSPost2010Prop54
  1
strokes_ogs.tif
102
RTVSPost2010PropOp54
 70
     1
102
RTVSPost2010Prop55
280
     0
102
RTVSPost2010PropOp55
 70
     1
102
RTVSPost2010Prop56
140
1.0
102
RTVSPost2010PropOp56
 70
     1
102
RTVSPost2010Prop57
140
1.0
102
RTVSPost2010PropOp57
 70
     1
102
RTVSPropertyOp0
 70
     1
102
RTVSPropertyOp1
 70
     1
102
RTVSPropertyOp2
 70
     1
102
RTVSPropertyOp3
 70
     1
102
RTVSPropertyOp4
 70
     1
102
RTVSPropertyOp5
 70
     1
102
RTVSPropertyOp6
 70
     1
102
RTVSPropertyOp7
 70
     1
102
RTVSPropertyOp8
 70
     1
102
RTVSPropertyOp9
 70
     1
102
RTVSPropertyOp10
 70
     1
102
RTVSPropertyOp11
 70
     1
102
RTVSPropertyOp12
 70
     1
102
RTVSPropertyOp13
 70
     1
102
RTVSPropertyOp14
 70
     1
102
RTVSPropertyOp15
 70
     1
102
RTVSPropertyOp16
 70
     1
102
RTVSPropertyOp17
 70
     1
102
RTVSPropertyOp18
 70
     1
102
RTVSPropertyOp19
 70
     1
102
RTVSPropertyOp20
 70
     1
102
RTVSPropertyOp21
 70
     1
102
RTVSPropertyOp22
 70
     1
102
RTVSPropertyOp23
 70
     1
102
RTVSPropertyOp24
 70
     1
102
RTVSPropertyOp25
 70
     1
102
RTVSPropertyOp26
 70
     1
102
RTVSPropertyOp27
 70
     1
102
RTVSPropertyOp28
 70
     1
102
RTVSPropertyOp29
 70
     1
102
RTVSPropertyOp30
 70
     1
102
RTVSPropertyOp31
 70
     1
102
RTVSPropertyOp32
 70
     1
102
RTVSPropertyOp33
 70
     1
102
RTVSPropertyOp34
 70
     1
102
RTVSPropertyOp35
 70
     1
102
RTVSPropertyOp36
 70
     1
102
RTVSPropertyOp37
 70
     1
102
RTVSPropertyOp38
 70
     1
102
RTVSPropertyOp39
 70
     1
102
RTVSPropertyOp40
 70
     1
102
RTVSPropertyOp41
 70
     1
102
RTVSPropertyOp42
 70
     1
102
RTVSPropertyOp43
 70
     1
102
RTVSPropertyOp44
 70
     1
102
RTVSPropertyOp45
 70
     1
102
RTVSPropertyOp46
 70
     1
102
RTVSPropertyOp47
 70
     1
102
RTVSPropertyOp48
 70
     1
102
RTVSPropertyOp49
 70
     1
102
RTVSPropertyOp50
 70
     1
102
RTVSPropertyOp51
 70
     0
102
RTVSPropertyOp52
 70
     0
102
RTVSPropertyOp53
 70
     1
102
RTVSPropertyOp54
 70
     1
102
RTVSPropertyOp55
 70
     1
102
RTVSPropertyOp56
 70
     1
102
RTVSPropertyOp57
 70
     1
102
RTVSPropertyOp58
 70
     1
102
RTVSPropertyOp59
 70
     1
102
RTVSPropertyOp60
 70
     1
102
RTVSPropertyOp61
 70
     1
102
RTVSPropertyOp62
 70
     1
  0
XRECORD
  5
69A8
102
{ACAD_REACTORS
330
69A7
102
}
330
69A7
100
AcDbXrecord
280
     1
102
RTVSPost2010Prop28
280
     0
102
RTVSPost2010PropOp28
 70
     1
102
RTVSPost2010Prop29
280
     1
102
RTVSPost2010PropOp29
 70
     1
102
RTVSPost2010Prop30
280
     1
102
RTVSPost2010PropOp30
 70
     1
102
RTVSPost2010Prop31
280
     0
102
RTVSPost2010PropOp31
 70
     1
102
RTVSPost2010Prop32
280
     0
102
RTVSPost2010PropOp32
 70
     1
102
RTVSPost2010Prop33
280
     0
102
RTVSPost2010PropOp33
 70
     1
102
RTVSPost2010Prop34
280
     0
102
RTVSPost2010PropOp34
 70
     1
102
RTVSPost2010Prop35
280
     0
102
RTVSPost2010PropOp35
 70
     1
102
RTVSPost2010Prop36
280
     0
102
RTVSPost2010PropOp36
 70
     1
102
RTVSPost2010Prop37
 90
       50
102
RTVSPost2010PropOp37
 70
     1
102
RTVSPost2010Prop38
140
0.0
102
RTVSPost2010PropOp38
 70
     1
102
RTVSPost2010Prop39
140
1.0
102
RTVSPost2010PropOp39
 70
     1
102
RTVSPost2010Prop40
 90
        0
102
RTVSPost2010PropOp40
 70
     1
102
RTVSPost2010Prop41ColorIndex
 90
       18
102
RTVSPost2010Prop41ColorRGB
 90
        0
102
RTVSPost2010PropOp41
 70
     1
102
RTVSPost2010Prop42
 90
       50
102
RTVSPost2010PropOp42
 70
     1
102
RTVSPost2010Prop43
 90
        3
102
RTVSPost2010PropOp43
 70
     1
102
RTVSPost2010Prop44ColorIndex
 90
        5
102
RTVSPost2010Prop44ColorRGB
 90
      255
102
RTVSPost2010PropOp44
 70
     1
102
RTVSPost2010Prop45
280
     0
102
RTVSPost2010PropOp45
 70
     1
102
RTVSPost2010Prop46
 90
       50
102
RTVSPost2010PropOp46
 70
     1
102
RTVSPost2010Prop47
 90
       50
102
RTVSPost2010PropOp47
 70
     1
102
RTVSPost2010Prop48
 90
       50
102
RTVSPost2010PropOp48
 70
     1
102
RTVSPost2010Prop49
280
     0
102
RTVSPost2010PropOp49
 70
     1
102
RTVSPost2010Prop50
 90
       50
102
RTVSPost2010PropOp50
 70
     1
102
RTVSPost2010Prop51ColorIndex
 90
      256
102
RTVSPost2010Prop51ColorRGB
 90
-16777216
102
RTVSPost2010PropOp51
 70
     0
102
RTVSPost2010Prop52
140
1.0
102
RTVSPost2010PropOp52
 70
     0
102
RTVSPost2010Prop53
 90
        2
102
RTVSPost2010PropOp53
 70
     1
102
RTVSPost2010Prop54
  1
strokes_ogs.tif
102
RTVSPost2010PropOp54
 70
     1
102
RTVSPost2010Prop55
280
     0
102
RTVSPost2010PropOp55
 70
     1
102
RTVSPost2010Prop56
140
1.0
102
RTVSPost2010PropOp56
 70
     1
102
RTVSPost2010Prop57
140
1.0
102
RTVSPost2010PropOp57
 70
     1
102
RTVSPropertyOp0
 70
     1
102
RTVSPropertyOp1
 70
     1
102
RTVSPropertyOp2
 70
     1
102
RTVSPropertyOp3
 70
     1
102
RTVSPropertyOp4
 70
     1
102
RTVSPropertyOp5
 70
     1
102
RTVSPropertyOp6
 70
     1
102
RTVSPropertyOp7
 70
     1
102
RTVSPropertyOp8
 70
     1
102
RTVSPropertyOp9
 70
     1
102
RTVSPropertyOp10
 70
     1
102
RTVSPropertyOp11
 70
     1
102
RTVSPropertyOp12
 70
     1
102
RTVSPropertyOp13
 70
     1
102
RTVSPropertyOp14
 70
     1
102
RTVSPropertyOp15
 70
     1
102
RTVSPropertyOp16
 70
     1
102
RTVSPropertyOp17
 70
     1
102
RTVSPropertyOp18
 70
     1
102
RTVSPropertyOp19
 70
     1
102
RTVSPropertyOp20
 70
     1
102
RTVSPropertyOp21
 70
     1
102
RTVSPropertyOp22
 70
     1
102
RTVSPropertyOp23
 70
     1
102
RTVSPropertyOp24
 70
     1
102
RTVSPropertyOp25
 70
     1
102
RTVSPropertyOp26
 70
     1
102
RTVSPropertyOp27
 70
     1
102
RTVSPropertyOp28
 70
     1
102
RTVSPropertyOp29
 70
     1
102
RTVSPropertyOp30
 70
     1
102
RTVSPropertyOp31
 70
     1
102
RTVSPropertyOp32
 70
     1
102
RTVSPropertyOp33
 70
     1
102
RTVSPropertyOp34
 70
     1
102
RTVSPropertyOp35
 70
     1
102
RTVSPropertyOp36
 70
     1
102
RTVSPropertyOp37
 70
     1
102
RTVSPropertyOp38
 70
     1
102
RTVSPropertyOp39
 70
     1
102
RTVSPropertyOp40
 70
     1
102
RTVSPropertyOp41
 70
     1
102
RTVSPropertyOp42
 70
     1
102
RTVSPropertyOp43
 70
     1
102
RTVSPropertyOp44
 70
     1
102
RTVSPropertyOp45
 70
     1
102
RTVSPropertyOp46
 70
     1
102
RTVSPropertyOp47
 70
     1
102
RTVSPropertyOp48
 70
     1
102
RTVSPropertyOp49
 70
     1
102
RTVSPropertyOp50
 70
     1
102
RTVSPropertyOp51
 70
     0
102
RTVSPropertyOp52
 70
     0
102
RTVSPropertyOp53
 70
     1
102
RTVSPropertyOp54
 70
     1
102
RTVSPropertyOp55
 70
     1
102
RTVSPropertyOp56
 70
     1
102
RTVSPropertyOp57
 70
     1
102
RTVSPropertyOp58
 70
     1
102
RTVSPropertyOp59
 70
     1
102
RTVSPropertyOp60
 70
     1
102
RTVSPropertyOp61
 70
     1
102
RTVSPropertyOp62
 70
     1
  0
XRECORD
  5
699E
102
{ACAD_REACTORS
330
699D
102
}
330
699D
100
AcDbXrecord
280
     1
102
RTVSPost2010Prop28
280
     0
102
RTVSPost2010PropOp28
 70
     1
102
RTVSPost2010Prop29
280
     1
102
RTVSPost2010PropOp29
 70
     1
102
RTVSPost2010Prop30
280
     1
102
RTVSPost2010PropOp30
 70
     1
102
RTVSPost2010Prop31
280
     0
102
RTVSPost2010PropOp31
 70
     1
102
RTVSPost2010Prop32
280
     0
102
RTVSPost2010PropOp32
 70
     1
102
RTVSPost2010Prop33
280
     0
102
RTVSPost2010PropOp33
 70
     1
102
RTVSPost2010Prop34
280
     0
102
RTVSPost2010PropOp34
 70
     1
102
RTVSPost2010Prop35
280
     0
102
RTVSPost2010PropOp35
 70
     1
102
RTVSPost2010Prop36
280
     0
102
RTVSPost2010PropOp36
 70
     1
102
RTVSPost2010Prop37
 90
       50
102
RTVSPost2010PropOp37
 70
     1
102
RTVSPost2010Prop38
140
0.0
102
RTVSPost2010PropOp38
 70
     1
102
RTVSPost2010Prop39
140
1.0
102
RTVSPost2010PropOp39
 70
     1
102
RTVSPost2010Prop40
 90
        0
102
RTVSPost2010PropOp40
 70
     1
102
RTVSPost2010Prop41ColorIndex
 90
       18
102
RTVSPost2010Prop41ColorRGB
 90
        0
102
RTVSPost2010PropOp41
 70
     1
102
RTVSPost2010Prop42
 90
       50
102
RTVSPost2010PropOp42
 70
     1
102
RTVSPost2010Prop43
 90
        3
102
RTVSPost2010PropOp43
 70
     1
102
RTVSPost2010Prop44ColorIndex
 90
        5
102
RTVSPost2010Prop44ColorRGB
 90
      255
102
RTVSPost2010PropOp44
 70
     1
102
RTVSPost2010Prop45
280
     0
102
RTVSPost2010PropOp45
 70
     1
102
RTVSPost2010Prop46
 90
       50
102
RTVSPost2010PropOp46
 70
     1
102
RTVSPost2010Prop47
 90
       50
102
RTVSPost2010PropOp47
 70
     1
102
RTVSPost2010Prop48
 90
       50
102
RTVSPost2010PropOp48
 70
     1
102
RTVSPost2010Prop49
280
     0
102
RTVSPost2010PropOp49
 70
     1
102
RTVSPost2010Prop50
 90
       50
102
RTVSPost2010PropOp50
 70
     1
102
RTVSPost2010Prop51ColorIndex
 90
      256
102
RTVSPost2010Prop51ColorRGB
 90
-16777216
102
RTVSPost2010PropOp51
 70
     0
102
RTVSPost2010Prop52
140
1.0
102
RTVSPost2010PropOp52
 70
     0
102
RTVSPost2010Prop53
 90
        2
102
RTVSPost2010PropOp53
 70
     1
102
RTVSPost2010Prop54
  1
strokes_ogs.tif
102
RTVSPost2010PropOp54
 70
     1
102
RTVSPost2010Prop55
280
     0
102
RTVSPost2010PropOp55
 70
     1
102
RTVSPost2010Prop56
140
1.0
102
RTVSPost2010PropOp56
 70
     1
102
RTVSPost2010Prop57
140
1.0
102
RTVSPost2010PropOp57
 70
     1
102
RTVSPropertyOp0
 70
     1
102
RTVSPropertyOp1
 70
     1
102
RTVSPropertyOp2
 70
     1
102
RTVSPropertyOp3
 70
     1
102
RTVSPropertyOp4
 70
     1
102
RTVSPropertyOp5
 70
     1
102
RTVSPropertyOp6
 70
     1
102
RTVSPropertyOp7
 70
     1
102
RTVSPropertyOp8
 70
     1
102
RTVSPropertyOp9
 70
     1
102
RTVSPropertyOp10
 70
     1
102
RTVSPropertyOp11
 70
     1
102
RTVSPropertyOp12
 70
     1
102
RTVSPropertyOp13
 70
     1
102
RTVSPropertyOp14
 70
     1
102
RTVSPropertyOp15
 70
     1
102
RTVSPropertyOp16
 70
     1
102
RTVSPropertyOp17
 70
     1
102
RTVSPropertyOp18
 70
     1
102
RTVSPropertyOp19
 70
     1
102
RTVSPropertyOp20
 70
     1
102
RTVSPropertyOp21
 70
     1
102
RTVSPropertyOp22
 70
     1
102
RTVSPropertyOp23
 70
     1
102
RTVSPropertyOp24
 70
     1
102
RTVSPropertyOp25
 70
     1
102
RTVSPropertyOp26
 70
     1
102
RTVSPropertyOp27
 70
     1
102
RTVSPropertyOp28
 70
     1
102
RTVSPropertyOp29
 70
     1
102
RTVSPropertyOp30
 70
     1
102
RTVSPropertyOp31
 70
     1
102
RTVSPropertyOp32
 70
     1
102
RTVSPropertyOp33
 70
     1
102
RTVSPropertyOp34
 70
     1
102
RTVSPropertyOp35
 70
     1
102
RTVSPropertyOp36
 70
     1
102
RTVSPropertyOp37
 70
     1
102
RTVSPropertyOp38
 70
     1
102
RTVSPropertyOp39
 70
     1
102
RTVSPropertyOp40
 70
     1
102
RTVSPropertyOp41
 70
     1
102
RTVSPropertyOp42
 70
     1
102
RTVSPropertyOp43
 70
     1
102
RTVSPropertyOp44
 70
     1
102
RTVSPropertyOp45
 70
     1
102
RTVSPropertyOp46
 70
     1
102
RTVSPropertyOp47
 70
     1
102
RTVSPropertyOp48
 70
     1
102
RTVSPropertyOp49
 70
     1
102
RTVSPropertyOp50
 70
     1
102
RTVSPropertyOp51
 70
     0
102
RTVSPropertyOp52
 70
     0
102
RTVSPropertyOp53
 70
     1
102
RTVSPropertyOp54
 70
     1
102
RTVSPropertyOp55
 70
     1
102
RTVSPropertyOp56
 70
     1
102
RTVSPropertyOp57
 70
     1
102
RTVSPropertyOp58
 70
     1
102
RTVSPropertyOp59
 70
     1
102
RTVSPropertyOp60
 70
     1
102
RTVSPropertyOp61
 70
     1
102
RTVSPropertyOp62
 70
     1
  0
XRECORD
  5
6992
102
{ACAD_REACTORS
330
6991
102
}
330
6991
100
AcDbXrecord
280
     1
102
RTVSPost2010Prop28
280
     0
102
RTVSPost2010PropOp28
 70
     1
102
RTVSPost2010Prop29
280
     1
102
RTVSPost2010PropOp29
 70
     1
102
RTVSPost2010Prop30
280
     1
102
RTVSPost2010PropOp30
 70
     1
102
RTVSPost2010Prop31
280
     0
102
RTVSPost2010PropOp31
 70
     1
102
RTVSPost2010Prop32
280
     0
102
RTVSPost2010PropOp32
 70
     1
102
RTVSPost2010Prop33
280
     0
102
RTVSPost2010PropOp33
 70
     1
102
RTVSPost2010Prop34
280
     0
102
RTVSPost2010PropOp34
 70
     1
102
RTVSPost2010Prop35
280
     0
102
RTVSPost2010PropOp35
 70
     1
102
RTVSPost2010Prop36
280
     0
102
RTVSPost2010PropOp36
 70
     1
102
RTVSPost2010Prop37
 90
       50
102
RTVSPost2010PropOp37
 70
     1
102
RTVSPost2010Prop38
140
0.0
102
RTVSPost2010PropOp38
 70
     1
102
RTVSPost2010Prop39
140
1.0
102
RTVSPost2010PropOp39
 70
     1
102
RTVSPost2010Prop40
 90
        0
102
RTVSPost2010PropOp40
 70
     1
102
RTVSPost2010Prop41ColorIndex
 90
       18
102
RTVSPost2010Prop41ColorRGB
 90
        0
102
RTVSPost2010PropOp41
 70
     1
102
RTVSPost2010Prop42
 90
       50
102
RTVSPost2010PropOp42
 70
     1
102
RTVSPost2010Prop43
 90
        3
102
RTVSPost2010PropOp43
 70
     1
102
RTVSPost2010Prop44ColorIndex
 90
        5
102
RTVSPost2010Prop44ColorRGB
 90
      255
102
RTVSPost2010PropOp44
 70
     1
102
RTVSPost2010Prop45
280
     0
102
RTVSPost2010PropOp45
 70
     1
102
RTVSPost2010Prop46
 90
       50
102
RTVSPost2010PropOp46
 70
     1
102
RTVSPost2010Prop47
 90
       50
102
RTVSPost2010PropOp47
 70
     1
102
RTVSPost2010Prop48
 90
       50
102
RTVSPost2010PropOp48
 70
     1
102
RTVSPost2010Prop49
280
     0
102
RTVSPost2010PropOp49
 70
     1
102
RTVSPost2010Prop50
 90
       50
102
RTVSPost2010PropOp50
 70
     1
102
RTVSPost2010Prop51ColorIndex
 90
      256
102
RTVSPost2010Prop51ColorRGB
 90
-16777216
102
RTVSPost2010PropOp51
 70
     0
102
RTVSPost2010Prop52
140
1.0
102
RTVSPost2010PropOp52
 70
     0
102
RTVSPost2010Prop53
 90
        2
102
RTVSPost2010PropOp53
 70
     1
102
RTVSPost2010Prop54
  1
strokes_ogs.tif
102
RTVSPost2010PropOp54
 70
     1
102
RTVSPost2010Prop55
280
     0
102
RTVSPost2010PropOp55
 70
     1
102
RTVSPost2010Prop56
140
1.0
102
RTVSPost2010PropOp56
 70
     1
102
RTVSPost2010Prop57
140
1.0
102
RTVSPost2010PropOp57
 70
     1
102
RTVSPropertyOp0
 70
     1
102
RTVSPropertyOp1
 70
     1
102
RTVSPropertyOp2
 70
     1
102
RTVSPropertyOp3
 70
     1
102
RTVSPropertyOp4
 70
     1
102
RTVSPropertyOp5
 70
     1
102
RTVSPropertyOp6
 70
     1
102
RTVSPropertyOp7
 70
     1
102
RTVSPropertyOp8
 70
     1
102
RTVSPropertyOp9
 70
     1
102
RTVSPropertyOp10
 70
     1
102
RTVSPropertyOp11
 70
     1
102
RTVSPropertyOp12
 70
     1
102
RTVSPropertyOp13
 70
     1
102
RTVSPropertyOp14
 70
     1
102
RTVSPropertyOp15
 70
     1
102
RTVSPropertyOp16
 70
     1
102
RTVSPropertyOp17
 70
     1
102
RTVSPropertyOp18
 70
     1
102
RTVSPropertyOp19
 70
     1
102
RTVSPropertyOp20
 70
     1
102
RTVSPropertyOp21
 70
     1
102
RTVSPropertyOp22
 70
     1
102
RTVSPropertyOp23
 70
     1
102
RTVSPropertyOp24
 70
     1
102
RTVSPropertyOp25
 70
     1
102
RTVSPropertyOp26
 70
     1
102
RTVSPropertyOp27
 70
     1
102
RTVSPropertyOp28
 70
     1
102
RTVSPropertyOp29
 70
     1
102
RTVSPropertyOp30
 70
     1
102
RTVSPropertyOp31
 70
     1
102
RTVSPropertyOp32
 70
     1
102
RTVSPropertyOp33
 70
     1
102
RTVSPropertyOp34
 70
     1
102
RTVSPropertyOp35
 70
     1
102
RTVSPropertyOp36
 70
     1
102
RTVSPropertyOp37
 70
     1
102
RTVSPropertyOp38
 70
     1
102
RTVSPropertyOp39
 70
     1
102
RTVSPropertyOp40
 70
     1
102
RTVSPropertyOp41
 70
     1
102
RTVSPropertyOp42
 70
     1
102
RTVSPropertyOp43
 70
     1
102
RTVSPropertyOp44
 70
     1
102
RTVSPropertyOp45
 70
     1
102
RTVSPropertyOp46
 70
     1
102
RTVSPropertyOp47
 70
     1
102
RTVSPropertyOp48
 70
     1
102
RTVSPropertyOp49
 70
     1
102
RTVSPropertyOp50
 70
     1
102
RTVSPropertyOp51
 70
     0
102
RTVSPropertyOp52
 70
     0
102
RTVSPropertyOp53
 70
     1
102
RTVSPropertyOp54
 70
     1
102
RTVSPropertyOp55
 70
     1
102
RTVSPropertyOp56
 70
     1
102
RTVSPropertyOp57
 70
     1
102
RTVSPropertyOp58
 70
     1
102
RTVSPropertyOp59
 70
     1
102
RTVSPropertyOp60
 70
     1
102
RTVSPropertyOp61
 70
     1
102
RTVSPropertyOp62
 70
     1
  0
XRECORD
  5
69AA
102
{ACAD_REACTORS
330
69A9
102
}
330
69A9
100
AcDbXrecord
280
     1
102
RTVSPost2010Prop28
280
     0
102
RTVSPost2010PropOp28
 70
     1
102
RTVSPost2010Prop29
280
     1
102
RTVSPost2010PropOp29
 70
     1
102
RTVSPost2010Prop30
280
     1
102
RTVSPost2010PropOp30
 70
     1
102
RTVSPost2010Prop31
280
     0
102
RTVSPost2010PropOp31
 70
     1
102
RTVSPost2010Prop32
280
     0
102
RTVSPost2010PropOp32
 70
     1
102
RTVSPost2010Prop33
280
     0
102
RTVSPost2010PropOp33
 70
     1
102
RTVSPost2010Prop34
280
     0
102
RTVSPost2010PropOp34
 70
     1
102
RTVSPost2010Prop35
280
     0
102
RTVSPost2010PropOp35
 70
     1
102
RTVSPost2010Prop36
280
     0
102
RTVSPost2010PropOp36
 70
     1
102
RTVSPost2010Prop37
 90
       50
102
RTVSPost2010PropOp37
 70
     1
102
RTVSPost2010Prop38
140
0.0
102
RTVSPost2010PropOp38
 70
     1
102
RTVSPost2010Prop39
140
1.0
102
RTVSPost2010PropOp39
 70
     1
102
RTVSPost2010Prop40
 90
        0
102
RTVSPost2010PropOp40
 70
     1
102
RTVSPost2010Prop41ColorIndex
 90
       18
102
RTVSPost2010Prop41ColorRGB
 90
        0
102
RTVSPost2010PropOp41
 70
     1
102
RTVSPost2010Prop42
 90
       50
102
RTVSPost2010PropOp42
 70
     1
102
RTVSPost2010Prop43
 90
        3
102
RTVSPost2010PropOp43
 70
     1
102
RTVSPost2010Prop44ColorIndex
 90
        5
102
RTVSPost2010Prop44ColorRGB
 90
      255
102
RTVSPost2010PropOp44
 70
     1
102
RTVSPost2010Prop45
280
     0
102
RTVSPost2010PropOp45
 70
     1
102
RTVSPost2010Prop46
 90
       50
102
RTVSPost2010PropOp46
 70
     1
102
RTVSPost2010Prop47
 90
       50
102
RTVSPost2010PropOp47
 70
     1
102
RTVSPost2010Prop48
 90
       50
102
RTVSPost2010PropOp48
 70
     1
102
RTVSPost2010Prop49
280
     0
102
RTVSPost2010PropOp49
 70
     1
102
RTVSPost2010Prop50
 90
       50
102
RTVSPost2010PropOp50
 70
     1
102
RTVSPost2010Prop51ColorIndex
 90
      256
102
RTVSPost2010Prop51ColorRGB
 90
-16777216
102
RTVSPost2010PropOp51
 70
     0
102
RTVSPost2010Prop52
140
1.0
102
RTVSPost2010PropOp52
 70
     0
102
RTVSPost2010Prop53
 90
        2
102
RTVSPost2010PropOp53
 70
     1
102
RTVSPost2010Prop54
  1
strokes_ogs.tif
102
RTVSPost2010PropOp54
 70
     1
102
RTVSPost2010Prop55
280
     0
102
RTVSPost2010PropOp55
 70
     1
102
RTVSPost2010Prop56
140
1.0
102
RTVSPost2010PropOp56
 70
     1
102
RTVSPost2010Prop57
140
1.0
102
RTVSPost2010PropOp57
 70
     1
102
RTVSPropertyOp0
 70
     1
102
RTVSPropertyOp1
 70
     1
102
RTVSPropertyOp2
 70
     1
102
RTVSPropertyOp3
 70
     1
102
RTVSPropertyOp4
 70
     1
102
RTVSPropertyOp5
 70
     1
102
RTVSPropertyOp6
 70
     1
102
RTVSPropertyOp7
 70
     1
102
RTVSPropertyOp8
 70
     1
102
RTVSPropertyOp9
 70
     1
102
RTVSPropertyOp10
 70
     1
102
RTVSPropertyOp11
 70
     1
102
RTVSPropertyOp12
 70
     1
102
RTVSPropertyOp13
 70
     1
102
RTVSPropertyOp14
 70
     1
102
RTVSPropertyOp15
 70
     1
102
RTVSPropertyOp16
 70
     1
102
RTVSPropertyOp17
 70
     1
102
RTVSPropertyOp18
 70
     1
102
RTVSPropertyOp19
 70
     1
102
RTVSPropertyOp20
 70
     1
102
RTVSPropertyOp21
 70
     1
102
RTVSPropertyOp22
 70
     1
102
RTVSPropertyOp23
 70
     1
102
RTVSPropertyOp24
 70
     1
102
RTVSPropertyOp25
 70
     1
102
RTVSPropertyOp26
 70
     1
102
RTVSPropertyOp27
 70
     1
102
RTVSPropertyOp28
 70
     1
102
RTVSPropertyOp29
 70
     1
102
RTVSPropertyOp30
 70
     1
102
RTVSPropertyOp31
 70
     1
102
RTVSPropertyOp32
 70
     1
102
RTVSPropertyOp33
 70
     1
102
RTVSPropertyOp34
 70
     1
102
RTVSPropertyOp35
 70
     1
102
RTVSPropertyOp36
 70
     1
102
RTVSPropertyOp37
 70
     1
102
RTVSPropertyOp38
 70
     1
102
RTVSPropertyOp39
 70
     1
102
RTVSPropertyOp40
 70
     1
102
RTVSPropertyOp41
 70
     1
102
RTVSPropertyOp42
 70
     1
102
RTVSPropertyOp43
 70
     1
102
RTVSPropertyOp44
 70
     1
102
RTVSPropertyOp45
 70
     1
102
RTVSPropertyOp46
 70
     1
102
RTVSPropertyOp47
 70
     1
102
RTVSPropertyOp48
 70
     1
102
RTVSPropertyOp49
 70
     1
102
RTVSPropertyOp50
 70
     1
102
RTVSPropertyOp51
 70
     0
102
RTVSPropertyOp52
 70
     0
102
RTVSPropertyOp53
 70
     1
102
RTVSPropertyOp54
 70
     1
102
RTVSPropertyOp55
 70
     1
102
RTVSPropertyOp56
 70
     1
102
RTVSPropertyOp57
 70
     1
102
RTVSPropertyOp58
 70
     1
102
RTVSPropertyOp59
 70
     1
102
RTVSPropertyOp60
 70
     1
102
RTVSPropertyOp61
 70
     1
102
RTVSPropertyOp62
 70
     1
  0
ENDSEC
  0
EOF
