  0
SECTION
  2
HEADER
  9
$ACADVER
  1
AC1015
  9
$ACADMAINTVER
 70
    20
  9
$DWGCODEPAGE
  3
ANSI_932
  9
$INSBASE
 10
0.0
 20
0.0
 30
0.0
  9
$EXTMIN
 10
0.0
 20
0.0
 30
0.0
  9
$EXTMAX
 10
16819.99993279995
 20
11879.99995240002
 30
0.0
  9
$LIMMIN
 10
0.0
 20
0.0
  9
$LIMMAX
 10
420.0
 20
297.0
  9
$ORTHOMODE
 70
     0
  9
$REGENMODE
 70
     1
  9
$FILLMODE
 70
     1
  9
$QTEXTMODE
 70
     0
  9
$MIRRTEXT
 70
     0
  9
$LTSCALE
 40
20.0
  9
$ATTMODE
 70
     1
  9
$TEXTSIZE
 40
2.5
  9
$TRACEWID
 40
1.0
  9
$TEXTSTYLE
  7
STANDARD
  9
$CLAYER
  8
0
  9
$CELTYPE
  6
BYLAYER
  9
$CECOLOR
 62
   256
  9
$CELTSCALE
 40
1.0
  9
$DISPSILH
 70
     0
  9
$DIMSCALE
 40
1.0
  9
$DIMASZ
 40
20.0
  9
$DIMEXO
 40
20.0
  9
$DIMDLI
 40
0.0
  9
$DIMRND
 40
0.0
  9
$DIMDLE
 40
0.0
  9
$DIMEXE
 40
20.0
  9
$DIMTP
 40
0.0
  9
$DIMTM
 40
0.0
  9
$DIMTXT
 40
70.0
  9
$DIMCEN
 40
20.0
  9
$DIMTSZ
 40
0.0
  9
$DIMTOL
 70
     0
  9
$DIMLIM
 70
     0
  9
$DIMTIH
 70
     0
  9
$DIMTOH
 70
     0
  9
$DIMSE1
 70
     0
  9
$DIMSE2
 70
     0
  9
$DIMTAD
 70
     1
  9
$DIMZIN
 70
     8
  9
$DIMBLK
  1
OPEN
  9
$DIMASO
 70
     1
  9
$DIMSHO
 70
     1
  9
$DIMPOST
  1

  9
$DIMAPOST
  1

  9
$DIMALT
 70
     0
  9
$DIMALTD
 70
     3
  9
$DIMALTF
 40
0.03937007874016
  9
$DIMLFAC
 40
1.0
  9
$DIMTOFL
 70
     1
  9
$DIMTVP
 40
0.0
  9
$DIMTIX
 70
     1
  9
$DIMSOXD
 70
     0
  9
$DIMSAH
 70
     0
  9
$DIMBLK1
  1

  9
$DIMBLK2
  1

  9
$DIMSTYLE
  2
20
  9
$DIMCLRD
 70
   256
  9
$DIMCLRE
 70
   256
  9
$DIMCLRT
 70
   256
  9
$DIMTFAC
 40
1.0
  9
$DIMGAP
 40
20.0
  9
$DIMJUST
 70
     0
  9
$DIMSD1
 70
     0
  9
$DIMSD2
 70
     0
  9
$DIMTOLJ
 70
     1
  9
$DIMTZIN
 70
     8
  9
$DIMALTZ
 70
     0
  9
$DIMALTTZ
 70
     0
  9
$DIMUPT
 70
     0
  9
$DIMDEC
 70
     0
  9
$DIMTDEC
 70
     0
  9
$DIMALTU
 70
     2
  9
$DIMALTTD
 70
     3
  9
$DIMTXSTY
  7
STANDARD
  9
$DIMAUNIT
 70
     1
  9
$DIMADEC
 70
     4
  9
$DIMALTRND
 40
0.0
  9
$DIMAZIN
 70
     0
  9
$DIMDSEP
 70
    46
  9
$DIMATFIT
 70
     3
  9
$DIMFRAC
 70
     0
  9
$DIMLDRBLK
  1
OPEN
  9
$DIMLUNIT
 70
     2
  9
$DIMLWD
 70
    -2
  9
$DIMLWE
 70
    -2
  9
$DIMTMOVE
 70
     1
  9
$LUNITS
 70
     2
  9
$LUPREC
 70
     4
  9
$SKETCHINC
 40
1.0
  9
$FILLETRAD
 40
10.0
  9
$AUNITS
 70
     0
  9
$AUPREC
 70
     0
  9
$MENU
  1
.
  9
$ELEVATION
 40
0.0
  9
$PELEVATION
 40
0.0
  9
$THICKNESS
 40
0.0
  9
$LIMCHECK
 70
     0
  9
$CHAMFERA
 40
150.0
  9
$CHAMFERB
 40
150.0
  9
$CHAMFERC
 40
20.0
  9
$CHAMFERD
 40
0.0
  9
$SKPOLY
 70
     0
  9
$TDCREATE
 40
2452404.412662234
  9
$TDUCREATE
 40
2452404.037662234
  9
$TDUPDATE
 40
2454744.610144306
  9
$TDUUPDATE
 40
2454744.235144306
  9
$TDINDWG
 40
1.6055137269
  9
$TDUSRTIMER
 40
1.6055130324
  9
$USRTIMER
 70
     1
  9
$ANGBASE
 50
0.0
  9
$ANGDIR
 70
     0
  9
$PDMODE
 70
     0
  9
$PDSIZE
 40
0.0
  9
$PLINEWID
 40
0.0
  9
$SPLFRAME
 70
     0
  9
$SPLINETYPE
 70
     6
  9
$SPLINESEGS
 70
     8
  9
$HANDSEED
  5
25634
  9
$SURFTAB1
 70
     6
  9
$SURFTAB2
 70
     6
  9
$SURFTYPE
 70
     6
  9
$SURFU
 70
     6
  9
$SURFV
 70
     6
  9
$UCSBASE
  2

  9
$UCSNAME
  2

  9
$UCSORG
 10
0.0
 20
0.0
 30
0.0
  9
$UCSXDIR
 10
1.0
 20
0.0
 30
0.0
  9
$UCSYDIR
 10
0.0
 20
1.0
 30
0.0
  9
$UCSORTHOREF
  2

  9
$UCSORTHOVIEW
 70
     0
  9
$UCSORGTOP
 10
0.0
 20
0.0
 30
0.0
  9
$UCSORGBOTTOM
 10
0.0
 20
0.0
 30
0.0
  9
$UCSORGLEFT
 10
0.0
 20
0.0
 30
0.0
  9
$UCSORGRIGHT
 10
0.0
 20
0.0
 30
0.0
  9
$UCSORGFRONT
 10
0.0
 20
0.0
 30
0.0
  9
$UCSORGBACK
 10
0.0
 20
0.0
 30
0.0
  9
$PUCSBASE
  2

  9
$PUCSNAME
  2

  9
$PUCSORG
 10
0.0
 20
0.0
 30
0.0
  9
$PUCSXDIR
 10
1.0
 20
0.0
 30
0.0
  9
$PUCSYDIR
 10
0.0
 20
1.0
 30
0.0
  9
$PUCSORTHOREF
  2

  9
$PUCSORTHOVIEW
 70
     0
  9
$PUCSORGTOP
 10
0.0
 20
0.0
 30
0.0
  9
$PUCSORGBOTTOM
 10
0.0
 20
0.0
 30
0.0
  9
$PUCSORGLEFT
 10
0.0
 20
0.0
 30
0.0
  9
$PUCSORGRIGHT
 10
0.0
 20
0.0
 30
0.0
  9
$PUCSORGFRONT
 10
0.0
 20
0.0
 30
0.0
  9
$PUCSORGBACK
 10
0.0
 20
0.0
 30
0.0
  9
$USERI1
 70
     0
  9
$USERI2
 70
     0
  9
$USERI3
 70
     0
  9
$USERI4
 70
     0
  9
$USERI5
 70
     0
  9
$USERR1
 40
0.0
  9
$USERR2
 40
0.0
  9
$USERR3
 40
0.0
  9
$USERR4
 40
0.0
  9
$USERR5
 40
0.0
  9
$WORLDVIEW
 70
     1
  9
$SHADEDGE
 70
     3
  9
$SHADEDIF
 70
    70
  9
$TILEMODE
 70
     1
  9
$MAXACTVP
 70
    48
  9
$PINSBASE
 10
0.0
 20
0.0
 30
0.0
  9
$PLIMCHECK
 70
     0
  9
$PEXTMIN
 10
-7.18438714725903
 20
-19.73882792270024
 30
-0.0015258207003583
  9
$PEXTMAX
 10
833.8481947040165
 20
574.2966304217307
 30
0.0000000349246037
  9
$PLIMMIN
 10
-7.184387147259029
 20
-19.73882792270024
  9
$PLIMMAX
 10
-7.184387147259029
 20
-19.73882792270024
  9
$UNITMODE
 70
     0
  9
$VISRETAIN
 70
     1
  9
$PLINEGEN
 70
     0
  9
$PSLTSCALE
 70
     1
  9
$TREEDEPTH
 70
  3020
  9
$CMLSTYLE
  2
STANDARD
  9
$CMLJUST
 70
     0
  9
$CMLSCALE
 40
20.0
  9
$PROXYGRAPHICS
 70
     1
  9
$MEASUREMENT
 70
     0
  9
$CELWEIGHT
370
    -1
  9
$ENDCAPS
280
     0
  9
$JOINSTYLE
280
     0
  9
$LWDISPLAY
290
     0
  9
$INSUNITS
 70
     0
  9
$HYPERLINKBASE
  1

  9
$STYLESHEET
  1
canon国土交通省.ctb
  9
$XEDIT
290
     1
  9
$CEPSNTYPE
380
     0
  9
$PSTYLEMODE
290
     1
  9
$FINGERPRINTGUID
  2
{2179596F-6415-11D6-8A52-000255ECC0C6}
  9
$VERSIONGUID
  2
{F6F25F97-8F25-11D6-9BFF-000629A6C5B5}
  9
$EXTNAMES
290
     1
  9
$PSVPSCALE
 40
0.0
  9
$OLESTARTUP
290
     0
  0
ENDSEC
  0
SECTION
  2
CLASSES
  0
CLASS
  1
ACDBDICTIONARYWDFLT
  2
AcDbDictionaryWithDefault
  3
ObjectDBX Classes
 90
        0
280
     0
281
     0
  0
CLASS
  1
ACDBPLACEHOLDER
  2
AcDbPlaceHolder
  3
ObjectDBX Classes
 90
        0
280
     0
281
     0
  0
CLASS
  1
LAYOUT
  2
AcDbLayout
  3
ObjectDBX Classes
 90
        0
280
     0
281
     0
  0
CLASS
  1
DICTIONARYVAR
  2
AcDbDictionaryVar
  3
ObjectDBX Classes
 90
        0
280
     0
281
     0
  0
CLASS
  1
PLOTSETTINGS
  2
AcDbPlotSettings
  3
ObjectDBX Classes
 90
    32768
280
     0
281
     0
  0
CLASS
  1
TABLESTYLE
  2
AcDbTableStyle
  3
ObjectDBX Classes
 90
     2047
280
     0
281
     0
  0
ENDSEC
  0
SECTION
  2
TABLES
  0
TABLE
  2
VPORT
  5
8
330
0
100
AcDbSymbolTable
 70
     2
  0
VPORT
  5
2562C
330
8
100
AcDbSymbolTableRecord
100
AcDbViewportTableRecord
  2
*Active
 70
     0
 10
0.0
 20
0.0
 11
1.0
 21
1.0
 12
8409.358657443961
 22
6008.981095789622
 13
0.0
 23
0.0
 14
10.0
 24
10.0
 15
10.0
 25
10.0
 16
0.0
 26
0.0
 36
1.0
 17
0.0
 27
0.0
 37
0.0
 40
12138.12478010751
 41
1.786538461538461
 42
50.0
 43
0.0
 44
0.0
 50
0.0
 51
0.0
 71
     0
 72
   100
 73
     1
 74
     3
 75
     0
 76
     0
 77
     0
 78
     0
281
     0
 65
     1
110
0.0
120
0.0
130
0.0
111
1.0
121
0.0
131
0.0
112
0.0
122
1.0
132
0.0
 79
     0
146
0.0
  0
ENDTAB
  0
TABLE
  2
LTYPE
  5
5
330
0
100
AcDbSymbolTable
 70
     4
  0
LTYPE
  5
14
330
5
100
AcDbSymbolTableRecord
100
AcDbLinetypeTableRecord
  2
BYBLOCK
 70
     0
  3

 72
    65
 73
     0
 40
0.0
  0
LTYPE
  5
15
330
5
100
AcDbSymbolTableRecord
100
AcDbLinetypeTableRecord
  2
BYLAYER
 70
     0
  3

 72
    65
 73
     0
 40
0.0
  0
LTYPE
  5
16
330
5
100
AcDbSymbolTableRecord
100
AcDbLinetypeTableRecord
  2
CONTINUOUS
 70
     0
  3
Solid line
 72
    65
 73
     0
 40
0.0
  0
LTYPE
  5
86
330
5
100
AcDbSymbolTableRecord
100
AcDbLinetypeTableRecord
  2
CENTER
 70
     0
  3
____ _ ____ _ ____ _ ____ _ ____ _ ____ _ ____
 72
    65
 73
     4
 40
17.5
 49
13.0
 74
     0
 49
-1.5
 74
     0
 49
1.5
 74
     0
 49
-1.5
 74
     0
  0
LTYPE
  5
1CC8E
330
5
100
AcDbSymbolTableRecord
100
AcDbLinetypeTableRecord
  2
CENTER2
 70
     0
  3
----------  --  ----------  --  
 72
    65
 73
     4
 40
20.0
 49
12.5
 74
     0
 49
-2.5
 74
     0
 49
2.5
 74
     0
 49
-2.5
 74
     0
  0
LTYPE
  5
23AF1
330
5
100
AcDbSymbolTableRecord
100
AcDbLinetypeTableRecord
  2
DASHED1
 70
     0
  3
--  --  --  --  --  --  --  --  
 72
    65
 73
     2
 40
2.5
 49
1.25
 74
     0
 49
-1.25
 74
     0
  0
ENDTAB
  0
TABLE
  2
LAYER
  5
2
330
0
100
AcDbSymbolTable
 70
    16
  0
LAYER
  5
10
330
2
100
AcDbSymbolTableRecord
100
AcDbLayerTableRecord
  2
0
 70
     0
 62
     7
  6
CONTINUOUS
370
    13
390
7E81
  0
LAYER
  5
AC
330
2
100
AcDbSymbolTableRecord
100
AcDbLayerTableRecord
  2
D-STR-DIM
 70
     0
 62
     7
  6
CONTINUOUS
370
    13
390
7E81
  0
LAYER
  5
D6
330
2
100
AcDbSymbolTableRecord
100
AcDbLayerTableRecord
  2
D-TTL-TXT
 70
     0
 62
     7
  6
CONTINUOUS
370
    13
390
7E81
  0
LAYER
  5
3CD
330
2
100
AcDbSymbolTableRecord
100
AcDbLayerTableRecord
  2
DEFPOINTS
 70
     0
 62
     7
  6
CONTINUOUS
290
     0
370
    13
390
7E81
  0
LAYER
  5
3CE
330
2
100
AcDbSymbolTableRecord
100
AcDbLayerTableRecord
  2
D-TTL-LINE
 70
     0
 62
     7
  6
CONTINUOUS
370
    13
390
7E81
  0
LAYER
  5
1408F
330
2
100
AcDbSymbolTableRecord
100
AcDbLayerTableRecord
  2
D-STR
 70
     0
 62
     1
  6
CONTINUOUS
370
    18
390
7E81
  0
LAYER
  5
1620E
330
2
100
AcDbSymbolTableRecord
100
AcDbLayerTableRecord
  2
D-TTL
 70
     0
 62
     2
  6
CONTINUOUS
370
    13
390
7E81
  0
LAYER
  5
1620F
330
2
100
AcDbSymbolTableRecord
100
AcDbLayerTableRecord
  2
D-TTL-FRAM
 70
     0
 62
     2
  6
CONTINUOUS
290
     0
370
    13
390
7E81
  0
LAYER
  5
16212
330
2
100
AcDbSymbolTableRecord
100
AcDbLayerTableRecord
  2
D-BMK
 70
     0
 62
     2
  6
CENTER
370
    13
390
7E81
  0
LAYER
  5
16213
330
2
100
AcDbSymbolTableRecord
100
AcDbLayerTableRecord
  2
D-STR-HTXT
 70
     0
 62
     7
  6
CONTINUOUS
370
    13
390
7E81
  0
LAYER
  5
16216
330
2
100
AcDbSymbolTableRecord
100
AcDbLayerTableRecord
  2
D-MTR-FRAM
 70
     0
 62
     7
  6
CONTINUOUS
370
    13
390
7E81
  0
LAYER
  5
16217
330
2
100
AcDbSymbolTableRecord
100
AcDbLayerTableRecord
  2
D-MTR
 70
     0
 62
     6
  6
CONTINUOUS
370
    13
390
7E81
  0
LAYER
  5
16218
330
2
100
AcDbSymbolTableRecord
100
AcDbLayerTableRecord
  2
D-MTR-TXT
 70
     0
 62
     7
  6
CONTINUOUS
370
    13
390
7E81
  0
LAYER
  5
16219
330
2
100
AcDbSymbolTableRecord
100
AcDbLayerTableRecord
  2
D-MTR-MTXT
 70
     0
 62
     7
  6
CONTINUOUS
370
    13
390
7E81
  0
LAYER
  5
1621C
330
2
100
AcDbSymbolTableRecord
100
AcDbLayerTableRecord
  2
D-STR-STR2
 70
     0
 62
     1
  6
CONTINUOUS
370
    18
390
7E81
  0
LAYER
  5
244AE
330
2
100
AcDbSymbolTableRecord
100
AcDbLayerTableRecord
  2
D-DCR-HCH
 70
     0
 62
     5
  6
CONTINUOUS
370
    13
390
7E81
  0
ENDTAB
  0
TABLE
  2
STYLE
  5
3
330
0
100
AcDbSymbolTable
 70
     2
  0
STYLE
  5
11
330
3
100
AcDbSymbolTableRecord
100
AcDbTextStyleTableRecord
  2
STANDARD
 70
     0
 40
0.0
 41
1.0
 50
0.0
 71
     0
 42
2.5
  3
simplex.shx
  4
bigfont.shx
  0
STYLE
  5
1F432
330
3
100
AcDbSymbolTableRecord
100
AcDbTextStyleTableRecord
  2
明朝
 70
     0
 40
0.0
 41
1.0
 50
0.0
 71
     0
 42
10.0
  3
MS PMincho.ttf
  4

1001
ACAD
1000
MS PMincho
1071
    32786
  0
ENDTAB
  0
TABLE
  2
VIEW
  5
6
330
0
100
AcDbSymbolTable
 70
     0
  0
ENDTAB
  0
TABLE
  2
UCS
  5
7
330
0
100
AcDbSymbolTable
 70
     0
  0
ENDTAB
  0
TABLE
  2
APPID
  5
9
330
0
100
AcDbSymbolTable
 70
     2
  0
APPID
  5
12
330
9
100
AcDbSymbolTableRecord
100
AcDbRegAppTableRecord
  2
ACAD
 70
     0
  0
APPID
  5
7C1E
330
9
100
AcDbSymbolTableRecord
100
AcDbRegAppTableRecord
  2
CONTENTBLOCKICON
 70
     0
  0
ENDTAB
  0
TABLE
  2
DIMSTYLE
  5
A
330
0
100
AcDbSymbolTable
 70
     3
100
AcDbDimStyleTable
 71
     1
340
1CA9B
  0
DIMSTYLE
105
1CA9B
102
{ACAD_REACTORS
330
252CC
330
252DB
330
25392
330
253C4
330
253C3
330
253C2
330
2540E
330
2540D
330
2540C
330
2546F
330
2547C
330
25489
330
2552E
330
2552D
330
2552F
330
2557D
330
2557E
330
2557F
102
}
330
A
100
AcDbSymbolTableRecord
100
AcDbDimStyleTableRecord
  2
20
 70
     0
 41
20.0
 42
20.0
 43
0.0
 44
20.0
 73
     0
 74
     0
 77
     1
 78
     8
140
70.0
141
20.0
143
0.03937007874016
147
20.0
171
     3
172
     1
174
     1
176
   256
177
   256
178
   256
179
     4
271
     0
272
     0
274
     3
275
     1
279
     1
284
     8
340
11
341
31
342
31
  0
DIMSTYLE
105
1CC90
330
A
100
AcDbSymbolTableRecord
100
AcDbDimStyleTableRecord
  2
Standard
 70
     0
340
11
  0
DIMSTYLE
105
2545E
330
A
100
AcDbSymbolTableRecord
100
AcDbDimStyleTableRecord
  2
30
 70
     0
 41
30.0
 42
30.0
 43
0.0
 44
30.0
 73
     0
 74
     0
 77
     1
 78
     8
140
105.0
141
30.0
143
0.03937007874016
147
30.0
171
     3
172
     1
174
     1
176
   256
177
   256
178
   256
179
     4
271
     0
272
     0
274
     3
275
     1
279
     1
284
     8
340
11
341
31
342
31
  0
ENDTAB
  0
TABLE
  2
BLOCK_RECORD
  5
1
330
0
100
AcDbSymbolTable
 70
    20
  0
BLOCK_RECORD
  5
1F
102
{ACAD_XDICTIONARY
360
7BCB
102
}
330
1
100
AcDbSymbolTableRecord
100
AcDbBlockTableRecord
  2
*MODEL_SPACE
340
7E82
  0
BLOCK_RECORD
  5
1B
102
{ACAD_XDICTIONARY
360
7BCD
102
}
330
1
100
AcDbSymbolTableRecord
100
AcDbBlockTableRecord
  2
*PAPER_SPACE
340
7E83
  0
BLOCK_RECORD
  5
31
330
1
100
AcDbSymbolTableRecord
100
AcDbBlockTableRecord
  2
_OPEN
340
0
310
2800000020000000200000000100080000000000000400000000000000000000000000000000000000000000000080000080000000808000800000008000800080800000C0C0C000C0DCC000F0CAA6000020400000206000002080000020A0000020C0000020E00000400000004020000040400000406000004080000040A0
310
000040C0000040E00000600000006020000060400000606000006080000060A0000060C0000060E00000800000008020000080400000806000008080000080A0000080C0000080E00000A0000000A0200000A0400000A0600000A0800000A0A00000A0C00000A0E00000C0000000C0200000C0400000C0600000C0800000C0
310
A00000C0C00000C0E00000E0000000E0200000E0400000E0600000E0800000E0A00000E0C00000E0E00040000000400020004000400040006000400080004000A0004000C0004000E00040200000402020004020400040206000402080004020A0004020C0004020E000404000004040200040404000404060004040800040
310
40A0004040C0004040E00040600000406020004060400040606000406080004060A0004060C0004060E00040800000408020004080400040806000408080004080A0004080C0004080E00040A0000040A0200040A0400040A0600040A0800040A0A00040A0C00040A0E00040C0000040C0200040C0400040C0600040C08000
310
40C0A00040C0C00040C0E00040E0000040E0200040E0400040E0600040E0800040E0A00040E0C00040E0E00080000000800020008000400080006000800080008000A0008000C0008000E00080200000802020008020400080206000802080008020A0008020C0008020E00080400000804020008040400080406000804080
310
008040A0008040C0008040E00080600000806020008060400080606000806080008060A0008060C0008060E00080800000808020008080400080806000808080008080A0008080C0008080E00080A0000080A0200080A0400080A0600080A0800080A0A00080A0C00080A0E00080C0000080C0200080C0400080C0600080C0
310
800080C0A00080C0C00080C0E00080E0000080E0200080E0400080E0600080E0800080E0A00080E0C00080E0E000C0000000C0002000C0004000C0006000C0008000C000A000C000C000C000E000C0200000C0202000C0204000C0206000C0208000C020A000C020C000C020E000C0400000C0402000C0404000C0406000C0
310
408000C040A000C040C000C040E000C0600000C0602000C0604000C0606000C0608000C060A000C060C000C060E000C0800000C0802000C0804000C0806000C0808000C080A000C080C000C080E000C0A00000C0A02000C0A04000C0A06000C0A08000C0A0A000C0A0C000C0A0E000C0C00000C0C02000C0C04000C0C06000
310
C0C08000C0C0A000F0FBFF00A4A0A000808080000000FF0000FF000000FFFF00FF000000FF00FF00FFFF0000FFFFFF0000000000000000000000000000000000000000000000000000000000000000000000000000000000000000000000000000000000000000000000000000000000000000000000000000000000000000
310
00000000000000000000000000000000000000000000000000000000000000000000000000000000000000000000000000000000000000000000000000000000000000000000000000000000000000000000000000000000000000000000000000000000000000000000000000000000000000000000000000000000000000
310
00000000000000000000000000000000000000000000000000000000000000000000000000000000000000000000000000000000000000000000000000000000000000000000000000000000000000000000000000000000000000000000000000000000000000000000000000000000000000000000000000000000000000
310
0000000000000000000000000000000000000000FFFFFF0000000000000000000000000000000000000000000000000000000000000000FFFFFFFFFFFF0000000000000000000000000000000000000000000000000000000000000000FFFFFFFFFFFF00000000000000000000000000000000000000000000000000000000
310
00000000FFFFFFFFFFFF0000000000000000000000000000000000000000000000000000000000000000FFFFFFFFFFFF0000000000FFFFFFFFFFFFFFFFFFFFFFFFFFFFFFFFFFFFFFFFFFFFFFFFFFFFFFFFFFFF000000000000000000000000000000000000000000FFFFFFFFFFFFFF00000000000000000000000000000000
310
00FFFFFFFFFFFFFFFF0000000000000000000000000000000000FFFFFFFFFFFFFF000000000000000000000000000000000000000000FFFFFFFF000000000000000000000000000000000000000000000000000000000000000000000000000000000000000000000000000000000000000000000000000000000000000000
310
00000000000000000000000000000000000000000000000000000000000000000000000000000000000000000000000000000000000000000000000000000000000000000000000000000000000000000000000000000000000000000000000000000000000000000000000000000000000000000000000000000000000000
310
00000000000000000000000000000000000000000000000000000000000000000000000000000000000000000000000000000000000000000000000000000000000000000000000000000000000000000000000000000000000000000000000000000000000000000000000000000000000000000000000000000000000000
310
0000000000000000000000000000000000000000000000000000000000000000000000000000000000000000000000000000000000000000
102
{BLKREFS
331
253BD
331
253BE
331
25407
331
25408
331
25451
331
25452
102
}
  0
BLOCK_RECORD
  5
252CD
330
1
100
AcDbSymbolTableRecord
100
AcDbBlockTableRecord
  2
*D1
340
0
  0
BLOCK_RECORD
  5
252DC
330
1
100
AcDbSymbolTableRecord
100
AcDbBlockTableRecord
  2
*D2
340
0
  0
BLOCK_RECORD
  5
2531F
330
1
100
AcDbSymbolTableRecord
100
AcDbBlockTableRecord
  2
_Origin
340
0
102
{BLKREFS
331
25383
331
25384
331
2538D
331
2538E
331
253F2
331
253F3
331
253FC
331
253FD
331
2543C
331
2543D
331
25446
331
25447
331
255C5
331
255C6
331
255CD
331
255CE
331
255D4
331
255D5
331
255DB
331
255DC
331
255E3
331
255E4
331
255EB
331
255EC
331
255F2
331
255F3
331
255FA
331
255FB
331
25602
331
25603
102
}
  0
BLOCK_RECORD
  5
25393
330
1
100
AcDbSymbolTableRecord
100
AcDbBlockTableRecord
  2
*D4
340
0
  0
BLOCK_RECORD
  5
253C5
330
1
100
AcDbSymbolTableRecord
100
AcDbBlockTableRecord
  2
*D5
340
0
  0
BLOCK_RECORD
  5
253D2
330
1
100
AcDbSymbolTableRecord
100
AcDbBlockTableRecord
  2
*D6
340
0
  0
BLOCK_RECORD
  5
253DF
330
1
100
AcDbSymbolTableRecord
100
AcDbBlockTableRecord
  2
*D7
340
0
  0
BLOCK_RECORD
  5
2540F
330
1
100
AcDbSymbolTableRecord
100
AcDbBlockTableRecord
  2
*D8
340
0
  0
BLOCK_RECORD
  5
2541C
330
1
100
AcDbSymbolTableRecord
100
AcDbBlockTableRecord
  2
*D9
340
0
  0
BLOCK_RECORD
  5
25429
330
1
100
AcDbSymbolTableRecord
100
AcDbBlockTableRecord
  2
*D10
340
0
  0
BLOCK_RECORD
  5
25470
330
1
100
AcDbSymbolTableRecord
100
AcDbBlockTableRecord
  2
*D11
340
0
  0
BLOCK_RECORD
  5
2547D
330
1
100
AcDbSymbolTableRecord
100
AcDbBlockTableRecord
  2
*D12
340
0
  0
BLOCK_RECORD
  5
2548A
330
1
100
AcDbSymbolTableRecord
100
AcDbBlockTableRecord
  2
*D13
340
0
  0
BLOCK_RECORD
  5
25530
330
1
100
AcDbSymbolTableRecord
100
AcDbBlockTableRecord
  2
*D14
340
0
  0
BLOCK_RECORD
  5
2553A
330
1
100
AcDbSymbolTableRecord
100
AcDbBlockTableRecord
  2
*D15
340
0
  0
BLOCK_RECORD
  5
25545
330
1
100
AcDbSymbolTableRecord
100
AcDbBlockTableRecord
  2
*D16
340
0
  0
BLOCK_RECORD
  5
25580
330
1
100
AcDbSymbolTableRecord
100
AcDbBlockTableRecord
  2
*D17
340
0
  0
BLOCK_RECORD
  5
2558B
330
1
100
AcDbSymbolTableRecord
100
AcDbBlockTableRecord
  2
*D18
340
0
  0
BLOCK_RECORD
  5
25595
330
1
100
AcDbSymbolTableRecord
100
AcDbBlockTableRecord
  2
*D19
340
0
  0
ENDTAB
  0
ENDSEC
  0
SECTION
  2
BLOCKS
  0
BLOCK
  5
20
330
1F
100
AcDbEntity
  8
0
100
AcDbBlockBegin
  2
*MODEL_SPACE
 70
     0
 10
0.0
 20
0.0
 30
0.0
  3
*MODEL_SPACE
  1

  0
ENDBLK
  5
21
330
1F
100
AcDbEntity
  8
0
100
AcDbBlockEnd
  0
BLOCK
  5
1C
330
1B
100
AcDbEntity
 67
     1
  8
0
100
AcDbBlockBegin
  2
*PAPER_SPACE
 70
     0
 10
0.0
 20
0.0
 30
0.0
  3
*PAPER_SPACE
  1

  0
ENDBLK
  5
1D
330
1B
100
AcDbEntity
 67
     1
  8
0
100
AcDbBlockEnd
  0
BLOCK
  5
35
330
31
100
AcDbEntity
  8
0
100
AcDbBlockBegin
  2
_OPEN
 70
     0
 10
0.0
 20
0.0
 30
0.0
  3
_OPEN
  1

  0
LINE
  5
32
330
31
100
AcDbEntity
  8
0
  6
ByBlock
 62
     0
100
AcDbLine
 10
-1.0
 20
0.1666666666666666
 30
0.0
 11
0.0
 21
0.0
 31
0.0
  0
LINE
  5
33
330
31
100
AcDbEntity
  8
0
  6
ByBlock
 62
     0
100
AcDbLine
 10
-1.0
 20
-0.1666666666666666
 30
0.0
 11
0.0
 21
0.0
 31
0.0
  0
LINE
  5
34
330
31
100
AcDbEntity
  8
0
  6
ByBlock
 62
     0
100
AcDbLine
 10
0.0
 20
0.0
 30
0.0
 11
-1.0
 21
0.0
 31
0.0
  0
ENDBLK
  5
36
330
31
100
AcDbEntity
  8
0
100
AcDbBlockEnd
  0
BLOCK
  5
252D9
330
252CD
100
AcDbEntity
  8
0
100
AcDbBlockBegin
  2
*D1
 70
     1
 10
0.0
 20
0.0
 30
0.0
  3
*D1
  1

  0
LINE
  5
25388
330
252CD
100
AcDbEntity
  8
0
370
    -2
100
AcDbLine
 10
5070.956599043169
 20
8592.053909980876
 30
0.0
 11
5070.956599043169
 21
8992.054708104381
 31
0.0
  0
LINE
  5
25389
330
252CD
100
AcDbEntity
  8
0
370
    -2
100
AcDbLine
 10
5009.956199277745
 20
8972.054708104382
 30
0.0
 11
4998.956199277746
 21
8972.054708104382
 31
0.0
  0
LINE
  5
2538A
330
252CD
100
AcDbEntity
  8
0
370
    -2
100
AcDbLine
 10
5081.956599043169
 20
8972.054708104382
 30
0.0
 11
5092.956599043169
 21
8972.054708104382
 31
0.0
  0
MTEXT
  5
2538B
330
252CD
100
AcDbEntity
  8
0
100
AcDbMText
 10
5045.956399160457
 20
8921.263835427042
 30
0.0
 40
70.0
 41
0.0
 71
     5
 72
     1
  1
\A1;50
 73
     1
 44
1.0
1001
ACAD
1000
MTEXTBEGIN
1070
    73
1070
     1
1070
    44
1040
1.0
1070
    74
1070
     0
1000
MTEXTEND
  0
LINE
  5
2538C
330
252CD
100
AcDbEntity
  8
0
370
    -2
100
AcDbLine
 10
5020.956199277745
 20
8972.054708104382
 30
0.0
 11
5070.956599043169
 21
8972.054708104382
 31
0.0
  0
INSERT
  5
2538D
330
252CD
100
AcDbEntity
  8
0
370
    -2
100
AcDbBlockReference
  2
_Origin
 10
5020.956199277745
 20
8972.054708104382
 30
0.0
 41
11.0
 42
11.0
 43
11.0
  0
INSERT
  5
2538E
330
252CD
100
AcDbEntity
  8
0
370
    -2
100
AcDbBlockReference
  2
_Origin
 10
5070.956599043169
 20
8972.054708104382
 30
0.0
 41
11.0
 42
11.0
 43
11.0
 50
180.0
  0
POINT
  5
2538F
330
252CD
100
AcDbEntity
  8
DEFPOINTS
 62
     0
100
AcDbPoint
 10
5020.956199277745
 20
8572.053909980876
 30
0.0
  0
POINT
  5
25390
330
252CD
100
AcDbEntity
  8
DEFPOINTS
 62
     0
100
AcDbPoint
 10
5070.956599043169
 20
8572.053909980876
 30
0.0
  0
POINT
  5
25391
330
252CD
100
AcDbEntity
  8
DEFPOINTS
 62
     0
100
AcDbPoint
 10
5070.956599043169
 20
8972.054708104382
 30
0.0
  0
ENDBLK
  5
252DA
330
252CD
100
AcDbEntity
  8
0
100
AcDbBlockEnd
  0
BLOCK
  5
252E8
330
252DC
100
AcDbEntity
  8
0
100
AcDbBlockBegin
  2
*D2
 70
     1
 10
0.0
 20
0.0
 30
0.0
  3
*D2
  1

  0
LINE
  5
2537E
330
252DC
100
AcDbEntity
  8
0
370
    -2
100
AcDbLine
 10
5120.956598808611
 20
8592.053909980876
 30
0.0
 11
5120.956598808611
 21
8992.054708104381
 31
0.0
  0
LINE
  5
2537F
330
252DC
100
AcDbEntity
  8
0
370
    -2
100
AcDbLine
 10
5059.956599043169
 20
8972.054708104382
 30
0.0
 11
5048.956599043169
 21
8972.054708104382
 31
0.0
  0
LINE
  5
25380
330
252DC
100
AcDbEntity
  8
0
370
    -2
100
AcDbLine
 10
5131.95659880861
 20
8972.054708104382
 30
0.0
 11
5142.95659880861
 21
8972.054708104382
 31
0.0
  0
MTEXT
  5
25381
330
252DC
100
AcDbEntity
  8
0
100
AcDbMText
 10
5160.95659880861
 20
9027.054708104383
 30
0.0
 40
70.0
 41
0.0
 71
     5
 72
     1
  1
\A1;50
 73
     1
 44
1.0
1001
ACAD
1000
MTEXTBEGIN
1070
    73
1070
     1
1070
    44
1040
1.0
1070
    74
1070
     0
1000
MTEXTEND
  0
LINE
  5
25382
330
252DC
100
AcDbEntity
  8
0
370
    -2
100
AcDbLine
 10
5070.956599043169
 20
8972.054708104382
 30
0.0
 11
5120.956598808611
 21
8972.054708104382
 31
0.0
  0
INSERT
  5
25383
330
252DC
100
AcDbEntity
  8
0
370
    -2
100
AcDbBlockReference
  2
_Origin
 10
5070.956599043169
 20
8972.054708104382
 30
0.0
 41
11.0
 42
11.0
 43
11.0
  0
INSERT
  5
25384
330
252DC
100
AcDbEntity
  8
0
370
    -2
100
AcDbBlockReference
  2
_Origin
 10
5120.956598808611
 20
8972.054708104382
 30
0.0
 41
11.0
 42
11.0
 43
11.0
 50
180.0
  0
POINT
  5
25385
330
252DC
100
AcDbEntity
  8
DEFPOINTS
 62
     0
100
AcDbPoint
 10
5070.956599043169
 20
8572.053909980876
 30
0.0
  0
POINT
  5
25386
330
252DC
100
AcDbEntity
  8
DEFPOINTS
 62
     0
100
AcDbPoint
 10
5120.956598808611
 20
8572.053909980876
 30
0.0
  0
POINT
  5
25387
330
252DC
100
AcDbEntity
  8
DEFPOINTS
 62
     0
100
AcDbPoint
 10
5120.956598808611
 20
8972.054708104382
 30
0.0
  0
ENDBLK
  5
252E9
330
252DC
100
AcDbEntity
  8
0
100
AcDbBlockEnd
  0
BLOCK
  5
25322
330
2531F
100
AcDbEntity
  8
0
100
AcDbBlockBegin
  2
_Origin
 70
     0
 10
0.0
 20
0.0
 30
0.0
  3
_Origin
  1

  0
CIRCLE
  5
25320
330
2531F
100
AcDbEntity
  8
0
  6
ByBlock
 62
     0
370
    -2
100
AcDbCircle
 10
0.0
 20
0.0
 30
0.0
 40
0.5
  0
LINE
  5
25321
330
2531F
100
AcDbEntity
  8
0
  6
ByBlock
 62
     0
370
    -2
100
AcDbLine
 10
0.0
 20
0.0
 30
0.0
 11
-1.0
 21
0.0
 31
0.0
  0
ENDBLK
  5
25323
330
2531F
100
AcDbEntity
  8
0
100
AcDbBlockEnd
  0
BLOCK
  5
2539F
330
25393
100
AcDbEntity
  8
0
100
AcDbBlockBegin
  2
*D4
 70
     1
 10
0.0
 20
0.0
 30
0.0
  3
*D4
  1

  0
LINE
  5
253B7
330
25393
100
AcDbEntity
  8
0
370
    -2
100
AcDbLine
 10
5020.956199277745
 20
8592.053909980876
 30
0.0
 11
5020.956199277745
 21
8992.054708104381
 31
0.0
  0
LINE
  5
253B8
330
25393
100
AcDbEntity
  8
0
370
    -2
100
AcDbLine
 10
4970.95659951229
 20
8592.053909980876
 30
0.0
 11
4970.95659951229
 21
8992.054708104381
 31
0.0
  0
LINE
  5
253B9
330
25393
100
AcDbEntity
  8
0
370
    -2
100
AcDbLine
 10
5040.956199277745
 20
8972.054708104382
 30
0.0
 11
5060.956199277746
 21
8972.054708104382
 31
0.0
  0
LINE
  5
253BA
330
25393
100
AcDbEntity
  8
0
370
    -2
100
AcDbLine
 10
4950.956599512291
 20
8972.054708104382
 30
0.0
 11
4930.95659951229
 21
8972.054708104382
 31
0.0
  0
MTEXT
  5
253BB
330
25393
100
AcDbEntity
  8
0
100
AcDbMText
 10
4930.95659951229
 20
9027.054708104383
 30
0.0
 40
70.0
 41
0.0
 71
     5
 72
     1
  1
\A1;50
 73
     1
 44
1.0
1001
ACAD
1000
MTEXTBEGIN
1070
    73
1070
     1
1070
    44
1040
1.0
1070
    74
1070
     0
1000
MTEXTEND
  0
LINE
  5
253BC
330
25393
100
AcDbEntity
  8
0
370
    -2
100
AcDbLine
 10
5020.956199277745
 20
8972.054708104382
 30
0.0
 11
4970.95659951229
 21
8972.054708104382
 31
0.0
  0
INSERT
  5
253BD
330
25393
100
AcDbEntity
  8
0
370
    -2
100
AcDbBlockReference
  2
_OPEN
 10
5020.956199277745
 20
8972.054708104382
 30
0.0
 41
20.0
 42
20.0
 43
20.0
 50
180.0
  0
INSERT
  5
253BE
330
25393
100
AcDbEntity
  8
0
370
    -2
100
AcDbBlockReference
  2
_OPEN
 10
4970.95659951229
 20
8972.054708104382
 30
0.0
 41
20.0
 42
20.0
 43
20.0
  0
POINT
  5
253BF
330
25393
100
AcDbEntity
  8
DEFPOINTS
 62
     0
100
AcDbPoint
 10
5020.956199277745
 20
8572.053909980876
 30
0.0
  0
POINT
  5
253C0
330
25393
100
AcDbEntity
  8
DEFPOINTS
 62
     0
100
AcDbPoint
 10
4970.95659951229
 20
8572.053909980876
 30
0.0
  0
POINT
  5
253C1
330
25393
100
AcDbEntity
  8
DEFPOINTS
 62
     0
100
AcDbPoint
 10
4970.95659951229
 20
8972.054708104382
 30
0.0
  0
ENDBLK
  5
253A0
330
25393
100
AcDbEntity
  8
0
100
AcDbBlockEnd
  0
BLOCK
  5
253D0
330
253C5
100
AcDbEntity
  8
0
100
AcDbBlockBegin
  2
*D5
 70
     1
 10
0.0
 20
0.0
 30
0.0
  3
*D5
  1

  0
LINE
  5
253ED
330
253C5
100
AcDbEntity
  8
0
370
    -2
100
AcDbLine
 10
10081.17587105615
 20
8652.054109699401
 30
0.0
 11
10081.17587105615
 21
9052.054907822906
 31
0.0
  0
LINE
  5
253EE
330
253C5
100
AcDbEntity
  8
0
370
    -2
100
AcDbLine
 10
10020.17547129073
 20
9032.054907822907
 30
0.0
 11
10009.17547129072
 21
9032.054907822907
 31
0.0
  0
LINE
  5
253EF
330
253C5
100
AcDbEntity
  8
0
370
    -2
100
AcDbLine
 10
10092.17587105615
 20
9032.054907822907
 30
0.0
 11
10103.17587105615
 21
9032.054907822907
 31
0.0
  0
MTEXT
  5
253F0
330
253C5
100
AcDbEntity
  8
0
100
AcDbMText
 10
10056.17567117344
 20
8981.264035145567
 30
0.0
 40
70.0
 41
0.0
 71
     5
 72
     1
  1
\A1;50
 73
     1
 44
1.0
1001
ACAD
1000
MTEXTBEGIN
1070
    73
1070
     1
1070
    44
1040
1.0
1070
    74
1070
     0
1000
MTEXTEND
  0
LINE
  5
253F1
330
253C5
100
AcDbEntity
  8
0
370
    -2
100
AcDbLine
 10
10031.17547129072
 20
9032.054907822907
 30
0.0
 11
10081.17587105615
 21
9032.054907822907
 31
0.0
  0
INSERT
  5
253F2
330
253C5
100
AcDbEntity
  8
0
370
    -2
100
AcDbBlockReference
  2
_Origin
 10
10031.17547129072
 20
9032.054907822907
 30
0.0
 41
11.0
 42
11.0
 43
11.0
  0
INSERT
  5
253F3
330
253C5
100
AcDbEntity
  8
0
370
    -2
100
AcDbBlockReference
  2
_Origin
 10
10081.17587105615
 20
9032.054907822907
 30
0.0
 41
11.0
 42
11.0
 43
11.0
 50
180.0
  0
POINT
  5
253F4
330
253C5
100
AcDbEntity
  8
DEFPOINTS
 62
     0
100
AcDbPoint
 10
10031.17547129072
 20
8632.054109699401
 30
0.0
  0
POINT
  5
253F5
330
253C5
100
AcDbEntity
  8
DEFPOINTS
 62
     0
100
AcDbPoint
 10
10081.17587105615
 20
8632.054109699401
 30
0.0
  0
POINT
  5
253F6
330
253C5
100
AcDbEntity
  8
DEFPOINTS
 62
     0
100
AcDbPoint
 10
10081.17587105615
 20
9032.054907822907
 30
0.0
  0
ENDBLK
  5
253D1
330
253C5
100
AcDbEntity
  8
0
100
AcDbBlockEnd
  0
BLOCK
  5
253DD
330
253D2
100
AcDbEntity
  8
0
100
AcDbBlockBegin
  2
*D6
 70
     1
 10
0.0
 20
0.0
 30
0.0
  3
*D6
  1

  0
LINE
  5
253F7
330
253D2
100
AcDbEntity
  8
0
370
    -2
100
AcDbLine
 10
10131.17587082159
 20
8652.054109699401
 30
0.0
 11
10131.17587082159
 21
9052.054907822906
 31
0.0
  0
LINE
  5
253F8
330
253D2
100
AcDbEntity
  8
0
370
    -2
100
AcDbLine
 10
10070.17587105615
 20
9032.054907822907
 30
0.0
 11
10059.17587105615
 21
9032.054907822907
 31
0.0
  0
LINE
  5
253F9
330
253D2
100
AcDbEntity
  8
0
370
    -2
100
AcDbLine
 10
10142.17587082159
 20
9032.054907822907
 30
0.0
 11
10153.17587082159
 21
9032.054907822907
 31
0.0
  0
MTEXT
  5
253FA
330
253D2
100
AcDbEntity
  8
0
100
AcDbMText
 10
10171.17587082159
 20
9087.054907822908
 30
0.0
 40
70.0
 41
0.0
 71
     5
 72
     1
  1
\A1;50
 73
     1
 44
1.0
1001
ACAD
1000
MTEXTBEGIN
1070
    73
1070
     1
1070
    44
1040
1.0
1070
    74
1070
     0
1000
MTEXTEND
  0
LINE
  5
253FB
330
253D2
100
AcDbEntity
  8
0
370
    -2
100
AcDbLine
 10
10081.17587105615
 20
9032.054907822907
 30
0.0
 11
10131.17587082159
 21
9032.054907822907
 31
0.0
  0
INSERT
  5
253FC
330
253D2
100
AcDbEntity
  8
0
370
    -2
100
AcDbBlockReference
  2
_Origin
 10
10081.17587105615
 20
9032.054907822907
 30
0.0
 41
11.0
 42
11.0
 43
11.0
  0
INSERT
  5
253FD
330
253D2
100
AcDbEntity
  8
0
370
    -2
100
AcDbBlockReference
  2
_Origin
 10
10131.17587082159
 20
9032.054907822907
 30
0.0
 41
11.0
 42
11.0
 43
11.0
 50
180.0
  0
POINT
  5
253FE
330
253D2
100
AcDbEntity
  8
DEFPOINTS
 62
     0
100
AcDbPoint
 10
10081.17587105615
 20
8632.054109699401
 30
0.0
  0
POINT
  5
253FF
330
253D2
100
AcDbEntity
  8
DEFPOINTS
 62
     0
100
AcDbPoint
 10
10131.17587082159
 20
8632.054109699401
 30
0.0
  0
POINT
  5
25400
330
253D2
100
AcDbEntity
  8
DEFPOINTS
 62
     0
100
AcDbPoint
 10
10131.17587082159
 20
9032.054907822907
 30
0.0
  0
ENDBLK
  5
253DE
330
253D2
100
AcDbEntity
  8
0
100
AcDbBlockEnd
  0
BLOCK
  5
253EB
330
253DF
100
AcDbEntity
  8
0
100
AcDbBlockBegin
  2
*D7
 70
     1
 10
0.0
 20
0.0
 30
0.0
  3
*D7
  1

  0
LINE
  5
25401
330
253DF
100
AcDbEntity
  8
0
370
    -2
100
AcDbLine
 10
10031.17547129072
 20
8652.054109699401
 30
0.0
 11
10031.17547129072
 21
9052.054907822906
 31
0.0
  0
LINE
  5
25402
330
253DF
100
AcDbEntity
  8
0
370
    -2
100
AcDbLine
 10
9981.175871525273
 20
8652.054109699401
 30
0.0
 11
9981.175871525273
 21
9052.054907822906
 31
0.0
  0
LINE
  5
25403
330
253DF
100
AcDbEntity
  8
0
370
    -2
100
AcDbLine
 10
10051.17547129072
 20
9032.054907822907
 30
0.0
 11
10071.17547129072
 21
9032.054907822907
 31
0.0
  0
LINE
  5
25404
330
253DF
100
AcDbEntity
  8
0
370
    -2
100
AcDbLine
 10
9961.175871525274
 20
9032.054907822907
 30
0.0
 11
9941.175871525274
 21
9032.054907822907
 31
0.0
  0
MTEXT
  5
25405
330
253DF
100
AcDbEntity
  8
0
100
AcDbMText
 10
9941.175871525274
 20
9087.054907822908
 30
0.0
 40
70.0
 41
0.0
 71
     5
 72
     1
  1
\A1;50
 73
     1
 44
1.0
1001
ACAD
1000
MTEXTBEGIN
1070
    73
1070
     1
1070
    44
1040
1.0
1070
    74
1070
     0
1000
MTEXTEND
  0
LINE
  5
25406
330
253DF
100
AcDbEntity
  8
0
370
    -2
100
AcDbLine
 10
10031.17547129072
 20
9032.054907822907
 30
0.0
 11
9981.175871525273
 21
9032.054907822907
 31
0.0
  0
INSERT
  5
25407
330
253DF
100
AcDbEntity
  8
0
370
    -2
100
AcDbBlockReference
  2
_OPEN
 10
10031.17547129072
 20
9032.054907822907
 30
0.0
 41
20.0
 42
20.0
 43
20.0
 50
180.0
  0
INSERT
  5
25408
330
253DF
100
AcDbEntity
  8
0
370
    -2
100
AcDbBlockReference
  2
_OPEN
 10
9981.175871525273
 20
9032.054907822907
 30
0.0
 41
20.0
 42
20.0
 43
20.0
  0
POINT
  5
25409
330
253DF
100
AcDbEntity
  8
DEFPOINTS
 62
     0
100
AcDbPoint
 10
10031.17547129072
 20
8632.054109699401
 30
0.0
  0
POINT
  5
2540A
330
253DF
100
AcDbEntity
  8
DEFPOINTS
 62
     0
100
AcDbPoint
 10
9981.175871525273
 20
8632.054109699401
 30
0.0
  0
POINT
  5
2540B
330
253DF
100
AcDbEntity
  8
DEFPOINTS
 62
     0
100
AcDbPoint
 10
9981.175871525273
 20
9032.054907822907
 30
0.0
  0
ENDBLK
  5
253EC
330
253DF
100
AcDbEntity
  8
0
100
AcDbBlockEnd
  0
BLOCK
  5
2541A
330
2540F
100
AcDbEntity
  8
0
100
AcDbBlockBegin
  2
*D8
 70
     1
 10
0.0
 20
0.0
 30
0.0
  3
*D8
  1

  0
LINE
  5
25437
330
2540F
100
AcDbEntity
  8
0
370
    -2
100
AcDbLine
 10
15262.33880804019
 20
8592.053909980876
 30
0.0
 11
15262.33880804019
 21
8992.054708104381
 31
0.0
  0
LINE
  5
25438
330
2540F
100
AcDbEntity
  8
0
370
    -2
100
AcDbLine
 10
15201.33840827477
 20
8972.054708104382
 30
0.0
 11
15190.33840827477
 21
8972.054708104382
 31
0.0
  0
LINE
  5
25439
330
2540F
100
AcDbEntity
  8
0
370
    -2
100
AcDbLine
 10
15273.33880804019
 20
8972.054708104382
 30
0.0
 11
15284.33880804019
 21
8972.054708104382
 31
0.0
  0
MTEXT
  5
2543A
330
2540F
100
AcDbEntity
  8
0
100
AcDbMText
 10
15237.33860815748
 20
8921.263835427042
 30
0.0
 40
70.0
 41
0.0
 71
     5
 72
     1
  1
\A1;50
 73
     1
 44
1.0
1001
ACAD
1000
MTEXTBEGIN
1070
    73
1070
     1
1070
    44
1040
1.0
1070
    74
1070
     0
1000
MTEXTEND
  0
LINE
  5
2543B
330
2540F
100
AcDbEntity
  8
0
370
    -2
100
AcDbLine
 10
15212.33840827477
 20
8972.054708104382
 30
0.0
 11
15262.33880804019
 21
8972.054708104382
 31
0.0
  0
INSERT
  5
2543C
330
2540F
100
AcDbEntity
  8
0
370
    -2
100
AcDbBlockReference
  2
_Origin
 10
15212.33840827477
 20
8972.054708104382
 30
0.0
 41
11.0
 42
11.0
 43
11.0
  0
INSERT
  5
2543D
330
2540F
100
AcDbEntity
  8
0
370
    -2
100
AcDbBlockReference
  2
_Origin
 10
15262.33880804019
 20
8972.054708104382
 30
0.0
 41
11.0
 42
11.0
 43
11.0
 50
180.0
  0
POINT
  5
2543E
330
2540F
100
AcDbEntity
  8
DEFPOINTS
 62
     0
100
AcDbPoint
 10
15212.33840827477
 20
8572.053909980876
 30
0.0
  0
POINT
  5
2543F
330
2540F
100
AcDbEntity
  8
DEFPOINTS
 62
     0
100
AcDbPoint
 10
15262.33880804019
 20
8572.053909980876
 30
0.0
  0
POINT
  5
25440
330
2540F
100
AcDbEntity
  8
DEFPOINTS
 62
     0
100
AcDbPoint
 10
15262.33880804019
 20
8972.054708104382
 30
0.0
  0
ENDBLK
  5
2541B
330
2540F
100
AcDbEntity
  8
0
100
AcDbBlockEnd
  0
BLOCK
  5
25427
330
2541C
100
AcDbEntity
  8
0
100
AcDbBlockBegin
  2
*D9
 70
     1
 10
0.0
 20
0.0
 30
0.0
  3
*D9
  1

  0
LINE
  5
25441
330
2541C
100
AcDbEntity
  8
0
370
    -2
100
AcDbLine
 10
15312.33880780564
 20
8592.053909980876
 30
0.0
 11
15312.33880780564
 21
8992.054708104381
 31
0.0
  0
LINE
  5
25442
330
2541C
100
AcDbEntity
  8
0
370
    -2
100
AcDbLine
 10
15251.3388080402
 20
8972.054708104382
 30
0.0
 11
15240.33880804019
 21
8972.054708104382
 31
0.0
  0
LINE
  5
25443
330
2541C
100
AcDbEntity
  8
0
370
    -2
100
AcDbLine
 10
15323.33880780563
 20
8972.054708104382
 30
0.0
 11
15334.33880780564
 21
8972.054708104382
 31
0.0
  0
MTEXT
  5
25444
330
2541C
100
AcDbEntity
  8
0
100
AcDbMText
 10
15352.33880780564
 20
9027.054708104383
 30
0.0
 40
70.0
 41
0.0
 71
     5
 72
     1
  1
\A1;50
 73
     1
 44
1.0
1001
ACAD
1000
MTEXTBEGIN
1070
    73
1070
     1
1070
    44
1040
1.0
1070
    74
1070
     0
1000
MTEXTEND
  0
LINE
  5
25445
330
2541C
100
AcDbEntity
  8
0
370
    -2
100
AcDbLine
 10
15262.33880804019
 20
8972.054708104382
 30
0.0
 11
15312.33880780564
 21
8972.054708104382
 31
0.0
  0
INSERT
  5
25446
330
2541C
100
AcDbEntity
  8
0
370
    -2
100
AcDbBlockReference
  2
_Origin
 10
15262.33880804019
 20
8972.054708104382
 30
0.0
 41
11.0
 42
11.0
 43
11.0
  0
INSERT
  5
25447
330
2541C
100
AcDbEntity
  8
0
370
    -2
100
AcDbBlockReference
  2
_Origin
 10
15312.33880780564
 20
8972.054708104382
 30
0.0
 41
11.0
 42
11.0
 43
11.0
 50
180.0
  0
POINT
  5
25448
330
2541C
100
AcDbEntity
  8
DEFPOINTS
 62
     0
100
AcDbPoint
 10
15262.33880804019
 20
8572.053909980876
 30
0.0
  0
POINT
  5
25449
330
2541C
100
AcDbEntity
  8
DEFPOINTS
 62
     0
100
AcDbPoint
 10
15312.33880780564
 20
8572.053909980876
 30
0.0
  0
POINT
  5
2544A
330
2541C
100
AcDbEntity
  8
DEFPOINTS
 62
     0
100
AcDbPoint
 10
15312.33880780564
 20
8972.054708104382
 30
0.0
  0
ENDBLK
  5
25428
330
2541C
100
AcDbEntity
  8
0
100
AcDbBlockEnd
  0
BLOCK
  5
25435
330
25429
100
AcDbEntity
  8
0
100
AcDbBlockBegin
  2
*D10
 70
     1
 10
0.0
 20
0.0
 30
0.0
  3
*D10
  1

  0
LINE
  5
2544B
330
25429
100
AcDbEntity
  8
0
370
    -2
100
AcDbLine
 10
15212.33840827477
 20
8592.053909980876
 30
0.0
 11
15212.33840827477
 21
8992.054708104381
 31
0.0
  0
LINE
  5
2544C
330
25429
100
AcDbEntity
  8
0
370
    -2
100
AcDbLine
 10
15162.33880850932
 20
8592.053909980876
 30
0.0
 11
15162.33880850932
 21
8992.054708104381
 31
0.0
  0
LINE
  5
2544D
330
25429
100
AcDbEntity
  8
0
370
    -2
100
AcDbLine
 10
15232.33840827477
 20
8972.054708104382
 30
0.0
 11
15252.33840827477
 21
8972.054708104382
 31
0.0
  0
LINE
  5
2544E
330
25429
100
AcDbEntity
  8
0
370
    -2
100
AcDbLine
 10
15142.33880850932
 20
8972.054708104382
 30
0.0
 11
15122.33880850932
 21
8972.054708104382
 31
0.0
  0
MTEXT
  5
2544F
330
25429
100
AcDbEntity
  8
0
100
AcDbMText
 10
15122.33880850932
 20
9027.054708104383
 30
0.0
 40
70.0
 41
0.0
 71
     5
 72
     1
  1
\A1;50
 73
     1
 44
1.0
1001
ACAD
1000
MTEXTBEGIN
1070
    73
1070
     1
1070
    44
1040
1.0
1070
    74
1070
     0
1000
MTEXTEND
  0
LINE
  5
25450
330
25429
100
AcDbEntity
  8
0
370
    -2
100
AcDbLine
 10
15212.33840827477
 20
8972.054708104382
 30
0.0
 11
15162.33880850932
 21
8972.054708104382
 31
0.0
  0
INSERT
  5
25451
330
25429
100
AcDbEntity
  8
0
370
    -2
100
AcDbBlockReference
  2
_OPEN
 10
15212.33840827477
 20
8972.054708104382
 30
0.0
 41
20.0
 42
20.0
 43
20.0
 50
180.0
  0
INSERT
  5
25452
330
25429
100
AcDbEntity
  8
0
370
    -2
100
AcDbBlockReference
  2
_OPEN
 10
15162.33880850932
 20
8972.054708104382
 30
0.0
 41
20.0
 42
20.0
 43
20.0
  0
POINT
  5
25453
330
25429
100
AcDbEntity
  8
DEFPOINTS
 62
     0
100
AcDbPoint
 10
15212.33840827477
 20
8572.053909980876
 30
0.0
  0
POINT
  5
25454
330
25429
100
AcDbEntity
  8
DEFPOINTS
 62
     0
100
AcDbPoint
 10
15162.33880850932
 20
8572.053909980876
 30
0.0
  0
POINT
  5
25455
330
25429
100
AcDbEntity
  8
DEFPOINTS
 62
     0
100
AcDbPoint
 10
15162.33880850932
 20
8972.054708104382
 30
0.0
  0
ENDBLK
  5
25436
330
25429
100
AcDbEntity
  8
0
100
AcDbBlockEnd
  0
BLOCK
  5
2547A
330
25470
100
AcDbEntity
  8
0
100
AcDbBlockBegin
  2
*D11
 70
     1
 10
0.0
 20
0.0
 30
0.0
  3
*D11
  1

  0
LINE
  5
255D3
330
25470
100
AcDbEntity
  8
D-STR-DIM
370
    -2
100
AcDbLine
 10
1980.955013586005
 20
8745.150352417004
 30
0.0
 11
2460.955013586005
 21
8745.150352417004
 31
0.0
  0
INSERT
  5
255D4
330
25470
100
AcDbEntity
  8
D-STR-DIM
370
    -2
100
AcDbBlockReference
  2
_Origin
 10
1970.955013586004
 20
8745.150352417004
 30
0.0
 41
10.0
 42
10.0
 43
10.0
 50
180.0
  0
INSERT
  5
255D5
330
25470
100
AcDbEntity
  8
D-STR-DIM
370
    -2
100
AcDbBlockReference
  2
_Origin
 10
2470.955013586005
 20
8745.150352417004
 30
0.0
 41
10.0
 42
10.0
 43
10.0
  0
MTEXT
  5
255D6
330
25470
100
AcDbEntity
  8
D-STR-DIM
100
AcDbMText
 10
2220.955013586005
 20
8800.150352417004
 30
0.0
 40
70.0
 41
0.0
 71
     5
 72
     1
  1
\A1;500
 73
     1
 44
1.0
1001
ACAD
1000
MTEXTBEGIN
1070
    73
1070
     1
1070
    44
1040
1.0
1070
    74
1070
     0
1000
MTEXTEND
  0
POINT
  5
255D7
330
25470
100
AcDbEntity
  8
DEFPOINTS
 62
     0
100
AcDbPoint
 10
1970.955013586004
 20
8572.053909980876
 30
0.0
  0
POINT
  5
255D8
330
25470
100
AcDbEntity
  8
DEFPOINTS
 62
     0
100
AcDbPoint
 10
2470.955013586005
 20
8572.053909980876
 30
0.0
  0
POINT
  5
255D9
330
25470
100
AcDbEntity
  8
DEFPOINTS
 62
     0
100
AcDbPoint
 10
2470.955013586005
 20
8745.150352417004
 30
0.0
  0
ENDBLK
  5
2547B
330
25470
100
AcDbEntity
  8
0
100
AcDbBlockEnd
  0
BLOCK
  5
25487
330
2547D
100
AcDbEntity
  8
0
100
AcDbBlockBegin
  2
*D12
 70
     1
 10
0.0
 20
0.0
 30
0.0
  3
*D12
  1

  0
LINE
  5
255CB
330
2547D
100
AcDbEntity
  8
D-STR-DIM
370
    -2
100
AcDbLine
 10
2470.955013586005
 20
8592.053909980876
 30
0.0
 11
2470.955013586005
 21
8765.150352417004
 31
0.0
  0
LINE
  5
255CC
330
2547D
100
AcDbEntity
  8
D-STR-DIM
370
    -2
100
AcDbLine
 10
2480.955013586005
 20
8745.150352417004
 30
0.0
 11
3060.955013586005
 21
8745.150352417004
 31
0.0
  0
INSERT
  5
255CD
330
2547D
100
AcDbEntity
  8
D-STR-DIM
370
    -2
100
AcDbBlockReference
  2
_Origin
 10
2470.955013586005
 20
8745.150352417004
 30
0.0
 41
10.0
 42
10.0
 43
10.0
 50
180.0
  0
INSERT
  5
255CE
330
2547D
100
AcDbEntity
  8
D-STR-DIM
370
    -2
100
AcDbBlockReference
  2
_Origin
 10
3070.955013586005
 20
8745.150352417004
 30
0.0
 41
10.0
 42
10.0
 43
10.0
  0
MTEXT
  5
255CF
330
2547D
100
AcDbEntity
  8
D-STR-DIM
100
AcDbMText
 10
2770.955013586005
 20
8800.150352417004
 30
0.0
 40
70.0
 41
0.0
 71
     5
 72
     1
  1
\A1;600
 73
     1
 44
1.0
1001
ACAD
1000
MTEXTBEGIN
1070
    73
1070
     1
1070
    44
1040
1.0
1070
    74
1070
     0
1000
MTEXTEND
  0
POINT
  5
255D0
330
2547D
100
AcDbEntity
  8
DEFPOINTS
 62
     0
100
AcDbPoint
 10
2470.955013586005
 20
8572.053909980876
 30
0.0
  0
POINT
  5
255D1
330
2547D
100
AcDbEntity
  8
DEFPOINTS
 62
     0
100
AcDbPoint
 10
3070.955013586005
 20
8572.053909980876
 30
0.0
  0
POINT
  5
255D2
330
2547D
100
AcDbEntity
  8
DEFPOINTS
 62
     0
100
AcDbPoint
 10
3070.955013586005
 20
8745.150352417004
 30
0.0
  0
ENDBLK
  5
25488
330
2547D
100
AcDbEntity
  8
0
100
AcDbBlockEnd
  0
BLOCK
  5
25494
330
2548A
100
AcDbEntity
  8
0
100
AcDbBlockBegin
  2
*D13
 70
     1
 10
0.0
 20
0.0
 30
0.0
  3
*D13
  1

  0
LINE
  5
255C3
330
2548A
100
AcDbEntity
  8
D-STR-DIM
370
    -2
100
AcDbLine
 10
3070.955013586005
 20
8592.053909980876
 30
0.0
 11
3070.955013586005
 21
8765.150352417004
 31
0.0
  0
LINE
  5
255C4
330
2548A
100
AcDbEntity
  8
D-STR-DIM
370
    -2
100
AcDbLine
 10
3080.955013586005
 20
8745.150352417004
 30
0.0
 11
3560.95500608005
 21
8745.150352417004
 31
0.0
  0
INSERT
  5
255C5
330
2548A
100
AcDbEntity
  8
D-STR-DIM
370
    -2
100
AcDbBlockReference
  2
_Origin
 10
3070.955013586005
 20
8745.150352417004
 30
0.0
 41
10.0
 42
10.0
 43
10.0
 50
180.0
  0
INSERT
  5
255C6
330
2548A
100
AcDbEntity
  8
D-STR-DIM
370
    -2
100
AcDbBlockReference
  2
_Origin
 10
3570.95500608005
 20
8745.150352417004
 30
0.0
 41
10.0
 42
10.0
 43
10.0
  0
MTEXT
  5
255C7
330
2548A
100
AcDbEntity
  8
D-STR-DIM
100
AcDbMText
 10
3320.955009833028
 20
8800.150352417004
 30
0.0
 40
70.0
 41
0.0
 71
     5
 72
     1
  1
\A1;500
 73
     1
 44
1.0
1001
ACAD
1000
MTEXTBEGIN
1070
    73
1070
     1
1070
    44
1040
1.0
1070
    74
1070
     0
1000
MTEXTEND
  0
POINT
  5
255C8
330
2548A
100
AcDbEntity
  8
DEFPOINTS
 62
     0
100
AcDbPoint
 10
3070.955013586005
 20
8572.053909980876
 30
0.0
  0
POINT
  5
255C9
330
2548A
100
AcDbEntity
  8
DEFPOINTS
 62
     0
100
AcDbPoint
 10
3570.95500608005
 20
8572.053909980876
 30
0.0
  0
POINT
  5
255CA
330
2548A
100
AcDbEntity
  8
DEFPOINTS
 62
     0
100
AcDbPoint
 10
3570.95500608005
 20
8745.150352417004
 30
0.0
  0
ENDBLK
  5
25495
330
2548A
100
AcDbEntity
  8
0
100
AcDbBlockEnd
  0
BLOCK
  5
25538
330
25530
100
AcDbEntity
  8
0
100
AcDbBlockBegin
  2
*D14
 70
     1
 10
0.0
 20
0.0
 30
0.0
  3
*D14
  1

  0
LINE
  5
255DA
330
25530
100
AcDbEntity
  8
D-STR-DIM
370
    -2
100
AcDbLine
 10
6991.175265598947
 20
8805.150552135527
 30
0.0
 11
7471.175265598947
 21
8805.150552135527
 31
0.0
  0
INSERT
  5
255DB
330
25530
100
AcDbEntity
  8
D-STR-DIM
370
    -2
100
AcDbBlockReference
  2
_Origin
 10
6981.175265598948
 20
8805.150552135527
 30
0.0
 41
10.0
 42
10.0
 43
10.0
 50
180.0
  0
INSERT
  5
255DC
330
25530
100
AcDbEntity
  8
D-STR-DIM
370
    -2
100
AcDbBlockReference
  2
_Origin
 10
7481.175265598948
 20
8805.150552135527
 30
0.0
 41
10.0
 42
10.0
 43
10.0
  0
MTEXT
  5
255DD
330
25530
100
AcDbEntity
  8
D-STR-DIM
100
AcDbMText
 10
7231.175265598948
 20
8860.150552135529
 30
0.0
 40
70.0
 41
0.0
 71
     5
 72
     1
  1
\A1;500
 73
     1
 44
1.0
1001
ACAD
1000
MTEXTBEGIN
1070
    73
1070
     1
1070
    44
1040
1.0
1070
    74
1070
     0
1000
MTEXTEND
  0
POINT
  5
255DE
330
25530
100
AcDbEntity
  8
DEFPOINTS
 62
     0
100
AcDbPoint
 10
6981.175265598948
 20
8632.054109699401
 30
0.0
  0
POINT
  5
255DF
330
25530
100
AcDbEntity
  8
DEFPOINTS
 62
     0
100
AcDbPoint
 10
7481.175265598948
 20
8632.054109699401
 30
0.0
  0
POINT
  5
255E0
330
25530
100
AcDbEntity
  8
DEFPOINTS
 62
     0
100
AcDbPoint
 10
7481.175265598948
 20
8805.150552135527
 30
0.0
  0
ENDBLK
  5
25539
330
25530
100
AcDbEntity
  8
0
100
AcDbBlockEnd
  0
BLOCK
  5
25543
330
2553A
100
AcDbEntity
  8
0
100
AcDbBlockBegin
  2
*D15
 70
     1
 10
0.0
 20
0.0
 30
0.0
  3
*D15
  1

  0
LINE
  5
255E1
330
2553A
100
AcDbEntity
  8
D-STR-DIM
370
    -2
100
AcDbLine
 10
7481.175265598948
 20
8652.054109699401
 30
0.0
 11
7481.175265598948
 21
8825.150552135529
 31
0.0
  0
LINE
  5
255E2
330
2553A
100
AcDbEntity
  8
D-STR-DIM
370
    -2
100
AcDbLine
 10
7491.175265598947
 20
8805.150552135527
 30
0.0
 11
8071.175265598947
 21
8805.150552135527
 31
0.0
  0
INSERT
  5
255E3
330
2553A
100
AcDbEntity
  8
D-STR-DIM
370
    -2
100
AcDbBlockReference
  2
_Origin
 10
7481.175265598948
 20
8805.150552135527
 30
0.0
 41
10.0
 42
10.0
 43
10.0
 50
180.0
  0
INSERT
  5
255E4
330
2553A
100
AcDbEntity
  8
D-STR-DIM
370
    -2
100
AcDbBlockReference
  2
_Origin
 10
8081.175265598949
 20
8805.150552135527
 30
0.0
 41
10.0
 42
10.0
 43
10.0
  0
MTEXT
  5
255E5
330
2553A
100
AcDbEntity
  8
D-STR-DIM
100
AcDbMText
 10
7781.175265598948
 20
8860.150552135529
 30
0.0
 40
70.0
 41
0.0
 71
     5
 72
     1
  1
\A1;600
 73
     1
 44
1.0
1001
ACAD
1000
MTEXTBEGIN
1070
    73
1070
     1
1070
    44
1040
1.0
1070
    74
1070
     0
1000
MTEXTEND
  0
POINT
  5
255E6
330
2553A
100
AcDbEntity
  8
DEFPOINTS
 62
     0
100
AcDbPoint
 10
7481.175265598948
 20
8632.054109699401
 30
0.0
  0
POINT
  5
255E7
330
2553A
100
AcDbEntity
  8
DEFPOINTS
 62
     0
100
AcDbPoint
 10
8081.175265598949
 20
8632.054109699401
 30
0.0
  0
POINT
  5
255E8
330
2553A
100
AcDbEntity
  8
DEFPOINTS
 62
     0
100
AcDbPoint
 10
8081.175265598949
 20
8805.150552135527
 30
0.0
  0
ENDBLK
  5
25544
330
2553A
100
AcDbEntity
  8
0
100
AcDbBlockEnd
  0
BLOCK
  5
2554E
330
25545
100
AcDbEntity
  8
0
100
AcDbBlockBegin
  2
*D16
 70
     1
 10
0.0
 20
0.0
 30
0.0
  3
*D16
  1

  0
LINE
  5
255E9
330
25545
100
AcDbEntity
  8
D-STR-DIM
370
    -2
100
AcDbLine
 10
8081.175265598949
 20
8652.054109699401
 30
0.0
 11
8081.175265598949
 21
8825.150552135529
 31
0.0
  0
LINE
  5
255EA
330
25545
100
AcDbEntity
  8
D-STR-DIM
370
    -2
100
AcDbLine
 10
8091.175265598947
 20
8805.150552135527
 30
0.0
 11
8571.175258092994
 21
8805.150552135527
 31
0.0
  0
INSERT
  5
255EB
330
25545
100
AcDbEntity
  8
D-STR-DIM
370
    -2
100
AcDbBlockReference
  2
_Origin
 10
8081.175265598949
 20
8805.150552135527
 30
0.0
 41
10.0
 42
10.0
 43
10.0
 50
180.0
  0
INSERT
  5
255EC
330
25545
100
AcDbEntity
  8
D-STR-DIM
370
    -2
100
AcDbBlockReference
  2
_Origin
 10
8581.175258092994
 20
8805.150552135527
 30
0.0
 41
10.0
 42
10.0
 43
10.0
  0
MTEXT
  5
255ED
330
25545
100
AcDbEntity
  8
D-STR-DIM
100
AcDbMText
 10
8331.17526184597
 20
8860.150552135529
 30
0.0
 40
70.0
 41
0.0
 71
     5
 72
     1
  1
\A1;500
 73
     1
 44
1.0
1001
ACAD
1000
MTEXTBEGIN
1070
    73
1070
     1
1070
    44
1040
1.0
1070
    74
1070
     0
1000
MTEXTEND
  0
POINT
  5
255EE
330
25545
100
AcDbEntity
  8
DEFPOINTS
 62
     0
100
AcDbPoint
 10
8081.175265598949
 20
8632.054109699401
 30
0.0
  0
POINT
  5
255EF
330
25545
100
AcDbEntity
  8
DEFPOINTS
 62
     0
100
AcDbPoint
 10
8581.175258092994
 20
8632.054109699401
 30
0.0
  0
POINT
  5
255F0
330
25545
100
AcDbEntity
  8
DEFPOINTS
 62
     0
100
AcDbPoint
 10
8581.175258092994
 20
8805.150552135527
 30
0.0
  0
ENDBLK
  5
2554F
330
25545
100
AcDbEntity
  8
0
100
AcDbBlockEnd
  0
BLOCK
  5
25589
330
25580
100
AcDbEntity
  8
0
100
AcDbBlockBegin
  2
*D17
 70
     1
 10
0.0
 20
0.0
 30
0.0
  3
*D17
  1

  0
LINE
  5
255F8
330
25580
100
AcDbEntity
  8
D-STR-DIM
370
    -2
100
AcDbLine
 10
12662.338222583
 20
8592.053909980876
 30
0.0
 11
12662.338222583
 21
8765.150352417004
 31
0.0
  0
LINE
  5
255F9
330
25580
100
AcDbEntity
  8
D-STR-DIM
370
    -2
100
AcDbLine
 10
12672.338222583
 20
8745.150352417004
 30
0.0
 11
13252.338222583
 21
8745.150352417004
 31
0.0
  0
INSERT
  5
255FA
330
25580
100
AcDbEntity
  8
D-STR-DIM
370
    -2
100
AcDbBlockReference
  2
_Origin
 10
12662.338222583
 20
8745.150352417004
 30
0.0
 41
10.0
 42
10.0
 43
10.0
 50
180.0
  0
INSERT
  5
255FB
330
25580
100
AcDbEntity
  8
D-STR-DIM
370
    -2
100
AcDbBlockReference
  2
_Origin
 10
13262.338222583
 20
8745.150352417004
 30
0.0
 41
10.0
 42
10.0
 43
10.0
  0
MTEXT
  5
255FC
330
25580
100
AcDbEntity
  8
D-STR-DIM
100
AcDbMText
 10
12962.338222583
 20
8800.150352417004
 30
0.0
 40
70.0
 41
0.0
 71
     5
 72
     1
  1
\A1;600
 73
     1
 44
1.0
1001
ACAD
1000
MTEXTBEGIN
1070
    73
1070
     1
1070
    44
1040
1.0
1070
    74
1070
     0
1000
MTEXTEND
  0
POINT
  5
255FD
330
25580
100
AcDbEntity
  8
DEFPOINTS
 62
     0
100
AcDbPoint
 10
12662.338222583
 20
8572.053909980876
 30
0.0
  0
POINT
  5
255FE
330
25580
100
AcDbEntity
  8
DEFPOINTS
 62
     0
100
AcDbPoint
 10
13262.338222583
 20
8572.053909980876
 30
0.0
  0
POINT
  5
255FF
330
25580
100
AcDbEntity
  8
DEFPOINTS
 62
     0
100
AcDbPoint
 10
13262.338222583
 20
8745.150352417004
 30
0.0
  0
ENDBLK
  5
2558A
330
25580
100
AcDbEntity
  8
0
100
AcDbBlockEnd
  0
BLOCK
  5
25593
330
2558B
100
AcDbEntity
  8
0
100
AcDbBlockBegin
  2
*D18
 70
     1
 10
0.0
 20
0.0
 30
0.0
  3
*D18
  1

  0
LINE
  5
255F1
330
2558B
100
AcDbEntity
  8
D-STR-DIM
370
    -2
100
AcDbLine
 10
12172.338222583
 20
8745.150352417004
 30
0.0
 11
12652.338222583
 21
8745.150352417004
 31
0.0
  0
INSERT
  5
255F2
330
2558B
100
AcDbEntity
  8
D-STR-DIM
370
    -2
100
AcDbBlockReference
  2
_Origin
 10
12162.338222583
 20
8745.150352417004
 30
0.0
 41
10.0
 42
10.0
 43
10.0
 50
180.0
  0
INSERT
  5
255F3
330
2558B
100
AcDbEntity
  8
D-STR-DIM
370
    -2
100
AcDbBlockReference
  2
_Origin
 10
12662.338222583
 20
8745.150352417004
 30
0.0
 41
10.0
 42
10.0
 43
10.0
  0
MTEXT
  5
255F4
330
2558B
100
AcDbEntity
  8
D-STR-DIM
100
AcDbMText
 10
12412.338222583
 20
8800.150352417004
 30
0.0
 40
70.0
 41
0.0
 71
     5
 72
     1
  1
\A1;500
 73
     1
 44
1.0
1001
ACAD
1000
MTEXTBEGIN
1070
    73
1070
     1
1070
    44
1040
1.0
1070
    74
1070
     0
1000
MTEXTEND
  0
POINT
  5
255F5
330
2558B
100
AcDbEntity
  8
DEFPOINTS
 62
     0
100
AcDbPoint
 10
12162.338222583
 20
8572.053909980876
 30
0.0
  0
POINT
  5
255F6
330
2558B
100
AcDbEntity
  8
DEFPOINTS
 62
     0
100
AcDbPoint
 10
12662.338222583
 20
8572.053909980876
 30
0.0
  0
POINT
  5
255F7
330
2558B
100
AcDbEntity
  8
DEFPOINTS
 62
     0
100
AcDbPoint
 10
12662.338222583
 20
8745.150352417004
 30
0.0
  0
ENDBLK
  5
25594
330
2558B
100
AcDbEntity
  8
0
100
AcDbBlockEnd
  0
BLOCK
  5
2559E
330
25595
100
AcDbEntity
  8
0
100
AcDbBlockBegin
  2
*D19
 70
     1
 10
0.0
 20
0.0
 30
0.0
  3
*D19
  1

  0
LINE
  5
25600
330
25595
100
AcDbEntity
  8
D-STR-DIM
370
    -2
100
AcDbLine
 10
13262.338222583
 20
8592.053909980876
 30
0.0
 11
13262.338222583
 21
8765.150352417004
 31
0.0
  0
LINE
  5
25601
330
25595
100
AcDbEntity
  8
D-STR-DIM
370
    -2
100
AcDbLine
 10
13272.338222583
 20
8745.150352417004
 30
0.0
 11
13752.33821507704
 21
8745.150352417004
 31
0.0
  0
INSERT
  5
25602
330
25595
100
AcDbEntity
  8
D-STR-DIM
370
    -2
100
AcDbBlockReference
  2
_Origin
 10
13262.338222583
 20
8745.150352417004
 30
0.0
 41
10.0
 42
10.0
 43
10.0
 50
180.0
  0
INSERT
  5
25603
330
25595
100
AcDbEntity
  8
D-STR-DIM
370
    -2
100
AcDbBlockReference
  2
_Origin
 10
13762.33821507704
 20
8745.150352417004
 30
0.0
 41
10.0
 42
10.0
 43
10.0
  0
MTEXT
  5
25604
330
25595
100
AcDbEntity
  8
D-STR-DIM
100
AcDbMText
 10
13512.33821883002
 20
8800.150352417004
 30
0.0
 40
70.0
 41
0.0
 71
     5
 72
     1
  1
\A1;500
 73
     1
 44
1.0
1001
ACAD
1000
MTEXTBEGIN
1070
    73
1070
     1
1070
    44
1040
1.0
1070
    74
1070
     0
1000
MTEXTEND
  0
POINT
  5
25605
330
25595
100
AcDbEntity
  8
DEFPOINTS
 62
     0
100
AcDbPoint
 10
13262.338222583
 20
8572.053909980876
 30
0.0
  0
POINT
  5
25606
330
25595
100
AcDbEntity
  8
DEFPOINTS
 62
     0
100
AcDbPoint
 10
13762.33821507704
 20
8572.053909980876
 30
0.0
  0
POINT
  5
25607
330
25595
100
AcDbEntity
  8
DEFPOINTS
 62
     0
100
AcDbPoint
 10
13762.33821507704
 20
8745.150352417004
 30
0.0
  0
ENDBLK
  5
2559F
330
25595
100
AcDbEntity
  8
0
100
AcDbBlockEnd
  0
ENDSEC
  0
SECTION
  2
ENTITIES
  0
MTEXT
  5
74C
330
1F
100
AcDbEntity
  8
D-TTL-LINE
 62
     2
100
AcDbMText
 10
21100.96900863203
 20
11716.83874632694
 30
0.0
 40
140.0
 41
0.0
 71
     4
 72
     5
  1
 
 73
     1
 44
1.0
1001
ACAD
1000
MTEXTBEGIN
1070
    73
1070
     1
1070
    44
1040
1.0
1070
    74
1070
     0
1000
MTEXTEND
  0
MTEXT
  5
140A2
330
1F
100
AcDbEntity
  8
D-STR
 62
     2
100
AcDbMText
 10
133389.7438006938
 20
208126.6376526392
 30
0.0
 40
140.0
 41
0.0
 71
     4
 72
     1
  1
 
 73
     1
 44
1.0
1001
ACAD
1000
MTEXTBEGIN
1070
    73
1070
     1
1070
    44
1040
1.0
1070
    74
1070
     0
1000
MTEXTEND
  0
MTEXT
  5
170AD
330
1F
100
AcDbEntity
  8
D-STR
 62
     2
100
AcDbMText
 10
221722.4650715356
 20
207229.3774545898
 30
0.0
 40
140.0
 41
0.0
 71
     4
 72
     1
  1
 
 73
     1
 44
1.0
1001
ACAD
1000
MTEXTBEGIN
1070
    73
1070
     1
1070
    44
1040
1.0
1070
    74
1070
     0
1000
MTEXTEND
  0
LWPOLYLINE
  5
1F458
330
1F
100
AcDbEntity
  8
D-TTL
  6
Continuous
100
AcDbPolyline
 90
        4
 70
     1
 43
0.0
 10
0.0
 20
11879.99995240002
 10
16819.99993279995
 20
11879.99995240002
 10
16819.99993279995
 20
0.0
 10
0.0
 20
0.0
  0
LWPOLYLINE
  5
1F459
330
1F
100
AcDbEntity
  8
D-TTL
  6
Continuous
100
AcDbPolyline
 90
        4
 70
     1
 43
0.0
 10
800.0
 20
11479.99995240003
 10
16419.99993279995
 20
11479.99995240003
 10
16419.99993279995
 20
400.0
 10
800.0
 20
400.0
  0
LINE
  5
21BEC
330
1F
100
AcDbEntity
  8
D-TTL-FRAM
 48
20.0
100
AcDbLine
 10
16419.99993371339
 20
1599.999993589328
 30
0.0
 11
14419.99994172685
 21
1599.999993589328
 31
0.0
  0
LINE
  5
21BF3
330
1F
100
AcDbEntity
  8
D-TTL-FRAM
 48
20.0
100
AcDbLine
 10
14419.99994172685
 20
1599.999993589328
 30
0.0
 11
14419.99994172685
 21
399.9999983974072
 31
0.0
  0
TEXT
  5
2209C
330
1F
100
AcDbEntity
  8
D-TTL-TXT
  6
Continuous
100
AcDbText
 10
16005.63366108791
 20
11361.78187022015
 30
0.0
 40
69.9999997195286
  1
A4A05
 72
     4
 11
16168.96699376682
 21
11396.78187007991
 31
0.0
100
AcDbText
  0
LINE
  5
2209D
330
1F
100
AcDbEntity
  8
D-TTL-TXT
  6
Continuous
100
AcDbLine
 10
15679.99993667822
 20
11479.99995400271
 30
0.0
 11
16419.99993371327
 21
11479.99995400271
 31
0.0
  0
LINE
  5
2209E
330
1F
100
AcDbEntity
  8
D-TTL-TXT
  6
Continuous
100
AcDbLine
 10
15679.99993667822
 20
11319.9999546438
 30
0.0
 11
16419.99993371327
 21
11319.9999546438
 31
0.0
  0
TEXT
  5
220B9
330
1F
100
AcDbEntity
  8
D-TTL-TXT
  6
Continuous
100
AcDbText
 10
15731.42849647237
 20
11359.99995448351
 30
0.0
 40
69.9999997195286
  1
図番
100
AcDbText
  0
LINE
  5
220BA
330
1F
100
AcDbEntity
  8
D-TTL-TXT
  6
Continuous
100
AcDbLine
 10
15679.99993667822
 20
11479.99995400271
 30
0.0
 11
15679.99993667822
 21
11319.9999546438
 31
0.0
  0
LINE
  5
220BB
330
1F
100
AcDbEntity
  8
D-TTL-TXT
  6
Continuous
100
AcDbLine
 10
15919.99993571663
 20
11479.99995400271
 30
0.0
 11
15919.99993571663
 21
11319.9999546438
 31
0.0
  0
LINE
  5
220BC
330
1F
100
AcDbEntity
  8
D-TTL-TXT
  6
Continuous
100
AcDbLine
 10
16419.99993371327
 20
11479.99995400271
 30
0.0
 11
16419.99993371327
 21
11319.9999546438
 31
0.0
  0
TEXT
  5
220BD
330
1F
100
AcDbEntity
  8
D-TTL-TXT
100
AcDbText
 10
11748.45694671459
 20
11027.68936812968
 30
0.0
 40
99.99999000000102
  1
S = 1/20
100
AcDbText
  0
TEXT
  5
220BE
330
1F
100
AcDbEntity
  8
D-TTL-TXT
100
AcDbText
 10
4007.84297177002
 20
11035.6901673296
 30
0.0
 40
200.0
  1
Ｃ．Ｃ．ＢＯＸ　（Ｂ－1,200×Ｈ－1,500）　継壁詳細図
100
AcDbText
  0
TEXT
  5
2490D
330
1F
100
AcDbEntity
  8
D-STR-DIM
100
AcDbText
 10
8364.315279110392
 20
9348.054106340487
 30
0.0
 40
70.0
  1
260
100
AcDbText
  0
TEXT
  5
2490E
330
1F
100
AcDbEntity
  8
D-STR-DIM
100
AcDbText
 10
8344.31527920422
 20
6048.054721821514
 30
0.0
 40
70.0
  1
300
100
AcDbText
  0
TEXT
  5
2490F
330
1F
100
AcDbEntity
  8
D-STR-DIM
100
AcDbText
 10
8356.066059149023
 20
9048.05470774785
 30
0.0
 40
70.0
  1
148.5
100
AcDbText
  0
CIRCLE
  5
24911
330
1F
100
AcDbEntity
  8
D-STR-STR2
  6
Continuous
100
AcDbCircle
 10
8432.675478789658
 20
8132.053712045014
 30
0.0
 40
34.99999783580725
  0
LINE
  5
24912
330
1F
100
AcDbEntity
  8
D-STR-DIM
  6
Continuous
100
AcDbLine
 10
8321.175279312717
 20
9332.054306415544
 30
0.0
 11
8451.175298702867
 21
9332.054306415544
 31
0.0
  0
LINE
  5
24913
330
1F
100
AcDbEntity
  8
D-STR-DIM
  6
Continuous
100
AcDbLine
 10
8281.175279500367
 20
6032.053921896578
 30
0.0
 11
8431.17529879669
 21
6032.053921896578
 31
0.0
  0
LINE
  5
24914
330
1F
100
AcDbEntity
  8
D-STR-DIM
  6
Continuous
100
AcDbLine
 10
8581.175278093001
 20
6332.054320489208
 30
0.0
 11
8331.175259265798
 21
6332.054320489208
 31
0.0
  0
LINE
  5
24915
330
1F
100
AcDbEntity
  8
D-STR-DIM
  6
Continuous
100
AcDbLine
 10
8432.675478789658
 20
9032.053907822914
 30
0.0
 11
7781.17588184596
 21
9032.053907822914
 31
0.0
  0
LINE
  5
24916
330
1F
100
AcDbEntity
  8
D-STR-DIM
  6
Continuous
100
AcDbLine
 10
8581.175278093001
 20
5732.054523303942
 30
0.0
 11
7781.175261845972
 21
5732.054523303942
 31
0.0
  0
LINE
  5
24917
330
1F
100
AcDbEntity
  8
D-BMK
  6
CENTER2
100
AcDbLine
 10
8367.675479094584
 20
8132.053712045014
 30
0.0
 11
8497.675478484726
 21
8132.053712045014
 31
0.0
  0
LINE
  5
24918
330
1F
100
AcDbEntity
  8
D-STR
  6
Continuous
100
AcDbLine
 10
6981.175265598948
 20
8632.054109699401
 30
0.0
 11
8581.175278093001
 21
8632.054109699401
 31
0.0
  0
LINE
  5
24919
330
1F
100
AcDbEntity
  8
D-STR
  6
Continuous
100
AcDbLine
 10
6981.175265598948
 20
6732.054318612719
 30
0.0
 11
8581.175278093001
 21
6732.054318612719
 31
0.0
  0
TEXT
  5
24933
330
1F
100
AcDbEntity
  8
D-STR-DIM
100
AcDbText
 10
3354.095207097369
 20
9288.05370662196
 30
0.0
 40
70.0
  1
260
100
AcDbText
  0
TEXT
  5
24934
330
1F
100
AcDbEntity
  8
D-STR-DIM
100
AcDbText
 10
3334.095207191193
 20
5988.05432210299
 30
0.0
 40
70.0
  1
300
100
AcDbText
  0
TEXT
  5
24935
330
1F
100
AcDbEntity
  8
D-STR-DIM
100
AcDbText
 10
3345.84580713608
 20
8988.054308029324
 30
0.0
 40
70.0
  1
148.5
100
AcDbText
  0
CIRCLE
  5
24936
330
1F
100
AcDbEntity
  8
D-STR-STR2
  6
Continuous
100
AcDbCircle
 10
3422.455606776694
 20
8072.054512326483
 30
0.0
 40
34.99999783580725
  0
LINE
  5
24937
330
1F
100
AcDbEntity
  8
D-STR-DIM
  6
Continuous
100
AcDbLine
 10
3310.955407299756
 20
9272.054106697018
 30
0.0
 11
3440.955406689897
 21
9272.054106697018
 31
0.0
  0
LINE
  5
24938
330
1F
100
AcDbEntity
  8
D-STR-DIM
  6
Continuous
100
AcDbLine
 10
3270.955207487412
 20
5972.054722178047
 30
0.0
 11
3420.955406783724
 21
5972.054722178047
 31
0.0
  0
LINE
  5
24939
330
1F
100
AcDbEntity
  8
D-STR-DIM
  6
Continuous
100
AcDbLine
 10
3570.95500608005
 20
6272.054120770683
 30
0.0
 11
3320.955407252845
 21
6272.054120770683
 31
0.0
  0
LINE
  5
2493A
330
1F
100
AcDbEntity
  8
D-STR-DIM
  6
Continuous
100
AcDbLine
 10
3422.455606776694
 20
8972.054708104382
 30
0.0
 11
2770.955809833005
 21
8972.054708104382
 31
0.0
  0
LINE
  5
2493B
330
1F
100
AcDbEntity
  8
D-STR-DIM
  6
Continuous
100
AcDbLine
 10
3570.95500608005
 20
5672.054323585415
 30
0.0
 11
2770.955209833025
 21
5672.054323585415
 31
0.0
  0
LINE
  5
2493C
330
1F
100
AcDbEntity
  8
D-BMK
  6
CENTER2
100
AcDbLine
 10
3357.455607081625
 20
8072.054512326483
 30
0.0
 11
3487.455606471765
 21
8072.054512326483
 31
0.0
  0
LINE
  5
2493D
330
1F
100
AcDbEntity
  8
D-STR
  6
Continuous
100
AcDbLine
 10
1970.955013586004
 20
8572.053909980876
 30
0.0
 11
3570.95500608005
 21
8572.053909980876
 31
0.0
  0
LINE
  5
2493E
330
1F
100
AcDbEntity
  8
D-STR
  6
Continuous
100
AcDbLine
 10
1970.955013586004
 20
6672.053918894196
 30
0.0
 11
3570.95500608005
 21
6672.053918894196
 31
0.0
  0
LINE
  5
2493F
330
1F
100
AcDbEntity
  8
D-STR-DIM
  6
Continuous
100
AcDbLine
 10
2119.456412889304
 20
8592.053909980876
 30
0.0
 11
2119.456412889304
 21
8727.604755680092
 31
0.0
  0
LINE
  5
24940
330
1F
100
AcDbEntity
  8
D-STR-DIM
  6
Continuous
100
AcDbLine
 10
1970.955013586004
 20
8592.053909980876
 30
0.0
 11
1970.955013586004
 21
9302.053706556284
 31
0.0
  0
LINE
  5
24941
330
1F
100
AcDbEntity
  8
D-STR-DIM
  6
Continuous
100
AcDbLine
 10
2230.955212366283
 20
8942.054108245121
 30
0.0
 11
2230.955212366283
 21
8848.257106420554
 31
0.0
  0
LINE
  5
24942
330
1F
100
AcDbEntity
  8
D-STR-DIM
  6
Continuous
100
AcDbLine
 10
2830.955009551555
 20
8942.054108245121
 30
0.0
 11
2830.955009551555
 21
8848.257106420554
 31
0.0
  0
LINE
  5
24943
330
1F
100
AcDbEntity
  8
D-STR-DIM
  6
Continuous
100
AcDbLine
 10
2960.95520894169
 20
8942.054108245121
 30
0.0
 11
2960.95520894169
 21
8848.257106420554
 31
0.0
  0
LINE
  5
24944
330
1F
100
AcDbEntity
  8
D-STR-DIM
  6
Continuous
100
AcDbLine
 10
3310.955407299756
 20
8942.054108245121
 30
0.0
 11
3310.955407299756
 21
8848.257106420554
 31
0.0
  0
LINE
  5
24945
330
1F
100
AcDbEntity
  8
D-STR-DIM
  6
Continuous
100
AcDbLine
 10
1970.955013586004
 20
6652.053918894195
 30
0.0
 11
1970.955013586004
 21
5642.05472372615
 31
0.0
  0
LINE
  5
24946
330
1F
100
AcDbEntity
  8
D-STR-DIM
  6
Continuous
100
AcDbLine
 10
1970.955013586004
 20
5672.054323585415
 30
0.0
 11
2770.955209833025
 21
5672.054323585415
 31
0.0
  0
CIRCLE
  5
24947
330
1F
100
AcDbEntity
  8
D-STR-DIM
  6
Continuous
100
AcDbCircle
 10
1970.955013586004
 20
5672.054323585415
 30
0.0
 40
5.999997971852679
  0
TEXT
  5
24948
330
1F
100
AcDbEntity
  8
D-STR-DIM
100
AcDbText
 10
2652.095210390635
 20
5688.053923510357
 30
0.0
 40
70.0
  1
1600
100
AcDbText
  0
TEXT
  5
24949
330
1F
100
AcDbEntity
  8
D-STR-DIM
100
AcDbText
 10
2034.09521328978
 20
5988.05432210299
 30
0.0
 40
70.0
  1
300
100
AcDbText
  0
CIRCLE
  5
2494A
330
1F
100
AcDbEntity
  8
D-STR-STR2
  6
Continuous
100
AcDbCircle
 10
2119.456412889304
 20
8072.054512326483
 30
0.0
 40
34.99999783580725
  0
LINE
  5
2494B
330
1F
100
AcDbEntity
  8
D-STR-DIM
  6
Continuous
100
AcDbLine
 10
1970.955013586004
 20
5972.054722178047
 30
0.0
 11
2120.955212882316
 21
5972.054722178047
 31
0.0
  0
LINE
  5
2494C
330
1F
100
AcDbEntity
  8
D-STR-DIM
  6
Continuous
100
AcDbLine
 10
1970.955013586004
 20
6272.054120770683
 30
0.0
 11
2220.955212413195
 21
6272.054120770683
 31
0.0
  0
LINE
  5
2494D
330
1F
100
AcDbEntity
  8
D-BMK
  6
CENTER2
100
AcDbLine
 10
2054.456413194232
 20
8072.054512326483
 30
0.0
 11
2184.456612584367
 21
8072.054512326483
 31
0.0
  0
LINE
  5
2494E
330
1F
100
AcDbEntity
  8
D-STR-HTXT
  6
Continuous
100
AcDbLine
 10
2443.406411369622
 20
6798.966318298821
 30
0.0
 11
1770.955214524245
 21
6272.054120770683
 31
0.0
  0
LINE
  5
2494F
330
1F
100
AcDbEntity
  8
D-STR-DIM
  6
Continuous
100
AcDbLine
 10
1570.955215462487
 20
6820.553918197548
 30
0.0
 11
1570.955215462487
 21
7446.304115262018
 31
0.0
  0
LINE
  5
24950
330
1F
100
AcDbEntity
  8
D-STR
  6
Continuous
100
AcDbLine
 10
1970.955013586004
 20
6672.053918894196
 30
0.0
 11
1970.955013586004
 21
8572.053909980876
 31
0.0
  0
TEXT
  5
24951
330
1F
100
AcDbEntity
  8
D-STR-HTXT
100
AcDbText
 10
1266.018054435088
 20
6288.054720695621
 30
0.0
 40
70.0
  1
　継壁固定部
100
AcDbText
  0
LINE
  5
24952
330
1F
100
AcDbEntity
  8
D-STR-HTXT
  6
Continuous
100
AcDbLine
 10
1326.48199213593
 20
6272.054120770683
 30
0.0
 11
1770.955214524245
 21
6272.054120770683
 31
0.0
  0
CIRCLE
  5
24953
330
1F
100
AcDbEntity
  8
D-STR-DIM
  6
Continuous
100
AcDbCircle
 10
1970.955013586004
 20
5972.054722178047
 30
0.0
 40
5.999997971852679
  0
CIRCLE
  5
24954
330
1F
100
AcDbEntity
  8
D-STR-DIM
  6
Continuous
100
AcDbCircle
 10
1970.955013586004
 20
6272.054120770683
 30
0.0
 40
5.999997971852679
  0
LINE
  5
24955
330
1F
100
AcDbEntity
  8
D-STR-DIM
  6
Continuous
100
AcDbLine
 10
1950.955013586004
 20
6820.553918197548
 30
0.0
 11
1540.955615603212
 21
6820.553918197548
 31
0.0
  0
LINE
  5
24956
330
1F
100
AcDbEntity
  8
D-STR-DIM
  6
Continuous
100
AcDbLine
 10
1950.955013586004
 20
6672.053918894196
 30
0.0
 11
1540.955615603212
 21
6672.053918894196
 31
0.0
  0
TEXT
  5
24957
330
1F
100
AcDbEntity
  8
D-STR-DIM
100
AcDbText
 10
1554.95561553755
 20
6595.443519253592
 30
0.0
 40
70.0
  1
148.5
 50
90.0
100
AcDbText
  0
CIRCLE
  5
24958
330
1F
100
AcDbEntity
  8
D-STR-DIM
  6
Continuous
100
AcDbCircle
 10
1570.955215462487
 20
6820.553918197548
 30
0.0
 40
5.999997971852679
  0
CIRCLE
  5
24959
330
1F
100
AcDbEntity
  8
D-STR-DIM
  6
Continuous
100
AcDbCircle
 10
1570.955215462487
 20
6672.053918894196
 30
0.0
 40
5.999997971852679
  0
LINE
  5
2495A
330
1F
100
AcDbEntity
  8
D-STR-DIM
  6
Continuous
100
AcDbLine
 10
1570.955215462487
 20
6672.053918894196
 30
0.0
 11
1570.955215462487
 21
6746.303918545873
 31
0.0
  0
LINE
  5
2495B
330
1F
100
AcDbEntity
  8
D-STR-DIM
  6
Continuous
100
AcDbLine
 10
1570.955215462487
 20
6820.553918197548
 30
0.0
 11
1570.955215462487
 21
6746.303918545873
 31
0.0
  0
LINE
  5
2495C
330
1F
100
AcDbEntity
  8
D-STR-DIM
  6
Continuous
100
AcDbLine
 10
1570.955215462487
 20
8072.054512326483
 30
0.0
 11
1570.955215462487
 21
7446.304115262018
 31
0.0
  0
TEXT
  5
2495D
330
1F
100
AcDbEntity
  8
D-STR-DIM
100
AcDbText
 10
1554.95561553755
 20
7263.444516119854
 30
0.0
 40
70.0
  1
1251.5
 50
90.0
100
AcDbText
  0
LINE
  5
2495E
330
1F
100
AcDbEntity
  8
D-STR-DIM
  6
Continuous
100
AcDbLine
 10
1950.955013586004
 20
8072.054512326483
 30
0.0
 11
1540.955615603212
 21
8072.054512326483
 31
0.0
  0
LINE
  5
2495F
330
1F
100
AcDbEntity
  8
D-STR-DIM
  6
Continuous
100
AcDbLine
 10
1950.955013586004
 20
8572.053909980876
 30
0.0
 11
1540.955615603212
 21
8572.053909980876
 31
0.0
  0
TEXT
  5
24960
330
1F
100
AcDbEntity
  8
D-STR-DIM
100
AcDbText
 10
1554.95561553755
 20
8235.194511561159
 30
0.0
 40
70.0
  1
500
 50
90.0
100
AcDbText
  0
LINE
  5
24961
330
1F
100
AcDbEntity
  8
D-STR-DIM
  6
Continuous
100
AcDbLine
 10
1570.955215462487
 20
8072.054512326483
 30
0.0
 11
1570.955215462487
 21
8322.054111153679
 31
0.0
  0
CIRCLE
  5
24962
330
1F
100
AcDbEntity
  8
D-STR-DIM
  6
Continuous
100
AcDbCircle
 10
1570.955215462487
 20
8072.054512326483
 30
0.0
 40
5.999997971852679
  0
CIRCLE
  5
24963
330
1F
100
AcDbEntity
  8
D-STR-DIM
  6
Continuous
100
AcDbCircle
 10
1570.955215462487
 20
8572.053909980876
 30
0.0
 40
5.999997971852679
  0
LINE
  5
24964
330
1F
100
AcDbEntity
  8
D-STR-DIM
  6
Continuous
100
AcDbLine
 10
1570.955215462487
 20
8572.053909980876
 30
0.0
 11
1570.955215462487
 21
8322.054111153679
 31
0.0
  0
LINE
  5
24965
330
1F
100
AcDbEntity
  8
D-STR-STR2
  6
Continuous
100
AcDbLine
 10
2270.955412178628
 20
7272.054716079459
 30
0.0
 11
2320.956611944032
 21
7222.054116314023
 31
0.0
  0
LINE
  5
24966
330
1F
100
AcDbEntity
  8
D-STR-STR2
  6
Continuous
100
AcDbLine
 10
3220.956407721937
 20
7222.054116314023
 30
0.0
 11
3270.956607487369
 21
7272.053716079463
 31
0.0
  0
LINE
  5
24967
330
1F
100
AcDbEntity
  8
D-STR
  6
DASHED1
100
AcDbLine
 10
3370.955007018296
 20
6972.054317486827
 30
0.0
 11
3370.955007018296
 21
8272.054511388239
 31
0.0
  0
LINE
  5
24968
330
1F
100
AcDbEntity
  8
D-STR
  6
DASHED1
100
AcDbLine
 10
2170.955412647749
 20
6972.054317486827
 30
0.0
 11
2170.955412647749
 21
8272.054511388239
 31
0.0
  0
TEXT
  5
24969
330
1F
100
AcDbEntity
  8
D-STR-DIM
100
AcDbText
 10
2684.095210240488
 20
6288.054720695621
 30
0.0
 40
70.0
  1
600
100
AcDbText
  0
TEXT
  5
2496A
330
1F
100
AcDbEntity
  8
D-STR-DIM
100
AcDbText
 10
2652.095210390635
 20
5988.05432210299
 30
0.0
 40
70.0
  1
1000
100
AcDbText
  0
LINE
  5
2496B
330
1F
100
AcDbEntity
  8
D-STR-DIM
  6
Continuous
100
AcDbLine
 10
2470.955411240382
 20
6272.054120770683
 30
0.0
 11
2770.955209833025
 21
6272.054120770683
 31
0.0
  0
LINE
  5
2496C
330
1F
100
AcDbEntity
  8
D-STR-DIM
  6
Continuous
100
AcDbLine
 10
2270.955412178628
 20
5972.054722178047
 30
0.0
 11
2770.955209833025
 21
5972.054722178047
 31
0.0
  0
LINE
  5
2496D
330
1F
100
AcDbEntity
  8
D-STR-STR2
  6
Continuous
100
AcDbLine
 10
2320.95521194407
 20
7222.054116314023
 30
0.0
 11
3220.955407721966
 21
7222.054116314023
 31
0.0
  0
LINE
  5
2496E
330
1F
100
AcDbEntity
  8
D-STR
  6
DASHED1
100
AcDbLine
 10
2270.955412178628
 20
6872.053917955951
 30
0.0
 11
3270.955207487412
 21
6872.053917955951
 31
0.0
  0
LINE
  5
2496F
330
1F
100
AcDbEntity
  8
D-STR-DIM
  6
Continuous
100
AcDbLine
 10
2470.955411240382
 20
6652.053918894195
 30
0.0
 11
2470.955411240382
 21
6242.054520911419
 31
0.0
  0
LINE
  5
24970
330
1F
100
AcDbEntity
  8
D-STR-DIM
  6
Continuous
100
AcDbLine
 10
2270.955412178628
 20
6642.05431903493
 30
0.0
 11
2270.955412178628
 21
6406.332120140757
 31
0.0
  0
LINE
  5
24971
330
1F
100
AcDbEntity
  8
D-STR-DIM
  6
Continuous
100
AcDbLine
 10
2470.955411240382
 20
6272.054120770683
 30
0.0
 11
2220.955212413195
 21
6272.054120770683
 31
0.0
  0
LINE
  5
24972
330
1F
100
AcDbEntity
  8
D-STR-DIM
  6
Continuous
100
AcDbLine
 10
2270.955412178628
 20
6252.054120770683
 30
0.0
 11
2270.955412178628
 21
5942.054122318786
 31
0.0
  0
LINE
  5
24973
330
1F
100
AcDbEntity
  8
D-STR-DIM
  6
Continuous
100
AcDbLine
 10
2270.955412178628
 20
5972.054722178047
 30
0.0
 11
2120.955212882316
 21
5972.054722178047
 31
0.0
  0
CIRCLE
  5
24974
330
1F
100
AcDbEntity
  8
D-STR-DIM
  6
Continuous
100
AcDbCircle
 10
2270.955412178628
 20
5972.054722178047
 30
0.0
 40
5.999997971852679
  0
TEXT
  5
24975
330
1F
100
AcDbEntity
  8
D-STR-DIM
100
AcDbText
 10
2134.095012820664
 20
6288.054720695621
 30
0.0
 40
70.0
  1
500
100
AcDbText
  0
CIRCLE
  5
24976
330
1F
100
AcDbEntity
  8
D-STR-DIM
  6
Continuous
100
AcDbCircle
 10
2470.955411240382
 20
6272.054120770683
 30
0.0
 40
5.999997971852679
  0
LINE
  5
24977
330
1F
100
AcDbEntity
  8
D-STR-HTXT
  6
Continuous
100
AcDbLine
 10
2407.569611537707
 20
6779.847118388516
 30
0.0
 11
2443.405411369651
 21
6798.966318298821
 31
0.0
  0
LINE
  5
24978
330
1F
100
AcDbEntity
  8
D-BMK
  6
CENTER2
100
AcDbLine
 10
2405.955411545314
 20
6820.553918197548
 30
0.0
 11
2535.955410935454
 21
6820.553918197548
 31
0.0
  0
LINE
  5
24979
330
1F
100
AcDbEntity
  8
D-STR
  6
DASHED1
100
AcDbLine
 10
2270.956412178599
 20
6872.053917955951
 30
0.0
 11
2170.95641264772
 21
6972.054317486827
 31
0.0
  0
CIRCLE
  5
2497A
330
1F
100
AcDbEntity
  8
D-STR-STR2
  6
Continuous
100
AcDbCircle
 10
2470.955411240382
 20
6820.553918197548
 30
0.0
 40
34.99999783580725
  0
CIRCLE
  5
2497B
330
1F
100
AcDbEntity
  8
D-STR-STR2
  6
Continuous
100
AcDbCircle
 10
2470.955411240382
 20
6820.553918197548
 30
0.0
 40
14.99999792963168
  0
LINE
  5
2497C
330
1F
100
AcDbEntity
  8
D-BMK
  6
CENTER2
100
AcDbLine
 10
2470.955411240382
 20
6885.554517892619
 30
0.0
 11
2470.955411240382
 21
6755.554318502477
 31
0.0
  0
LINE
  5
2497D
330
1F
100
AcDbEntity
  8
D-STR-DIM
  6
Continuous
100
AcDbLine
 10
3070.955208425658
 20
6652.053918894195
 30
0.0
 11
3070.955208425658
 21
6242.054520911419
 31
0.0
  0
LINE
  5
2497E
330
1F
100
AcDbEntity
  8
D-STR-DIM
  6
Continuous
100
AcDbLine
 10
3270.955207487412
 20
6642.05431903493
 30
0.0
 11
3270.955207487412
 21
6406.332120140757
 31
0.0
  0
CIRCLE
  5
2497F
330
1F
100
AcDbEntity
  8
D-STR-DIM
  6
Continuous
100
AcDbCircle
 10
3070.955208425658
 20
6272.054120770683
 30
0.0
 40
5.999997971852679
  0
LINE
  5
24980
330
1F
100
AcDbEntity
  8
D-STR-DIM
  6
Continuous
100
AcDbLine
 10
3070.955208425658
 20
6272.054120770683
 30
0.0
 11
3320.955407252845
 21
6272.054120770683
 31
0.0
  0
LINE
  5
24981
330
1F
100
AcDbEntity
  8
D-STR-DIM
  6
Continuous
100
AcDbLine
 10
3270.955207487412
 20
5972.054722178047
 30
0.0
 11
2770.955209833025
 21
5972.054722178047
 31
0.0
  0
LINE
  5
24982
330
1F
100
AcDbEntity
  8
D-STR-DIM
  6
Continuous
100
AcDbLine
 10
3070.955208425658
 20
6272.054120770683
 30
0.0
 11
2770.955209833025
 21
6272.054120770683
 31
0.0
  0
LINE
  5
24983
330
1F
100
AcDbEntity
  8
D-STR-DIM
  6
Continuous
100
AcDbLine
 10
3270.955207487412
 20
6252.054120770683
 30
0.0
 11
3270.955207487412
 21
5942.054122318786
 31
0.0
  0
CIRCLE
  5
24984
330
1F
100
AcDbEntity
  8
D-STR-DIM
  6
Continuous
100
AcDbCircle
 10
3270.955207487412
 20
5972.054722178047
 30
0.0
 40
5.999997971852679
  0
TEXT
  5
24985
330
1F
100
AcDbEntity
  8
D-STR-DIM
100
AcDbText
 10
3234.095207660314
 20
6288.054720695621
 30
0.0
 40
70.0
  1
500
100
AcDbText
  0
CIRCLE
  5
24986
330
1F
100
AcDbEntity
  8
D-STR-STR2
  6
Continuous
100
AcDbCircle
 10
3070.955208425658
 20
6820.553918197548
 30
0.0
 40
34.99999783580725
  0
CIRCLE
  5
24987
330
1F
100
AcDbEntity
  8
D-STR-STR2
  6
Continuous
100
AcDbCircle
 10
3070.955208425658
 20
6820.553918197548
 30
0.0
 40
14.99999792963168
  0
LINE
  5
24988
330
1F
100
AcDbEntity
  8
D-BMK
  6
CENTER2
100
AcDbLine
 10
3005.955208730586
 20
6820.553918197548
 30
0.0
 11
3135.955208120726
 21
6820.553918197548
 31
0.0
  0
LINE
  5
24989
330
1F
100
AcDbEntity
  8
D-BMK
  6
CENTER2
100
AcDbLine
 10
3070.955208425658
 20
6885.554517892619
 30
0.0
 11
3070.955208425658
 21
6755.554318502477
 31
0.0
  0
LINE
  5
2498A
330
1F
100
AcDbEntity
  8
D-STR
  6
DASHED1
100
AcDbLine
 10
3370.955007018296
 20
6972.055317486824
 30
0.0
 11
3270.955207487412
 21
6872.054917955947
 31
0.0
  0
TEXT
  5
2498B
330
1F
100
AcDbEntity
  8
D-STR-HTXT
100
AcDbText
 10
2492.095011141235
 20
7590.054514587652
 30
0.0
 40
70.0
  1
1,000×800
100
AcDbText
  0
LINE
  5
2498C
330
1F
100
AcDbEntity
  8
D-STR-STR2
  6
Continuous
100
AcDbLine
 10
2230.955212366283
 20
8362.054310966028
 30
0.0
 11
2830.955009551555
 21
8362.054310966028
 31
0.0
  0
LINE
  5
2498D
330
1F
100
AcDbEntity
  8
D-STR-STR2
  6
Continuous
100
AcDbLine
 10
2230.955212366283
 20
8162.054511904273
 30
0.0
 11
2830.955009551555
 21
8162.054511904273
 31
0.0
  0
LINE
  5
2498E
330
1F
100
AcDbEntity
  8
D-STR-STR2
  6
Continuous
100
AcDbLine
 10
2320.95521194407
 20
8022.053712561048
 30
0.0
 11
3220.955407721966
 21
8022.053712561048
 31
0.0
  0
LINE
  5
2498F
330
1F
100
AcDbEntity
  8
D-STR
  6
DASHED1
100
AcDbLine
 10
2270.955412178628
 20
8372.053910919118
 30
0.0
 11
3270.955207487412
 21
8372.053910919118
 31
0.0
  0
LINE
  5
24990
330
1F
100
AcDbEntity
  8
D-STR-STR2
  6
Continuous
100
AcDbLine
 10
2270.955412178628
 20
7272.053716079463
 30
0.0
 11
2270.955412178628
 21
7972.054112795605
 31
0.0
  0
TEXT
  5
24991
330
1F
100
AcDbEntity
  8
D-STR-HTXT
100
AcDbText
 10
2359.455603093055
 20
8202.054711716625
 30
0.0
 40
50.0
  1
600×200
100
AcDbText
  0
TEXT
  5
24992
330
1F
100
AcDbEntity
  8
D-STR-HTXT
100
AcDbText
 10
2353.501148490479
 20
8274.054111378857
 30
0.0
 40
50.0
  1
ノックアウト
100
AcDbText
  0
LINE
  5
24993
330
1F
100
AcDbEntity
  8
D-STR-STR2
  6
Continuous
100
AcDbLine
 10
2230.955212366283
 20
8162.054511904273
 30
0.0
 11
2230.955212366283
 21
8362.054310966028
 31
0.0
  0
LINE
  5
24994
330
1F
100
AcDbEntity
  8
D-STR
  6
DASHED1
100
AcDbLine
 10
2170.95641264772
 20
8272.054511388239
 30
0.0
 11
2270.956412178599
 21
8372.054910919114
 31
0.0
  0
CIRCLE
  5
24995
330
1F
100
AcDbEntity
  8
D-STR-STR2
  6
Continuous
100
AcDbCircle
 10
2119.456412889304
 20
8072.054512326483
 30
0.0
 40
14.99999792963168
  0
LINE
  5
24996
330
1F
100
AcDbEntity
  8
D-BMK
  6
CENTER2
100
AcDbLine
 10
2119.456412889304
 20
8137.054112021553
 30
0.0
 11
2119.456412889304
 21
8007.053912631414
 31
0.0
  0
LINE
  5
24997
330
1F
100
AcDbEntity
  8
D-STR-STR2
  6
Continuous
100
AcDbLine
 10
2320.95521194407
 20
8022.053712561048
 30
0.0
 11
2270.955412178628
 21
7972.054112795605
 31
0.0
  0
LINE
  5
24998
330
1F
100
AcDbEntity
  8
D-STR-STR2
  6
Continuous
100
AcDbLine
 10
3270.955207487412
 20
7272.053716079463
 30
0.0
 11
3270.955207487412
 21
7972.054112795605
 31
0.0
  0
TEXT
  5
24999
330
1F
100
AcDbEntity
  8
D-STR-HTXT
100
AcDbText
 10
2971.032563886016
 20
8177.054311833904
 30
0.0
 40
50.0
  1
350×250
100
AcDbText
  0
TEXT
  5
2499A
330
1F
100
AcDbEntity
  8
D-STR-HTXT
100
AcDbText
 10
2968.578500596614
 20
8249.053711496143
 30
0.0
 40
50.0
  1
ノックアウト
100
AcDbText
  0
LINE
  5
2499B
330
1F
100
AcDbEntity
  8
D-STR-STR2
  6
Continuous
100
AcDbLine
 10
2960.95520894169
 20
8112.054712138833
 30
0.0
 11
3310.955407299756
 21
8112.054712138833
 31
0.0
  0
LINE
  5
2499C
330
1F
100
AcDbEntity
  8
D-STR-STR2
  6
Continuous
100
AcDbLine
 10
2960.95520894169
 20
8362.054310966028
 30
0.0
 11
3310.955407299756
 21
8362.054310966028
 31
0.0
  0
LINE
  5
2499D
330
1F
100
AcDbEntity
  8
D-STR-STR2
  6
Continuous
100
AcDbLine
 10
2830.955009551555
 20
8162.054511904273
 30
0.0
 11
2830.955009551555
 21
8362.054310966028
 31
0.0
  0
LINE
  5
2499E
330
1F
100
AcDbEntity
  8
D-STR-STR2
  6
Continuous
100
AcDbLine
 10
2960.95520894169
 20
8112.054712138833
 30
0.0
 11
2960.95520894169
 21
8362.054310966028
 31
0.0
  0
LINE
  5
2499F
330
1F
100
AcDbEntity
  8
D-STR-STR2
  6
Continuous
100
AcDbLine
 10
3310.955407299756
 20
8112.054712138833
 30
0.0
 11
3310.955407299756
 21
8362.054310966028
 31
0.0
  0
LINE
  5
249A0
330
1F
100
AcDbEntity
  8
D-STR
  6
DASHED1
100
AcDbLine
 10
3270.956607487369
 20
8372.053910919118
 30
0.0
 11
3370.955007018296
 21
8272.054511388239
 31
0.0
  0
LINE
  5
249A1
330
1F
100
AcDbEntity
  8
D-STR-STR2
  6
Continuous
100
AcDbLine
 10
3270.955207487412
 20
7972.055112795603
 30
0.0
 11
3220.955407721966
 21
8022.053712561048
 31
0.0
  0
TEXT
  5
249A2
330
1F
100
AcDbEntity
  8
D-STR-DIM
100
AcDbText
 10
1921.842213816402
 20
8988.054308029324
 30
0.0
 40
70.0
  1
148.5
100
AcDbText
  0
TEXT
  5
249A3
330
1F
100
AcDbEntity
  8
D-STR-DIM
100
AcDbText
 10
2014.095613383593
 20
9288.05370662196
 30
0.0
 40
70.0
  1
260
100
AcDbText
  0
LINE
  5
249A4
330
1F
100
AcDbEntity
  8
D-STR-DIM
  6
Continuous
100
AcDbLine
 10
2119.456412889304
 20
8972.054708104382
 30
0.0
 11
2045.205613237693
 21
8972.054708104382
 31
0.0
  0
LINE
  5
249A5
330
1F
100
AcDbEntity
  8
D-STR-DIM
  6
Continuous
100
AcDbLine
 10
1970.955013586004
 20
9272.054106697018
 30
0.0
 11
2100.95521297614
 21
9272.054106697018
 31
0.0
  0
CIRCLE
  5
249AC
330
1F
100
AcDbEntity
  8
D-STR-DIM
  6
Continuous
100
AcDbCircle
 10
1970.955013586004
 20
8972.054708104382
 30
0.0
 40
5.999997971852679
  0
CIRCLE
  5
249AD
330
1F
100
AcDbEntity
  8
D-STR-DIM
  6
Continuous
100
AcDbCircle
 10
1970.955013586004
 20
9272.054106697018
 30
0.0
 40
5.999997971852679
  0
LINE
  5
249AE
330
1F
100
AcDbEntity
  8
D-STR-DIM
  6
Continuous
100
AcDbLine
 10
1970.955013586004
 20
8972.054708104382
 30
0.0
 11
2045.205613237693
 21
8972.054708104382
 31
0.0
  0
TEXT
  5
249B1
330
1F
100
AcDbEntity
  8
D-STR-DIM
100
AcDbText
 10
2652.095210390635
 20
8988.054308029324
 30
0.0
 40
70.0
  1
1303
100
AcDbText
  0
LINE
  5
249B3
330
1F
100
AcDbEntity
  8
D-STR-DIM
  6
Continuous
100
AcDbLine
 10
2119.456412889304
 20
8972.054708104382
 30
0.0
 11
2770.955809833005
 21
8972.054708104382
 31
0.0
  0
LINE
  5
249B4
330
1F
100
AcDbEntity
  8
D-STR-DIM
  6
Continuous
100
AcDbLine
 10
2830.955009551555
 20
9272.054106697018
 30
0.0
 11
2530.955210958917
 21
9272.054106697018
 31
0.0
  0
TEXT
  5
249B5
330
1F
100
AcDbEntity
  8
D-STR-DIM
100
AcDbText
 10
2444.095011366386
 20
9288.05370662196
 30
0.0
 40
70.0
  1
600
100
AcDbText
  0
LINE
  5
249B6
330
1F
100
AcDbEntity
  8
D-STR-DIM
  6
Continuous
100
AcDbLine
 10
2230.955212366283
 20
9063.921507673416
 30
0.0
 11
2230.955212366283
 21
9302.053706556284
 31
0.0
  0
LINE
  5
249B7
330
1F
100
AcDbEntity
  8
D-STR-DIM
  6
Continuous
100
AcDbLine
 10
2230.955212366283
 20
9272.054106697018
 30
0.0
 11
2530.955210958917
 21
9272.054106697018
 31
0.0
  0
CIRCLE
  5
249B8
330
1F
100
AcDbEntity
  8
D-STR-DIM
  6
Continuous
100
AcDbCircle
 10
2119.456412889304
 20
8972.054708104382
 30
0.0
 40
5.999997971852679
  0
CIRCLE
  5
249B9
330
1F
100
AcDbEntity
  8
D-STR-DIM
  6
Continuous
100
AcDbCircle
 10
2230.955212366283
 20
9272.054106697018
 30
0.0
 40
5.999997971852679
  0
LINE
  5
249BA
330
1F
100
AcDbEntity
  8
D-STR-DIM
  6
Continuous
100
AcDbLine
 10
2230.955212366283
 20
9272.054106697018
 30
0.0
 11
2100.95521297614
 21
9272.054106697018
 31
0.0
  0
TEXT
  5
249BB
330
1F
100
AcDbEntity
  8
D-STR-DIM
100
AcDbText
 10
3049.09520852819
 20
9288.05370662196
 30
0.0
 40
70.0
  1
350
100
AcDbText
  0
TEXT
  5
249BC
330
1F
100
AcDbEntity
  8
D-STR-DIM
100
AcDbText
 10
2809.095409654077
 20
9288.05370662196
 30
0.0
 40
70.0
  1
130
100
AcDbText
  0
LINE
  5
249BD
330
1F
100
AcDbEntity
  8
D-STR-DIM
  6
Continuous
100
AcDbLine
 10
3310.955407299756
 20
9063.921507673416
 30
0.0
 11
3310.955407299756
 21
9302.053706556284
 31
0.0
  0
LINE
  5
249BE
330
1F
100
AcDbEntity
  8
D-STR-DIM
  6
Continuous
100
AcDbLine
 10
2830.955009551555
 20
9063.921507673416
 30
0.0
 11
2830.955009551555
 21
9302.053706556284
 31
0.0
  0
LINE
  5
249BF
330
1F
100
AcDbEntity
  8
D-STR-DIM
  6
Continuous
100
AcDbLine
 10
2960.95520894169
 20
9063.921507673416
 30
0.0
 11
2960.95520894169
 21
9302.053706556284
 31
0.0
  0
LINE
  5
249C0
330
1F
100
AcDbEntity
  8
D-STR-DIM
  6
Continuous
100
AcDbLine
 10
2960.95520894169
 20
9272.054106697018
 30
0.0
 11
3135.955208120726
 21
9272.054106697018
 31
0.0
  0
LINE
  5
249C1
330
1F
100
AcDbEntity
  8
D-STR-DIM
  6
Continuous
100
AcDbLine
 10
2960.95520894169
 20
9272.054106697018
 30
0.0
 11
2895.955209246618
 21
9272.054106697018
 31
0.0
  0
CIRCLE
  5
249C2
330
1F
100
AcDbEntity
  8
D-STR-DIM
  6
Continuous
100
AcDbCircle
 10
2830.955009551555
 20
9272.054106697018
 30
0.0
 40
5.999997971852679
  0
LINE
  5
249C3
330
1F
100
AcDbEntity
  8
D-STR-DIM
  6
Continuous
100
AcDbLine
 10
2830.955009551555
 20
9272.054106697018
 30
0.0
 11
2895.955209246618
 21
9272.054106697018
 31
0.0
  0
CIRCLE
  5
249C4
330
1F
100
AcDbEntity
  8
D-STR-DIM
  6
Continuous
100
AcDbCircle
 10
2960.95520894169
 20
9272.054106697018
 30
0.0
 40
5.999997971852679
  0
LINE
  5
249C5
330
1F
100
AcDbEntity
  8
D-STR-DIM
  6
Continuous
100
AcDbLine
 10
3310.955407299756
 20
9272.054106697018
 30
0.0
 11
3135.955208120726
 21
9272.054106697018
 31
0.0
  0
CIRCLE
  5
249C6
330
1F
100
AcDbEntity
  8
D-STR-DIM
  6
Continuous
100
AcDbCircle
 10
3310.955407299756
 20
9272.054106697018
 30
0.0
 40
5.999997971852679
  0
LINE
  5
249C9
330
1F
100
AcDbEntity
  8
D-STR-DIM
  6
Continuous
100
AcDbLine
 10
6581.175467475429
 20
8632.054109699401
 30
0.0
 11
6581.175467475429
 21
8382.054510872206
 31
0.0
  0
LINE
  5
249CA
330
1F
100
AcDbEntity
  8
D-STR-DIM
  6
Continuous
100
AcDbLine
 10
3570.95500608005
 20
8592.053909980876
 30
0.0
 11
3570.95500608005
 21
9302.053706556284
 31
0.0
  0
LINE
  5
249CB
330
1F
100
AcDbEntity
  8
D-STR-DIM
  6
Continuous
100
AcDbLine
 10
3422.455606776694
 20
8592.053909980876
 30
0.0
 11
3422.455606776694
 21
8727.604755680092
 31
0.0
  0
LINE
  5
249CC
330
1F
100
AcDbEntity
  8
D-STR
  6
Continuous
100
AcDbLine
 10
6981.175265598948
 20
6732.054318612719
 30
0.0
 11
6981.175265598948
 21
8632.054109699401
 31
0.0
  0
LINE
  5
249D6
330
1F
100
AcDbEntity
  8
D-STR-DIM
  6
Continuous
100
AcDbLine
 10
3570.95500608005
 20
6652.053918894195
 30
0.0
 11
3570.95500608005
 21
5642.05472372615
 31
0.0
  0
CIRCLE
  5
249D7
330
1F
100
AcDbEntity
  8
D-STR-DIM
  6
Continuous
100
AcDbCircle
 10
3570.95500608005
 20
5672.054323585415
 30
0.0
 40
5.999997971852679
  0
TEXT
  5
249D8
330
1F
100
AcDbEntity
  8
D-STR-DIM
100
AcDbText
 10
4758.956400506868
 20
7983.286312742913
 30
0.0
 40
70.0
  1
φ70
 50
90.0
100
AcDbText
  0
LINE
  5
249D9
330
1F
100
AcDbEntity
  8
D-STR-DIM
  6
Continuous
100
AcDbLine
 10
4950.956599512291
 20
8117.05391211538
 30
0.0
 11
4540.956601529517
 21
8117.05391211538
 31
0.0
  0
LINE
  5
249DA
330
1F
100
AcDbEntity
  8
D-STR-DIM
  6
Continuous
100
AcDbLine
 10
4950.956599512291
 20
8027.054112537589
 30
0.0
 11
4540.956601529517
 21
8027.054112537589
 31
0.0
  0
LINE
  5
249DB
330
1F
100
AcDbEntity
  8
D-STR-DIM
  6
Continuous
100
AcDbLine
 10
3600.95520593931
 20
6672.053918894196
 30
0.0
 11
4940.956399653035
 21
6672.053918894196
 31
0.0
  0
LINE
  5
249DC
330
1F
100
AcDbEntity
  8
D-STR-DIM
  6
Continuous
100
AcDbLine
 10
3600.95520593931
 20
8572.053909980876
 30
0.0
 11
4940.956399653035
 21
8572.053909980876
 31
0.0
  0
LINE
  5
249DD
330
1F
100
AcDbEntity
  8
D-STR-DIM
  6
Continuous
100
AcDbLine
 10
3970.955404203549
 20
7222.054116314023
 30
0.0
 11
3970.955404203549
 21
7622.053914437535
 31
0.0
  0
LINE
  5
249DE
330
1F
100
AcDbEntity
  8
D-STR-DIM
  6
Continuous
100
AcDbLine
 10
4270.955202796191
 20
6672.053918894196
 30
0.0
 11
4270.955202796191
 21
7622.053914437535
 31
0.0
  0
LINE
  5
249DF
330
1F
100
AcDbEntity
  8
D-STR
  6
Continuous
100
AcDbLine
 10
3570.95500608005
 20
6672.053918894196
 30
0.0
 11
3570.95500608005
 21
8572.053909980876
 31
0.0
  0
TEXT
  5
249E0
330
1F
100
AcDbEntity
  8
D-STR-DIM
100
AcDbText
 10
4067.275003751682
 20
6860.194318011586
 30
0.0
 40
70.0
  1
550
 50
90.0
100
AcDbText
  0
LINE
  5
249E1
330
1F
100
AcDbEntity
  8
D-STR-DIM
  6
Continuous
100
AcDbLine
 10
3570.95500608005
 20
5972.054722178047
 30
0.0
 11
3420.955406783724
 21
5972.054722178047
 31
0.0
  0
CIRCLE
  5
249E2
330
1F
100
AcDbEntity
  8
D-STR-DIM
  6
Continuous
100
AcDbCircle
 10
3570.95500608005
 20
5972.054722178047
 30
0.0
 40
5.999997971852679
  0
CIRCLE
  5
249E3
330
1F
100
AcDbEntity
  8
D-STR-DIM
  6
Continuous
100
AcDbCircle
 10
3570.95500608005
 20
6272.054120770683
 30
0.0
 40
5.999997971852679
  0
LINE
  5
249E4
330
1F
100
AcDbEntity
  8
D-STR-DIM
  6
Continuous
100
AcDbLine
 10
3590.955006080051
 20
7222.054116314023
 30
0.0
 11
4000.955004062824
 21
7222.054116314023
 31
0.0
  0
LINE
  5
249E5
330
1F
100
AcDbEntity
  8
D-STR-DIM
  6
Continuous
100
AcDbLine
 10
3970.955404203549
 20
6672.053918894196
 30
0.0
 11
3970.955404203549
 21
6947.054117604108
 31
0.0
  0
CIRCLE
  5
249E6
330
1F
100
AcDbEntity
  8
D-STR-DIM
  6
Continuous
100
AcDbCircle
 10
3970.955404203549
 20
6672.053918894196
 30
0.0
 40
5.999997971852679
  0
CIRCLE
  5
249E7
330
1F
100
AcDbEntity
  8
D-STR-DIM
  6
Continuous
100
AcDbCircle
 10
3970.955404203549
 20
7222.054116314023
 30
0.0
 40
5.999997971852679
  0
LINE
  5
249E8
330
1F
100
AcDbEntity
  8
D-STR-DIM
  6
Continuous
100
AcDbLine
 10
3970.955404203549
 20
7222.054116314023
 30
0.0
 11
3970.955404203549
 21
6947.054117604108
 31
0.0
  0
CIRCLE
  5
249E9
330
1F
100
AcDbEntity
  8
D-STR-DIM
  6
Continuous
100
AcDbCircle
 10
4270.955202796191
 20
6672.053918894196
 30
0.0
 40
5.999997971852679
  0
TEXT
  5
249EA
330
1F
100
AcDbEntity
  8
D-STR-DIM
100
AcDbText
 10
4067.275003751682
 20
8012.193912607299
 30
0.0
 40
70.0
  1
90
 50
90.0
100
AcDbText
  0
TEXT
  5
249EB
330
1F
100
AcDbEntity
  8
D-STR-DIM
100
AcDbText
 10
4067.275003751682
 20
8380.194510880931
 30
0.0
 40
70.0
  1
210
 50
90.0
100
AcDbText
  0
LINE
  5
249EC
330
1F
100
AcDbEntity
  8
D-STR-DIM
  6
Continuous
100
AcDbLine
 10
3970.955404203549
 20
8022.053712561048
 30
0.0
 11
3970.955404203549
 21
7622.053914437535
 31
0.0
  0
TEXT
  5
249ED
330
1F
100
AcDbEntity
  8
D-STR-DIM
100
AcDbText
 10
3954.955204278631
 20
7535.194314845013
 30
0.0
 40
70.0
  1
800
 50
90.0
100
AcDbText
  0
LINE
  5
249EE
330
1F
100
AcDbEntity
  8
D-STR-DIM
  6
Continuous
100
AcDbLine
 10
3590.955006080051
 20
8022.053712561048
 30
0.0
 11
4000.955004062824
 21
8022.053712561048
 31
0.0
  0
LINE
  5
249EF
330
1F
100
AcDbEntity
  8
D-STR-DIM
  6
Continuous
100
AcDbLine
 10
3590.955006080051
 20
8362.054310966028
 30
0.0
 11
4000.955004062824
 21
8362.054310966028
 31
0.0
  0
LINE
  5
249F0
330
1F
100
AcDbEntity
  8
D-STR-DIM
  6
Continuous
100
AcDbLine
 10
3590.955006080051
 20
8112.054712138833
 30
0.0
 11
4000.955004062824
 21
8112.054712138833
 31
0.0
  0
CIRCLE
  5
249F1
330
1F
100
AcDbEntity
  8
D-STR-STR2
  6
Continuous
100
AcDbCircle
 10
3422.455606776694
 20
8072.054512326483
 30
0.0
 40
14.99999792963168
  0
LINE
  5
249F2
330
1F
100
AcDbEntity
  8
D-BMK
  6
CENTER2
100
AcDbLine
 10
3422.455606776694
 20
8137.054112021553
 30
0.0
 11
3422.455606776694
 21
8007.053912631414
 31
0.0
  0
TEXT
  5
249F3
330
1F
100
AcDbEntity
  8
D-STR-DIM
100
AcDbText
 10
3954.955204278631
 20
8150.193911959911
 30
0.0
 40
70.0
  1
250
 50
90.0
100
AcDbText
  0
LINE
  5
249F4
330
1F
100
AcDbEntity
  8
D-STR-DIM
  6
Continuous
100
AcDbLine
 10
3970.955404203549
 20
8362.054310966028
 30
0.0
 11
3970.955404203549
 21
8237.054511552434
 31
0.0
  0
CIRCLE
  5
249F5
330
1F
100
AcDbEntity
  8
D-STR-DIM
  6
Continuous
100
AcDbCircle
 10
3970.955404203549
 20
8022.053712561048
 30
0.0
 40
5.999997971852679
  0
CIRCLE
  5
249F6
330
1F
100
AcDbEntity
  8
D-STR-DIM
  6
Continuous
100
AcDbCircle
 10
3970.955404203549
 20
8112.054712138833
 30
0.0
 40
5.999997971852679
  0
LINE
  5
249F7
330
1F
100
AcDbEntity
  8
D-STR-DIM
  6
Continuous
100
AcDbLine
 10
3970.955404203549
 20
8022.053712561048
 30
0.0
 11
3970.955404203549
 21
8067.054312349938
 31
0.0
  0
LINE
  5
249F8
330
1F
100
AcDbEntity
  8
D-STR-DIM
  6
Continuous
100
AcDbLine
 10
3970.955404203549
 20
8112.054712138833
 30
0.0
 11
3970.955404203549
 21
8067.054312349938
 31
0.0
  0
LINE
  5
249F9
330
1F
100
AcDbEntity
  8
D-STR-DIM
  6
Continuous
100
AcDbLine
 10
3970.955404203549
 20
8112.054712138833
 30
0.0
 11
3970.955404203549
 21
8237.054511552434
 31
0.0
  0
CIRCLE
  5
249FA
330
1F
100
AcDbEntity
  8
D-STR-DIM
  6
Continuous
100
AcDbCircle
 10
3970.955404203549
 20
8362.054310966028
 30
0.0
 40
5.999997971852679
  0
CIRCLE
  5
249FB
330
1F
100
AcDbEntity
  8
D-STR-DIM
  6
Continuous
100
AcDbCircle
 10
3970.955404203549
 20
8572.053909980876
 30
0.0
 40
5.999997971852679
  0
LINE
  5
249FC
330
1F
100
AcDbEntity
  8
D-STR-DIM
  6
Continuous
100
AcDbLine
 10
3970.955404203549
 20
8362.054310966028
 30
0.0
 11
3970.955404203549
 21
8467.054110473453
 31
0.0
  0
LINE
  5
249FD
330
1F
100
AcDbEntity
  8
D-STR-DIM
  6
Continuous
100
AcDbLine
 10
3970.955404203549
 20
8572.053909980876
 30
0.0
 11
3970.955404203549
 21
8467.054110473453
 31
0.0
  0
LINE
  5
249FE
330
1F
100
AcDbEntity
  8
D-STR-DIM
  6
Continuous
100
AcDbLine
 10
4270.955202796191
 20
8572.053909980876
 30
0.0
 11
4270.955202796191
 21
7622.053914437535
 31
0.0
  0
TEXT
  5
249FF
330
1F
100
AcDbEntity
  8
D-STR-DIM
100
AcDbText
 10
4254.955202871264
 20
7503.193914995134
 30
0.0
 40
70.0
  1
1900
 50
90.0
100
AcDbText
  0
CIRCLE
  5
24A00
330
1F
100
AcDbEntity
  8
D-STR-DIM
  6
Continuous
100
AcDbCircle
 10
4270.955202796191
 20
8572.053909980876
 30
0.0
 40
5.999997971852679
  0
TEXT
  5
24A01
330
1F
100
AcDbEntity
  8
D-STR-DIM
100
AcDbText
 10
4558.95640144511
 20
7983.286312742913
 30
0.0
 40
70.0
  1
φ90
 50
90.0
100
AcDbText
  0
CIRCLE
  5
24A02
330
1F
100
AcDbEntity
  8
D-STR-DIM
  6
Continuous
100
AcDbCircle
 10
4570.956201388791
 20
8117.05391211538
 30
0.0
 40
5.999997971852679
  0
CIRCLE
  5
24A03
330
1F
100
AcDbEntity
  8
D-STR-DIM
  6
Continuous
100
AcDbCircle
 10
4570.956201388791
 20
8027.054112537589
 30
0.0
 40
5.999997971852679
  0
LINE
  5
24A04
330
1F
100
AcDbEntity
  8
D-STR-DIM
  6
Continuous
100
AcDbLine
 10
4570.956201388791
 20
8117.05391211538
 30
0.0
 11
4570.956201388791
 21
8072.054512326483
 31
0.0
  0
LINE
  5
24A05
330
1F
100
AcDbEntity
  8
D-STR-DIM
  6
Continuous
100
AcDbLine
 10
4570.956201388791
 20
8027.054112537589
 30
0.0
 11
4570.956201388791
 21
8072.054512326483
 31
0.0
  0
LINE
  5
24A06
330
1F
100
AcDbEntity
  8
D-STR-DIM
  6
Continuous
100
AcDbLine
 10
5670.956396228445
 20
7222.054116314023
 30
0.0
 11
5670.956396228445
 21
7622.053914437535
 31
0.0
  0
LINE
  5
24A07
330
1F
100
AcDbEntity
  8
D-STR-DIM
  6
Continuous
100
AcDbLine
 10
5920.956395055636
 20
6872.053917955951
 30
0.0
 11
5920.956395055636
 21
7622.053914437535
 31
0.0
  0
LINE
  5
24A08
330
1F
100
AcDbEntity
  8
D-DCR-HCH
  6
Continuous
100
AcDbLine
 10
4988.798399428615
 20
7222.054116314023
 30
0.0
 11
5120.956598808611
 21
7354.212515694038
 31
0.0
  0
LINE
  5
24A09
330
1F
100
AcDbEntity
  8
D-DCR-HCH
  6
Continuous
100
AcDbLine
 10
5078.60059900731
 20
7222.054116314023
 30
0.0
 11
5120.956598808611
 21
7264.409716115323
 31
0.0
  0
LINE
  5
24A0A
330
1F
100
AcDbEntity
  8
D-STR
  6
Continuous
100
AcDbLine
 10
4970.95659951229
 20
6672.053918894196
 30
0.0
 11
4970.95659951229
 21
8572.053909980876
 31
0.0
  0
LINE
  5
24A0B
330
1F
100
AcDbEntity
  8
D-STR
  6
Continuous
100
AcDbLine
 10
5120.956598808611
 20
6672.053918894196
 30
0.0
 11
5120.956598808611
 21
8572.053909980876
 31
0.0
  0
LINE
  5
24A0C
330
1F
100
AcDbEntity
  8
D-STR-DIM
  6
Continuous
100
AcDbLine
 10
5140.95659880861
 20
7222.054116314023
 30
0.0
 11
5700.956396087706
 21
7222.054116314023
 31
0.0
  0
LINE
  5
24A0D
330
1F
100
AcDbEntity
  8
D-STR
  6
Continuous
100
AcDbLine
 10
4970.95659951229
 20
6672.053918894196
 30
0.0
 11
5420.956397401249
 21
6672.053918894196
 31
0.0
  0
LINE
  5
24A0E
330
1F
100
AcDbEntity
  8
D-STR
  6
Continuous
100
AcDbLine
 10
5120.956598808611
 20
6872.053917955951
 30
0.0
 11
5420.956397401249
 21
6872.053917955951
 31
0.0
  0
LINE
  5
24A0F
330
1F
100
AcDbEntity
  8
D-STR-DIM
  6
Continuous
100
AcDbLine
 10
5120.956598808611
 20
6652.053918894195
 30
0.0
 11
5120.956598808611
 21
6242.054520911419
 31
0.0
  0
LINE
  5
24A10
330
1F
100
AcDbEntity
  8
D-STR-DIM
  6
Continuous
100
AcDbLine
 10
4970.95659951229
 20
6652.053918894195
 30
0.0
 11
4970.95659951229
 21
6242.054520911419
 31
0.0
  0
TEXT
  5
24A11
330
1F
100
AcDbEntity
  8
D-STR-DIM
100
AcDbText
 10
4974.772599494397
 20
6288.054720695621
 30
0.0
 40
70.0
  1
150
100
AcDbText
  0
LINE
  5
24A12
330
1F
100
AcDbEntity
  8
D-STR-DIM
  6
Continuous
100
AcDbLine
 10
4970.95659951229
 20
6272.054120770683
 30
0.0
 11
5045.956199160464
 21
6272.054120770683
 31
0.0
  0
CIRCLE
  5
24A13
330
1F
100
AcDbEntity
  8
D-STR-DIM
  6
Continuous
100
AcDbCircle
 10
4970.95659951229
 20
6272.054120770683
 30
0.0
 40
5.999997971852679
  0
CIRCLE
  5
24A14
330
1F
100
AcDbEntity
  8
D-STR-DIM
  6
Continuous
100
AcDbCircle
 10
5120.956598808611
 20
6272.054120770683
 30
0.0
 40
5.999997971852679
  0
LINE
  5
24A15
330
1F
100
AcDbEntity
  8
D-STR-DIM
  6
Continuous
100
AcDbLine
 10
5120.956598808611
 20
6272.054120770683
 30
0.0
 11
5045.956199160464
 21
6272.054120770683
 31
0.0
  0
LINE
  5
24A16
330
1F
100
AcDbEntity
  8
D-STR
  6
DASHED1
100
AcDbLine
 10
4970.95659951229
 20
7222.054116314023
 30
0.0
 11
5120.956598808611
 21
7222.054116314023
 31
0.0
  0
LINE
  5
24A17
330
1F
100
AcDbEntity
  8
D-STR
  6
Continuous
100
AcDbLine
 10
5120.956598808611
 20
6835.553718127181
 30
0.0
 11
5020.956199277745
 21
6830.554518150638
 31
0.0
  0
LINE
  5
24A18
330
1F
100
AcDbEntity
  8
D-STR
  6
Continuous
100
AcDbLine
 10
5020.955199277774
 20
6810.553318244465
 30
0.0
 11
5120.956598808611
 21
6805.553118267923
 31
0.0
  0
LINE
  5
24A19
330
1F
100
AcDbEntity
  8
D-STR
  6
Continuous
100
AcDbLine
 10
5020.956199277745
 20
6785.553918361741
 30
0.0
 11
5020.956199277745
 21
6855.553918033355
 31
0.0
  0
LINE
  5
24A1A
330
1F
100
AcDbEntity
  8
D-STR
  6
Continuous
100
AcDbLine
 10
5020.956199277745
 20
6855.553918033355
 30
0.0
 11
4970.954999512342
 21
6865.554317986442
 31
0.0
  0
LINE
  5
24A1B
330
1F
100
AcDbEntity
  8
D-STR
  6
Continuous
100
AcDbLine
 10
4970.954999512342
 20
6775.554518408653
 30
0.0
 11
5020.955199277774
 21
6785.553918361741
 31
0.0
  0
LINE
  5
24A1C
330
1F
100
AcDbEntity
  8
D-DCR-HCH
  6
Continuous
100
AcDbLine
 10
5120.956598808611
 20
6718.012718678593
 30
0.0
 11
5209.891998391438
 21
6872.053917955951
 31
0.0
  0
LINE
  5
24A1D
330
1F
100
AcDbEntity
  8
D-DCR-HCH
  6
Continuous
100
AcDbLine
 10
5120.956598808611
 20
6758.012918490942
 30
0.0
 11
5186.797398499741
 21
6872.053917955951
 31
0.0
  0
LINE
  5
24A1E
330
1F
100
AcDbEntity
  8
D-STR
  6
Continuous
100
AcDbLine
 10
5120.956598808611
 20
6792.054518331247
 30
0.0
 11
5200.956398433318
 21
6792.054518331247
 31
0.0
  0
LINE
  5
24A1F
330
1F
100
AcDbEntity
  8
D-STR
  6
Continuous
100
AcDbLine
 10
5200.956398433318
 20
6792.054518331247
 30
0.0
 11
5200.956398433318
 21
6872.053917955951
 31
0.0
  0
LINE
  5
24A20
330
1F
100
AcDbEntity
  8
D-DCR-HCH
  6
Continuous
100
AcDbLine
 10
5244.422198229458
 20
6672.053918894196
 30
0.0
 11
5359.89219768775
 21
6872.053917955951
 31
0.0
  0
LINE
  5
24A21
330
1F
100
AcDbEntity
  8
D-DCR-HCH
  6
Continuous
100
AcDbLine
 10
5221.327398337766
 20
6672.053918894196
 30
0.0
 11
5336.797397796058
 21
6872.053917955951
 31
0.0
  0
LINE
  5
24A22
330
1F
100
AcDbEntity
  8
D-STR-DIM
  6
Continuous
100
AcDbLine
 10
5440.956397401249
 20
6872.053917955951
 30
0.0
 11
5950.956394914902
 21
6872.053917955951
 31
0.0
  0
LINE
  5
24A23
330
1F
100
AcDbEntity
  8
D-STR-DIM
  6
Continuous
100
AcDbLine
 10
5440.956397401249
 20
6672.053918894196
 30
0.0
 11
5950.956394914902
 21
6672.053918894196
 31
0.0
  0
LINE
  5
24A24
330
1F
100
AcDbEntity
  8
D-STR-DIM
  6
Continuous
100
AcDbLine
 10
5670.956396228445
 20
6872.053917955951
 30
0.0
 11
5670.956396228445
 21
7047.054517134985
 31
0.0
  0
LINE
  5
24A25
330
1F
100
AcDbEntity
  8
D-DCR-HCH
  6
Continuous
100
AcDbLine
 10
5371.327197634091
 20
6672.053918894196
 30
0.0
 11
5420.955197401287
 21
6758.012918490942
 31
0.0
  0
LINE
  5
24A26
330
1F
100
AcDbEntity
  8
D-DCR-HCH
  6
Continuous
100
AcDbLine
 10
5394.421997525707
 20
6672.05491889419
 30
0.0
 11
5420.955197401287
 21
6718.012718678593
 31
0.0
  0
CIRCLE
  5
24A27
330
1F
100
AcDbEntity
  8
D-STR-DIM
  6
Continuous
100
AcDbCircle
 10
5670.956396228445
 20
6872.053917955951
 30
0.0
 40
5.999997971852679
  0
TEXT
  5
24A28
330
1F
100
AcDbEntity
  8
D-STR-DIM
100
AcDbText
 10
5654.956396303518
 20
6960.193917542466
 30
0.0
 40
70.0
  1
350
 50
90.0
100
AcDbText
  0
CIRCLE
  5
24A29
330
1F
100
AcDbEntity
  8
D-STR-DIM
  6
Continuous
100
AcDbCircle
 10
5670.956396228445
 20
7222.054116314023
 30
0.0
 40
5.999997971852679
  0
LINE
  5
24A2A
330
1F
100
AcDbEntity
  8
D-STR-DIM
  6
Continuous
100
AcDbLine
 10
5670.956396228445
 20
7222.054116314023
 30
0.0
 11
5670.956396228445
 21
7047.054517134985
 31
0.0
  0
TEXT
  5
24A2B
330
1F
100
AcDbEntity
  8
D-STR-DIM
100
AcDbText
 10
5904.956395130714
 20
6685.193918832552
 30
0.0
 40
70.0
  1
200
 50
90.0
100
AcDbText
  0
CIRCLE
  5
24A2C
330
1F
100
AcDbEntity
  8
D-STR-DIM
  6
Continuous
100
AcDbCircle
 10
5920.956395055636
 20
6872.053917955951
 30
0.0
 40
5.999997971852679
  0
CIRCLE
  5
24A2D
330
1F
100
AcDbEntity
  8
D-STR-DIM
  6
Continuous
100
AcDbCircle
 10
5920.956395055636
 20
6672.053918894196
 30
0.0
 40
5.999997971852679
  0
LINE
  5
24A2E
330
1F
100
AcDbEntity
  8
D-STR-DIM
  6
Continuous
100
AcDbLine
 10
5920.956395055636
 20
6872.053917955951
 30
0.0
 11
5920.956395055636
 21
6772.054518425071
 31
0.0
  0
LINE
  5
24A2F
330
1F
100
AcDbEntity
  8
D-STR-DIM
  6
Continuous
100
AcDbLine
 10
5920.956395055636
 20
6672.053918894196
 30
0.0
 11
5920.956395055636
 21
6772.054518425071
 31
0.0
  0
LINE
  5
24A30
330
1F
100
AcDbEntity
  8
D-STR-DIM
  6
Continuous
100
AcDbLine
 10
5140.95659880861
 20
8022.053712561048
 30
0.0
 11
5700.956396087706
 21
8022.053712561048
 31
0.0
  0
LINE
  5
24A31
330
1F
100
AcDbEntity
  8
D-STR
  6
Continuous
100
AcDbLine
 10
4970.95659951229
 20
8572.053909980876
 30
0.0
 11
5420.956397401249
 21
8572.053909980876
 31
0.0
  0
LINE
  5
24A32
330
1F
100
AcDbEntity
  8
D-STR
  6
Continuous
100
AcDbLine
 10
5120.956598808611
 20
8372.053910919118
 30
0.0
 11
5420.956397401249
 21
8372.053910919118
 31
0.0
  0
LINE
  5
24A33
330
1F
100
AcDbEntity
  8
D-DCR-HCH
  6
Continuous
100
AcDbLine
 10
4970.95659951229
 20
7922.633113027451
 30
0.0
 11
5070.376799045913
 21
8022.053712561048
 31
0.0
  0
LINE
  5
24A34
330
1F
100
AcDbEntity
  8
D-DCR-HCH
  6
Continuous
100
AcDbLine
 10
4970.95659951229
 20
7832.83131344873
 30
0.0
 11
5120.956598808611
 21
7982.831512745049
 31
0.0
  0
LINE
  5
24A35
330
1F
100
AcDbEntity
  8
D-DCR-HCH
  6
Continuous
100
AcDbLine
 10
4970.95659951229
 20
7743.027513870024
 30
0.0
 11
5120.956598808611
 21
7893.028713166334
 31
0.0
  0
LINE
  5
24A36
330
1F
100
AcDbEntity
  8
D-DCR-HCH
  6
Continuous
100
AcDbLine
 10
4970.95659951229
 20
7653.225914291299
 30
0.0
 11
5120.956598808611
 21
7803.226113587617
 31
0.0
  0
LINE
  5
24A37
330
1F
100
AcDbEntity
  8
D-DCR-HCH
  6
Continuous
100
AcDbLine
 10
4970.95659951229
 20
7563.423114712588
 30
0.0
 11
5120.956598808611
 21
7713.423314008903
 31
0.0
  0
LINE
  5
24A38
330
1F
100
AcDbEntity
  8
D-DCR-HCH
  6
Continuous
100
AcDbLine
 10
4970.95659951229
 20
7473.62031513387
 30
0.0
 11
5120.956598808611
 21
7623.620514430186
 31
0.0
  0
LINE
  5
24A39
330
1F
100
AcDbEntity
  8
D-DCR-HCH
  6
Continuous
100
AcDbLine
 10
4970.95659951229
 20
7383.817715555155
 30
0.0
 11
5120.956598808611
 21
7533.81791485147
 31
0.0
  0
LINE
  5
24A3A
330
1F
100
AcDbEntity
  8
D-DCR-HCH
  6
Continuous
100
AcDbLine
 10
4970.95659951229
 20
7294.014915976437
 30
0.0
 11
5120.956598808611
 21
7444.015115272755
 31
0.0
  0
LINE
  5
24A3B
330
1F
100
AcDbEntity
  8
D-STR
  6
DASHED1
100
AcDbLine
 10
4970.95659951229
 20
8022.053712561048
 30
0.0
 11
5120.956598808611
 21
8022.053712561048
 31
0.0
  0
LINE
  5
24A3C
330
1F
100
AcDbEntity
  8
D-STR
  6
Continuous
100
AcDbLine
 10
5020.956199277745
 20
8062.053912373398
 30
0.0
 11
5120.955198808653
 21
8057.053712396855
 31
0.0
  0
LINE
  5
24A3D
330
1F
100
AcDbEntity
  8
D-STR
  6
Continuous
100
AcDbLine
 10
5120.955198808653
 20
8087.054312256114
 30
0.0
 11
5020.956199277745
 21
8082.054112279571
 31
0.0
  0
LINE
  5
24A3E
330
1F
100
AcDbEntity
  8
D-STR
  6
Continuous
100
AcDbLine
 10
5020.956199277745
 20
8112.054712138833
 30
0.0
 11
5020.956199277745
 21
8362.054310966028
 31
0.0
  0
LINE
  5
24A3F
330
1F
100
AcDbEntity
  8
D-STR-DIM
  6
Continuous
100
AcDbLine
 10
4950.956599512291
 20
8107.054512162289
 30
0.0
 11
4740.956400591279
 21
8107.054512162291
 31
0.0
  0
LINE
  5
24A40
330
1F
100
AcDbEntity
  8
D-STR-DIM
  6
Continuous
100
AcDbLine
 10
4950.956599512291
 20
8037.054512490676
 30
0.0
 11
4740.956400591279
 21
8037.054512490675
 31
0.0
  0
CIRCLE
  5
24A41
330
1F
100
AcDbEntity
  8
D-STR-DIM
  6
Continuous
100
AcDbCircle
 10
4770.956600450536
 20
8107.054512162291
 30
0.0
 40
5.999997971852679
  0
CIRCLE
  5
24A42
330
1F
100
AcDbEntity
  8
D-STR-DIM
  6
Continuous
100
AcDbCircle
 10
4770.956600450536
 20
8037.054512490675
 30
0.0
 40
5.999997971852679
  0
LINE
  5
24A43
330
1F
100
AcDbEntity
  8
D-STR-DIM
  6
Continuous
100
AcDbLine
 10
4770.956600450536
 20
8107.054512162291
 30
0.0
 11
4770.956600450536
 21
8072.054512326483
 31
0.0
  0
LINE
  5
24A44
330
1F
100
AcDbEntity
  8
D-STR-DIM
  6
Continuous
100
AcDbLine
 10
4770.956600450536
 20
8037.054512490675
 30
0.0
 11
4770.956600450536
 21
8072.054512326483
 31
0.0
  0
LINE
  5
24A45
330
1F
100
AcDbEntity
  8
D-DCR-HCH
  6
Continuous
100
AcDbLine
 10
4970.95659951229
 20
8012.435712606167
 30
0.0
 11
4980.574599467217
 21
8022.053712561048
 31
0.0
  0
LINE
  5
24A46
330
1F
100
AcDbEntity
  8
D-STR
  6
Continuous
100
AcDbLine
 10
5020.956199277745
 20
8107.054512162291
 30
0.0
 11
4970.95659951229
 21
8117.05391211538
 31
0.0
  0
LINE
  5
24A47
330
1F
100
AcDbEntity
  8
D-STR
  6
Continuous
100
AcDbLine
 10
4970.954999512342
 20
8027.054112537589
 30
0.0
 11
5020.955199277774
 21
8037.05371249068
 31
0.0
  0
LINE
  5
24A48
330
1F
100
AcDbEntity
  8
D-STR
  6
Continuous
100
AcDbLine
 10
5020.956199277745
 20
8037.054512490675
 30
0.0
 11
5020.956199277745
 21
8107.054512162291
 31
0.0
  0
LINE
  5
24A49
330
1F
100
AcDbEntity
  8
D-STR
  6
Continuous
100
AcDbLine
 10
4970.954999512342
 20
8152.053911951188
 30
0.0
 11
5020.955199277774
 21
8162.054511904273
 31
0.0
  0
LINE
  5
24A4A
330
1F
100
AcDbEntity
  8
D-STR
  6
Continuous
100
AcDbLine
 10
4970.954999512342
 20
8102.053112185751
 30
0.0
 11
5020.955199277774
 21
8112.053712138838
 31
0.0
  0
LINE
  5
24A4B
330
1F
100
AcDbEntity
  8
D-STR
  6
Continuous
100
AcDbLine
 10
4970.95659951229
 20
8372.053910919118
 30
0.0
 11
5020.956199277745
 21
8362.054310966028
 31
0.0
  0
LINE
  5
24A4C
330
1F
100
AcDbEntity
  8
D-STR
  6
Continuous
100
AcDbLine
 10
5070.956599043169
 20
8112.054712138833
 30
0.0
 11
5070.956599043169
 21
8362.054310966028
 31
0.0
  0
LINE
  5
24A4D
330
1F
100
AcDbEntity
  8
D-STR-DIM
  6
Continuous
100
AcDbLine
 10
5140.95659880861
 20
8057.054712396849
 30
0.0
 11
5250.956398198756
 21
8057.054712396849
 31
0.0
  0
LINE
  5
24A4E
330
1F
100
AcDbEntity
  8
D-STR-DIM
  6
Continuous
100
AcDbLine
 10
5140.95659880861
 20
8087.054312256114
 30
0.0
 11
5250.956398198756
 21
8087.054312256114
 31
0.0
  0
LINE
  5
24A4F
330
1F
100
AcDbEntity
  8
D-STR
  6
Continuous
100
AcDbLine
 10
5120.955198808653
 20
8102.054112185747
 30
0.0
 11
5070.956599043169
 21
8112.054712138833
 31
0.0
  0
LINE
  5
24A50
330
1F
100
AcDbEntity
  8
D-STR
  6
Continuous
100
AcDbLine
 10
5120.955198808653
 20
8152.053911951188
 30
0.0
 11
5070.954999043217
 21
8162.053511904279
 31
0.0
  0
TEXT
  5
24A51
330
1F
100
AcDbEntity
  8
D-STR-DIM
100
AcDbText
 10
5293.196398000619
 20
8049.636512431652
 30
0.0
 40
70.0
  1
φ30
 50
90.0
100
AcDbText
  0
CIRCLE
  5
24A52
330
1F
100
AcDbEntity
  8
D-STR-DIM
  6
Continuous
100
AcDbCircle
 10
5220.956398339491
 20
8057.054712396849
 30
0.0
 40
5.999997971852679
  0
CIRCLE
  5
24A53
330
1F
100
AcDbEntity
  8
D-STR-DIM
  6
Continuous
100
AcDbCircle
 10
5220.956398339491
 20
8087.054312256114
 30
0.0
 40
5.999997971852679
  0
LINE
  5
24A54
330
1F
100
AcDbEntity
  8
D-STR-DIM
  6
Continuous
100
AcDbLine
 10
5220.956398339491
 20
8057.054712396849
 30
0.0
 11
5220.956398339491
 21
8072.054512326483
 31
0.0
  0
LINE
  5
24A55
330
1F
100
AcDbEntity
  8
D-STR-DIM
  6
Continuous
100
AcDbLine
 10
5220.956398339491
 20
8072.054512326483
 30
0.0
 11
5220.956398339491
 21
8179.925911820433
 31
0.0
  0
LINE
  5
24A56
330
1F
100
AcDbEntity
  8
D-STR-DIM
  6
Continuous
100
AcDbLine
 10
5220.956398339491
 20
8087.054312256114
 30
0.0
 11
5220.956398339491
 21
8072.054512326483
 31
0.0
  0
LINE
  5
24A57
330
1F
100
AcDbEntity
  8
D-DCR-HCH
  6
Continuous
100
AcDbLine
 10
5120.956598808611
 20
8418.012710703518
 30
0.0
 11
5209.891998391438
 21
8572.053909980876
 31
0.0
  0
LINE
  5
24A58
330
1F
100
AcDbEntity
  8
D-STR
  6
Continuous
100
AcDbLine
 10
5120.956598808611
 20
8372.053910919118
 30
0.0
 11
5070.956599043169
 21
8362.053310966034
 31
0.0
  0
LINE
  5
24A59
330
1F
100
AcDbEntity
  8
D-DCR-HCH
  6
Continuous
100
AcDbLine
 10
5120.956598808611
 20
8458.012710515868
 30
0.0
 11
5186.798598499779
 21
8572.053909980876
 31
0.0
  0
LINE
  5
24A5A
330
1F
100
AcDbEntity
  8
D-DCR-HCH
  6
Continuous
100
AcDbLine
 10
5244.422198229458
 20
8372.053910919118
 30
0.0
 11
5359.89219768775
 21
8572.053909980876
 31
0.0
  0
LINE
  5
24A5B
330
1F
100
AcDbEntity
  8
D-DCR-HCH
  6
Continuous
100
AcDbLine
 10
5221.327398337766
 20
8372.053910919118
 30
0.0
 11
5336.797397796058
 21
8572.053909980876
 31
0.0
  0
LINE
  5
24A5C
330
1F
100
AcDbEntity
  8
D-STR-DIM
  6
Continuous
100
AcDbLine
 10
5670.956396228445
 20
8022.053712561048
 30
0.0
 11
5670.956396228445
 21
7622.053914437535
 31
0.0
  0
LINE
  5
24A5D
330
1F
100
AcDbEntity
  8
D-STR-DIM
  6
Continuous
100
AcDbLine
 10
5920.956395055636
 20
8372.053910919118
 30
0.0
 11
5920.956395055636
 21
7622.053914437535
 31
0.0
  0
TEXT
  5
24A5E
330
1F
100
AcDbEntity
  8
D-STR-DIM
100
AcDbText
 10
5654.956396303518
 20
7535.194314845013
 30
0.0
 40
70.0
  1
800
 50
90.0
100
AcDbText
  0
TEXT
  5
24A5F
330
1F
100
AcDbEntity
  8
D-STR-DIM
100
AcDbText
 10
5904.956395130714
 20
7503.193914995134
 30
0.0
 40
70.0
  1
1500
 50
90.0
100
AcDbText
  0
LINE
  5
24A60
330
1F
100
AcDbEntity
  8
D-STR-DIM
  6
Continuous
100
AcDbLine
 10
5440.956397401249
 20
8372.053910919118
 30
0.0
 11
5950.956394914902
 21
8372.053910919118
 31
0.0
  0
LINE
  5
24A61
330
1F
100
AcDbEntity
  8
D-STR-DIM
  6
Continuous
100
AcDbLine
 10
5440.956397401249
 20
8572.053909980876
 30
0.0
 11
5950.956394914902
 21
8572.053909980876
 31
0.0
  0
LINE
  5
24A62
330
1F
100
AcDbEntity
  8
D-STR-DIM
  6
Continuous
100
AcDbLine
 10
5670.956396228445
 20
8372.053910919118
 30
0.0
 11
5670.956396228445
 21
8197.05431174008
 31
0.0
  0
TEXT
  5
24A63
330
1F
100
AcDbEntity
  8
D-STR-DIM
100
AcDbText
 10
5654.956396303518
 20
8110.194712147558
 30
0.0
 40
70.0
  1
350
 50
90.0
100
AcDbText
  0
CIRCLE
  5
24A64
330
1F
100
AcDbEntity
  8
D-STR-DIM
  6
Continuous
100
AcDbCircle
 10
5670.956396228445
 20
8022.053712561048
 30
0.0
 40
5.999997971852679
  0
LINE
  5
24A65
330
1F
100
AcDbEntity
  8
D-STR-DIM
  6
Continuous
100
AcDbLine
 10
5670.956396228445
 20
8022.053712561048
 30
0.0
 11
5670.956396228445
 21
8197.05431174008
 31
0.0
  0
LINE
  5
24A66
330
1F
100
AcDbEntity
  8
D-DCR-HCH
  6
Continuous
100
AcDbLine
 10
5394.421997525707
 20
8372.054910919114
 30
0.0
 11
5420.955197401287
 21
8418.012710703518
 31
0.0
  0
LINE
  5
24A67
330
1F
100
AcDbEntity
  8
D-DCR-HCH
  6
Continuous
100
AcDbLine
 10
5371.327197634091
 20
8372.053910919118
 30
0.0
 11
5420.956397401249
 21
8458.012710515868
 31
0.0
  0
CIRCLE
  5
24A68
330
1F
100
AcDbEntity
  8
D-STR-DIM
  6
Continuous
100
AcDbCircle
 10
5670.956396228445
 20
8372.053910919118
 30
0.0
 40
5.999997971852679
  0
TEXT
  5
24A69
330
1F
100
AcDbEntity
  8
D-STR-DIM
100
AcDbText
 10
5904.956395130714
 20
8385.194710857472
 30
0.0
 40
70.0
  1
200
 50
90.0
100
AcDbText
  0
CIRCLE
  5
24A6A
330
1F
100
AcDbEntity
  8
D-STR-DIM
  6
Continuous
100
AcDbCircle
 10
5920.956395055636
 20
8372.053910919118
 30
0.0
 40
5.999997971852679
  0
CIRCLE
  5
24A6B
330
1F
100
AcDbEntity
  8
D-STR-DIM
  6
Continuous
100
AcDbCircle
 10
5920.956395055636
 20
8572.053909980876
 30
0.0
 40
5.999997971852679
  0
LINE
  5
24A6C
330
1F
100
AcDbEntity
  8
D-STR-DIM
  6
Continuous
100
AcDbLine
 10
5920.956395055636
 20
8572.053909980876
 30
0.0
 11
5920.956395055636
 21
8472.054310449994
 31
0.0
  0
LINE
  5
24A6D
330
1F
100
AcDbEntity
  8
D-STR-DIM
  6
Continuous
100
AcDbLine
 10
5920.956395055636
 20
8372.053910919118
 30
0.0
 11
5920.956395055636
 21
8472.054310449994
 31
0.0
  0
LINE
  5
24A6E
330
1F
100
AcDbEntity
  8
D-STR-DIM
  6
Continuous
100
AcDbLine
 10
6981.175265598948
 20
6712.054318612719
 30
0.0
 11
6981.175265598948
 21
5702.05392344468
 31
0.0
  0
LINE
  5
24A73
330
1F
100
AcDbEntity
  8
D-STR-DIM
  6
Continuous
100
AcDbLine
 10
6981.175265598948
 20
5732.054523303942
 30
0.0
 11
7781.175261845972
 21
5732.054523303942
 31
0.0
  0
CIRCLE
  5
24A85
330
1F
100
AcDbEntity
  8
D-STR-DIM
  6
Continuous
100
AcDbCircle
 10
6981.175265598948
 20
5732.054523303942
 30
0.0
 40
5.999997971852679
  0
TEXT
  5
24A8A
330
1F
100
AcDbEntity
  8
D-STR-DIM
100
AcDbText
 10
7662.315262403582
 20
5748.054323228883
 30
0.0
 40
70.0
  1
1600
100
AcDbText
  0
TEXT
  5
24A8B
330
1F
100
AcDbEntity
  8
D-STR-DIM
100
AcDbText
 10
7044.315345302755
 20
6048.054721821514
 30
0.0
 40
70.0
  1
300
100
AcDbText
  0
CIRCLE
  5
24A8C
330
1F
100
AcDbEntity
  8
D-STR-STR2
  6
Continuous
100
AcDbCircle
 10
7129.676304902343
 20
8132.053712045014
 30
0.0
 40
34.99999783580725
  0
LINE
  5
24A8D
330
1F
100
AcDbEntity
  8
D-STR-DIM
  6
Continuous
100
AcDbLine
 10
6981.175265598948
 20
6032.053921896578
 30
0.0
 11
7131.175344895291
 21
6032.053921896578
 31
0.0
  0
LINE
  5
24A8E
330
1F
100
AcDbEntity
  8
D-STR-DIM
  6
Continuous
100
AcDbLine
 10
6981.175265598948
 20
6332.054320489208
 30
0.0
 11
7231.175324426164
 21
6332.054320489208
 31
0.0
  0
LINE
  5
24A8F
330
1F
100
AcDbEntity
  8
D-BMK
  6
CENTER2
100
AcDbLine
 10
7064.676385207225
 20
8132.053712045014
 30
0.0
 11
7194.676364597363
 21
8132.053712045014
 31
0.0
  0
LINE
  5
24A90
330
1F
100
AcDbEntity
  8
D-STR-HTXT
  6
Continuous
100
AcDbLine
 10
7453.625303382621
 20
6858.966518017348
 30
0.0
 11
6781.175266537193
 21
6332.054320489208
 31
0.0
  0
LINE
  5
24A91
330
1F
100
AcDbEntity
  8
D-STR-DIM
  6
Continuous
100
AcDbLine
 10
6581.175467475429
 20
6880.554117916076
 30
0.0
 11
6581.175467475429
 21
7506.304514980541
 31
0.0
  0
TEXT
  5
24A92
330
1F
100
AcDbEntity
  8
D-STR-HTXT
100
AcDbText
 10
6282.711616357803
 20
6348.054120414151
 30
0.0
 40
70.0
  1
　継壁固定部
100
AcDbText
  0
LINE
  5
24A93
330
1F
100
AcDbEntity
  8
D-STR-HTXT
  6
Continuous
100
AcDbLine
 10
6343.17548268984
 20
6332.054320489208
 30
0.0
 11
6781.175266537193
 21
6332.054320489208
 31
0.0
  0
CIRCLE
  5
24A94
330
1F
100
AcDbEntity
  8
D-STR-DIM
  6
Continuous
100
AcDbCircle
 10
6981.175265598948
 20
6032.053921896578
 30
0.0
 40
5.999997971852679
  0
CIRCLE
  5
24A95
330
1F
100
AcDbEntity
  8
D-STR-DIM
  6
Continuous
100
AcDbCircle
 10
6981.175265598948
 20
6332.054320489208
 30
0.0
 40
5.999997971852679
  0
LINE
  5
24A96
330
1F
100
AcDbEntity
  8
D-STR-DIM
  6
Continuous
100
AcDbLine
 10
6961.175265598948
 20
6880.554117916076
 30
0.0
 11
6551.175467616165
 21
6880.554117916076
 31
0.0
  0
LINE
  5
24A97
330
1F
100
AcDbEntity
  8
D-STR-DIM
  6
Continuous
100
AcDbLine
 10
6961.175265598948
 20
6732.054318612719
 30
0.0
 11
6551.175467616165
 21
6732.054318612719
 31
0.0
  0
TEXT
  5
24A98
330
1F
100
AcDbEntity
  8
D-STR-DIM
100
AcDbText
 10
6565.175467550503
 20
6655.443918972117
 30
0.0
 40
70.0
  1
148.5
 50
90.0
100
AcDbText
  0
CIRCLE
  5
24A99
330
1F
100
AcDbEntity
  8
D-STR-DIM
  6
Continuous
100
AcDbCircle
 10
6581.175467475429
 20
6880.554117916076
 30
0.0
 40
5.999997971852679
  0
CIRCLE
  5
24A9A
330
1F
100
AcDbEntity
  8
D-STR-DIM
  6
Continuous
100
AcDbCircle
 10
6581.175467475429
 20
6732.054318612719
 30
0.0
 40
5.999997971852679
  0
LINE
  5
24A9B
330
1F
100
AcDbEntity
  8
D-STR-DIM
  6
Continuous
100
AcDbLine
 10
6581.175467475429
 20
6732.054318612719
 30
0.0
 11
6581.175467475429
 21
6806.304318264398
 31
0.0
  0
LINE
  5
24A9C
330
1F
100
AcDbEntity
  8
D-STR-DIM
  6
Continuous
100
AcDbLine
 10
6581.175467475429
 20
6880.554117916076
 30
0.0
 11
6581.175467475429
 21
6806.304318264398
 31
0.0
  0
LINE
  5
24A9D
330
1F
100
AcDbEntity
  8
D-STR-DIM
  6
Continuous
100
AcDbLine
 10
6581.175467475429
 20
8132.053712045014
 30
0.0
 11
6581.175467475429
 21
7506.304514980541
 31
0.0
  0
TEXT
  5
24A9E
330
1F
100
AcDbEntity
  8
D-STR-DIM
100
AcDbText
 10
6565.175467550503
 20
7323.443715838381
 30
0.0
 40
70.0
  1
1251.5
 50
90.0
100
AcDbText
  0
LINE
  5
24A9F
330
1F
100
AcDbEntity
  8
D-STR-DIM
  6
Continuous
100
AcDbLine
 10
6961.175265598948
 20
8132.053712045014
 30
0.0
 11
6551.175467616165
 21
8132.053712045014
 31
0.0
  0
LINE
  5
24AA0
330
1F
100
AcDbEntity
  8
D-STR-DIM
  6
Continuous
100
AcDbLine
 10
6581.175467475429
 20
8132.053712045014
 30
0.0
 11
6581.175467475429
 21
8382.054510872206
 31
0.0
  0
CIRCLE
  5
24AA1
330
1F
100
AcDbEntity
  8
D-STR-DIM
  6
Continuous
100
AcDbCircle
 10
6581.175467475429
 20
8132.053712045014
 30
0.0
 40
5.999997971852679
  0
TEXT
  5
24AA2
330
1F
100
AcDbEntity
  8
D-STR-DIM
100
AcDbText
 10
6565.175467550503
 20
8295.193911279687
 30
0.0
 40
70.0
  1
500
 50
90.0
100
AcDbText
  0
LINE
  5
24AA3
330
1F
100
AcDbEntity
  8
D-STR-STR2
  6
Continuous
100
AcDbLine
 10
7281.175304191595
 20
7182.053916501672
 30
0.0
 11
7281.175304191595
 21
7882.054113217816
 31
0.0
  0
LINE
  5
24AA4
330
1F
100
AcDbEntity
  8
D-STR-STR2
  6
Continuous
100
AcDbLine
 10
8281.175279500367
 20
7182.053916501672
 30
0.0
 11
8281.175279500367
 21
7882.054113217816
 31
0.0
  0
LINE
  5
24AA5
330
1F
100
AcDbEntity
  8
D-STR
  6
DASHED1
100
AcDbLine
 10
8381.175279031245
 20
7032.054717205352
 30
0.0
 11
8381.175279031245
 21
8332.054711106763
 31
0.0
  0
LINE
  5
24AA6
330
1F
100
AcDbEntity
  8
D-STR
  6
DASHED1
100
AcDbLine
 10
7181.175324660722
 20
7032.054717205352
 30
0.0
 11
7181.175324660722
 21
8332.054711106763
 31
0.0
  0
TEXT
  5
24AA7
330
1F
100
AcDbEntity
  8
D-STR-DIM
100
AcDbText
 10
7694.315242253502
 20
6348.054120414151
 30
0.0
 40
70.0
  1
600
100
AcDbText
  0
TEXT
  5
24AA8
330
1F
100
AcDbEntity
  8
D-STR-DIM
100
AcDbText
 10
7662.315262403582
 20
6048.054721821514
 30
0.0
 40
70.0
  1
1000
100
AcDbText
  0
LINE
  5
24AA9
330
1F
100
AcDbEntity
  8
D-STR-DIM
  6
Continuous
100
AcDbLine
 10
7481.175363253369
 20
6332.054320489208
 30
0.0
 11
7781.175261845972
 21
6332.054320489208
 31
0.0
  0
LINE
  5
24AAA
330
1F
100
AcDbEntity
  8
D-STR-DIM
  6
Continuous
100
AcDbLine
 10
7281.175304191595
 20
6032.053921896578
 30
0.0
 11
7781.175261845972
 21
6032.053921896578
 31
0.0
  0
LINE
  5
24AAB
330
1F
100
AcDbEntity
  8
D-STR-STR2
  6
Continuous
100
AcDbLine
 10
7331.175283957026
 20
7132.054116736232
 30
0.0
 11
8231.175299734934
 21
7132.054116736232
 31
0.0
  0
LINE
  5
24AAC
330
1F
100
AcDbEntity
  8
D-STR
  6
DASHED1
100
AcDbLine
 10
7281.175304191595
 20
6932.054117674477
 30
0.0
 11
8281.175279500367
 21
6932.054117674477
 31
0.0
  0
LINE
  5
24AAD
330
1F
100
AcDbEntity
  8
D-STR-DIM
  6
Continuous
100
AcDbLine
 10
7481.175363253369
 20
6712.054318612719
 30
0.0
 11
7481.175363253369
 21
6302.054720629945
 31
0.0
  0
LINE
  5
24AAE
330
1F
100
AcDbEntity
  8
D-STR-DIM
  6
Continuous
100
AcDbLine
 10
7281.175304191595
 20
6702.054718753456
 30
0.0
 11
7281.175304191595
 21
6466.332319859282
 31
0.0
  0
LINE
  5
24AAF
330
1F
100
AcDbEntity
  8
D-STR-DIM
  6
Continuous
100
AcDbLine
 10
7481.175363253369
 20
6332.054320489208
 30
0.0
 11
7231.175324426164
 21
6332.054320489208
 31
0.0
  0
LINE
  5
24AB0
330
1F
100
AcDbEntity
  8
D-STR-DIM
  6
Continuous
100
AcDbLine
 10
7281.175304191595
 20
6312.054320489209
 30
0.0
 11
7281.175304191595
 21
6002.054322037311
 31
0.0
  0
LINE
  5
24AB1
330
1F
100
AcDbEntity
  8
D-STR-DIM
  6
Continuous
100
AcDbLine
 10
7281.175304191595
 20
6032.053921896578
 30
0.0
 11
7131.175344895291
 21
6032.053921896578
 31
0.0
  0
CIRCLE
  5
24AB2
330
1F
100
AcDbEntity
  8
D-STR-DIM
  6
Continuous
100
AcDbCircle
 10
7281.175304191595
 20
6032.053921896578
 30
0.0
 40
5.999997971852679
  0
TEXT
  5
24AB3
330
1F
100
AcDbEntity
  8
D-STR-DIM
100
AcDbText
 10
7144.315304833622
 20
6348.054120414151
 30
0.0
 40
70.0
  1
500
100
AcDbText
  0
CIRCLE
  5
24AB4
330
1F
100
AcDbEntity
  8
D-STR-DIM
  6
Continuous
100
AcDbCircle
 10
7481.175363253369
 20
6332.054320489208
 30
0.0
 40
5.999997971852679
  0
LINE
  5
24AB5
330
1F
100
AcDbEntity
  8
D-STR-HTXT
  6
Continuous
100
AcDbLine
 10
7417.789543550687
 20
6839.847518107039
 30
0.0
 11
7453.625303382621
 21
6858.966518017348
 31
0.0
  0
LINE
  5
24AB6
330
1F
100
AcDbEntity
  8
D-BMK
  6
CENTER2
100
AcDbLine
 10
7416.17530355828
 20
6880.554117916076
 30
0.0
 11
7546.175282948414
 21
6880.554117916076
 31
0.0
  0
LINE
  5
24AB7
330
1F
100
AcDbEntity
  8
D-STR
  6
DASHED1
100
AcDbLine
 10
7281.175924191582
 20
6932.054117674477
 30
0.0
 11
7181.176564660701
 21
7032.054717205352
 31
0.0
  0
LINE
  5
24AB8
330
1F
100
AcDbEntity
  8
D-STR-STR2
  6
Continuous
100
AcDbLine
 10
7281.174684191606
 20
7182.055916501663
 30
0.0
 11
7331.175283957026
 21
7132.055116736229
 31
0.0
  0
CIRCLE
  5
24AB9
330
1F
100
AcDbEntity
  8
D-STR-STR2
  6
Continuous
100
AcDbCircle
 10
7481.175363253369
 20
6880.554117916076
 30
0.0
 40
34.99999783580725
  0
LINE
  5
24ABA
330
1F
100
AcDbEntity
  8
D-BMK
  6
CENTER2
100
AcDbLine
 10
7481.175363253369
 20
6945.553717611147
 30
0.0
 11
7481.175363253369
 21
6815.553718221005
 31
0.0
  0
CIRCLE
  5
24ABB
330
1F
100
AcDbEntity
  8
D-STR-STR2
  6
Continuous
100
AcDbCircle
 10
7481.175363253369
 20
6880.554117916076
 30
0.0
 40
14.99999792963168
  0
LINE
  5
24ABC
330
1F
100
AcDbEntity
  8
D-STR-DIM
  6
Continuous
100
AcDbLine
 10
8081.175280438612
 20
6712.054318612719
 30
0.0
 11
8081.175280438612
 21
6302.054720629945
 31
0.0
  0
LINE
  5
24ABD
330
1F
100
AcDbEntity
  8
D-STR-DIM
  6
Continuous
100
AcDbLine
 10
8281.175279500367
 20
6702.054718753456
 30
0.0
 11
8281.175279500367
 21
6466.332319859282
 31
0.0
  0
CIRCLE
  5
24ABE
330
1F
100
AcDbEntity
  8
D-STR-DIM
  6
Continuous
100
AcDbCircle
 10
8081.175280438612
 20
6332.054320489208
 30
0.0
 40
5.999997971852679
  0
LINE
  5
24ABF
330
1F
100
AcDbEntity
  8
D-STR-DIM
  6
Continuous
100
AcDbLine
 10
8081.175280438612
 20
6332.054320489208
 30
0.0
 11
7781.175261845972
 21
6332.054320489208
 31
0.0
  0
LINE
  5
24AC0
330
1F
100
AcDbEntity
  8
D-STR-DIM
  6
Continuous
100
AcDbLine
 10
8281.175279500367
 20
6032.053921896578
 30
0.0
 11
7781.175261845972
 21
6032.053921896578
 31
0.0
  0
LINE
  5
24AC1
330
1F
100
AcDbEntity
  8
D-STR-DIM
  6
Continuous
100
AcDbLine
 10
8281.175279500367
 20
6312.054320489209
 30
0.0
 11
8281.175279500367
 21
6002.054322037311
 31
0.0
  0
CIRCLE
  5
24AC2
330
1F
100
AcDbEntity
  8
D-STR-DIM
  6
Continuous
100
AcDbCircle
 10
8281.175279500367
 20
6032.053921896578
 30
0.0
 40
5.999997971852679
  0
TEXT
  5
24AC3
330
1F
100
AcDbEntity
  8
D-STR-DIM
100
AcDbText
 10
8244.315319673281
 20
6348.054120414151
 30
0.0
 40
70.0
  1
500
100
AcDbText
  0
LINE
  5
24AC4
330
1F
100
AcDbEntity
  8
D-STR-DIM
  6
Continuous
100
AcDbLine
 10
8081.175280438612
 20
6332.054320489208
 30
0.0
 11
8331.175259265798
 21
6332.054320489208
 31
0.0
  0
CIRCLE
  5
24AC5
330
1F
100
AcDbEntity
  8
D-STR-STR2
  6
Continuous
100
AcDbCircle
 10
8081.175280438612
 20
6880.554117916076
 30
0.0
 40
34.99999783580725
  0
CIRCLE
  5
24AC6
330
1F
100
AcDbEntity
  8
D-STR-STR2
  6
Continuous
100
AcDbCircle
 10
8081.175280438612
 20
6880.554117916076
 30
0.0
 40
14.99999792963168
  0
LINE
  5
24AC7
330
1F
100
AcDbEntity
  8
D-BMK
  6
CENTER2
100
AcDbLine
 10
8016.175300743547
 20
6880.554117916076
 30
0.0
 11
8146.175280133681
 21
6880.554117916076
 31
0.0
  0
LINE
  5
24AC8
330
1F
100
AcDbEntity
  8
D-BMK
  6
CENTER2
100
AcDbLine
 10
8081.175280438612
 20
6945.553717611147
 30
0.0
 11
8081.175280438612
 21
6815.553718221005
 31
0.0
  0
LINE
  5
24AC9
330
1F
100
AcDbEntity
  8
D-STR-STR2
  6
Continuous
100
AcDbLine
 10
8231.175919734925
 20
7132.055116736229
 30
0.0
 11
8281.175279500367
 21
7182.053916501672
 31
0.0
  0
LINE
  5
24ACA
330
1F
100
AcDbEntity
  8
D-STR
  6
DASHED1
100
AcDbLine
 10
8381.175279031245
 20
7032.055717205349
 30
0.0
 11
8281.175279500367
 21
6932.055117674474
 31
0.0
  0
TEXT
  5
24ACB
330
1F
100
AcDbEntity
  8
D-STR-HTXT
100
AcDbText
 10
7502.315283154185
 20
7500.054715009859
 30
0.0
 40
70.0
  1
1,000×800
100
AcDbText
  0
LINE
  5
24ACC
330
1F
100
AcDbEntity
  8
D-STR-STR2
  6
Continuous
100
AcDbLine
 10
7331.175283957026
 20
7932.053912983256
 30
0.0
 11
8231.175299734934
 21
7932.053912983256
 31
0.0
  0
LINE
  5
24ACD
330
1F
100
AcDbEntity
  8
D-STR
  6
DASHED1
100
AcDbLine
 10
7281.175304191595
 20
8432.054110637643
 30
0.0
 11
8281.175279500367
 21
8432.054110637643
 31
0.0
  0
LINE
  5
24ACE
330
1F
100
AcDbEntity
  8
D-STR-STR2
  6
Continuous
100
AcDbLine
 10
7331.174663957037
 20
7932.055912983246
 30
0.0
 11
7281.174684191606
 21
7882.055113217814
 31
0.0
  0
TEXT
  5
24ACF
330
1F
100
AcDbEntity
  8
D-STR-HTXT
100
AcDbText
 10
7280.030264196991
 20
8162.054511904273
 30
0.0
 40
50.0
  1
400×400
100
AcDbText
  0
TEXT
  5
24AD0
330
1F
100
AcDbEntity
  8
D-STR-HTXT
100
AcDbText
 10
7269.889308328842
 20
8234.05391156651
 30
0.0
 40
50.0
  1
ノックアウト
100
AcDbText
  0
LINE
  5
24AD1
330
1F
100
AcDbEntity
  8
D-STR-STR2
  6
Continuous
100
AcDbLine
 10
7241.175364379262
 20
8022.053712561048
 30
0.0
 11
7641.175362502774
 21
8022.053712561048
 31
0.0
  0
LINE
  5
24AD2
330
1F
100
AcDbEntity
  8
D-STR-STR2
  6
Continuous
100
AcDbLine
 10
7241.175364379262
 20
8422.054710684555
 30
0.0
 11
7641.175362502774
 21
8422.054710684555
 31
0.0
  0
LINE
  5
24AD3
330
1F
100
AcDbEntity
  8
D-STR-STR2
  6
Continuous
100
AcDbLine
 10
7241.175364379262
 20
8022.053712561048
 30
0.0
 11
7241.175364379262
 21
8422.054710684555
 31
0.0
  0
CIRCLE
  5
24AD4
330
1F
100
AcDbEntity
  8
D-STR-STR2
  6
Continuous
100
AcDbCircle
 10
7129.676304902343
 20
8132.053712045014
 30
0.0
 40
14.99999792963168
  0
LINE
  5
24AD5
330
1F
100
AcDbEntity
  8
D-BMK
  6
CENTER2
100
AcDbLine
 10
7129.676304902343
 20
8197.05431174008
 30
0.0
 11
7129.676304902343
 21
8067.054312349938
 31
0.0
  0
LINE
  5
24AD6
330
1F
100
AcDbEntity
  8
D-STR
  6
DASHED1
100
AcDbLine
 10
7181.17594466071
 20
8332.054711106763
 30
0.0
 11
7281.175924191582
 21
8432.055110637643
 31
0.0
  0
LINE
  5
24AD7
330
1F
100
AcDbEntity
  8
D-STR-STR2
  6
Continuous
100
AcDbLine
 10
7641.175362502774
 20
8022.053712561048
 30
0.0
 11
7641.175362502774
 21
8422.054710684555
 31
0.0
  0
LINE
  5
24AD8
330
1F
100
AcDbEntity
  8
D-STR-STR2
  6
Continuous
100
AcDbLine
 10
8281.174659500377
 20
7882.055113217814
 30
0.0
 11
8231.175299734934
 21
7932.054912983251
 31
0.0
  0
TEXT
  5
24AD9
330
1F
100
AcDbEntity
  8
D-STR-HTXT
100
AcDbText
 10
7960.030321006984
 20
8162.054511904273
 30
0.0
 40
50.0
  1
400×400
100
AcDbText
  0
TEXT
  5
24ADA
330
1F
100
AcDbEntity
  8
D-STR-HTXT
100
AcDbText
 10
7952.515488552158
 20
8234.05391156651
 30
0.0
 40
50.0
  1
ノックアウト
100
AcDbText
  0
LINE
  5
24ADB
330
1F
100
AcDbEntity
  8
D-STR-STR2
  6
Continuous
100
AcDbLine
 10
7921.175281189208
 20
8422.054710684555
 30
0.0
 11
8321.175279312717
 21
8422.054710684555
 31
0.0
  0
LINE
  5
24ADC
330
1F
100
AcDbEntity
  8
D-STR-STR2
  6
Continuous
100
AcDbLine
 10
7921.175281189208
 20
8022.053712561048
 30
0.0
 11
8321.175279312717
 21
8022.053712561048
 31
0.0
  0
LINE
  5
24ADD
330
1F
100
AcDbEntity
  8
D-STR-STR2
  6
Continuous
100
AcDbLine
 10
7921.175281189208
 20
8022.053712561048
 30
0.0
 11
7921.175281189208
 21
8422.054710684555
 31
0.0
  0
LINE
  5
24ADE
330
1F
100
AcDbEntity
  8
D-STR-STR2
  6
Continuous
100
AcDbLine
 10
8321.175279312717
 20
8022.053712561048
 30
0.0
 11
8321.175279312717
 21
8422.054710684555
 31
0.0
  0
LINE
  5
24ADF
330
1F
100
AcDbEntity
  8
D-STR
  6
DASHED1
100
AcDbLine
 10
8281.175899500354
 20
8432.054110637643
 30
0.0
 11
8381.175279031245
 21
8332.054711106763
 31
0.0
  0
LINE
  5
24AE2
330
1F
100
AcDbEntity
  8
D-STR-DIM
  6
Continuous
100
AcDbLine
 10
3570.95500608005
 20
9272.054106697018
 30
0.0
 11
3440.955406689897
 21
9272.054106697018
 31
0.0
  0
LINE
  5
24AE3
330
1F
100
AcDbEntity
  8
D-STR-DIM
  6
Continuous
100
AcDbLine
 10
3570.95500608005
 20
8972.054708104382
 30
0.0
 11
3496.705006428347
 21
8972.054708104382
 31
0.0
  0
CIRCLE
  5
24AE4
330
1F
100
AcDbEntity
  8
D-STR-DIM
  6
Continuous
100
AcDbCircle
 10
3422.455606776694
 20
8972.054708104382
 30
0.0
 40
5.999997971852679
  0
LINE
  5
24AE5
330
1F
100
AcDbEntity
  8
D-STR-DIM
  6
Continuous
100
AcDbLine
 10
3422.455606776694
 20
8972.054708104382
 30
0.0
 11
3496.705006428347
 21
8972.054708104382
 31
0.0
  0
CIRCLE
  5
24AE6
330
1F
100
AcDbEntity
  8
D-STR-DIM
  6
Continuous
100
AcDbCircle
 10
3570.95500608005
 20
9272.054106697018
 30
0.0
 40
5.999997971852679
  0
CIRCLE
  5
24AE7
330
1F
100
AcDbEntity
  8
D-STR-DIM
  6
Continuous
100
AcDbCircle
 10
3570.95500608005
 20
8972.054708104382
 30
0.0
 40
5.999997971852679
  0
TEXT
  5
24AF1
330
1F
100
AcDbEntity
  8
D-STR-DIM
100
AcDbText
 10
7024.315365396586
 20
9348.054106340487
 30
0.0
 40
70.0
  1
260
100
AcDbText
  0
TEXT
  5
24AF2
330
1F
100
AcDbEntity
  8
D-STR-DIM
100
AcDbText
 10
6932.062185829396
 20
9048.05470774785
 30
0.0
 40
70.0
  1
148.5
100
AcDbText
  0
LINE
  5
24AF3
330
1F
100
AcDbEntity
  8
D-STR-DIM
  6
Continuous
100
AcDbLine
 10
6981.175265598948
 20
9332.054306415544
 30
0.0
 11
7111.175384989128
 21
9332.054306415544
 31
0.0
  0
LINE
  5
24AF4
330
1F
100
AcDbEntity
  8
D-STR-DIM
  6
Continuous
100
AcDbLine
 10
7129.676304902343
 20
9032.053907822914
 30
0.0
 11
7055.425725250661
 21
9032.053907822914
 31
0.0
  0
LINE
  5
24AF8
330
1F
100
AcDbEntity
  8
D-STR-DIM
  6
Continuous
100
AcDbLine
 10
6981.175265598948
 20
8652.054109699401
 30
0.0
 11
6981.175265598948
 21
9362.054106274809
 31
0.0
  0
LINE
  5
24AF9
330
1F
100
AcDbEntity
  8
D-STR-DIM
  6
Continuous
100
AcDbLine
 10
6961.175265598948
 20
8632.054109699401
 30
0.0
 11
6551.175467616165
 21
8632.054109699401
 31
0.0
  0
CIRCLE
  5
24AFA
330
1F
100
AcDbEntity
  8
D-STR-DIM
  6
Continuous
100
AcDbCircle
 10
6581.175467475429
 20
8632.054109699401
 30
0.0
 40
5.999997971852679
  0
CIRCLE
  5
24AFE
330
1F
100
AcDbEntity
  8
D-STR-DIM
  6
Continuous
100
AcDbCircle
 10
6981.175265598948
 20
9032.053907822914
 30
0.0
 40
5.999997971852679
  0
LINE
  5
24AFF
330
1F
100
AcDbEntity
  8
D-STR-DIM
  6
Continuous
100
AcDbLine
 10
6981.175265598948
 20
9032.053907822914
 30
0.0
 11
7055.425725250661
 21
9032.053907822914
 31
0.0
  0
CIRCLE
  5
24B00
330
1F
100
AcDbEntity
  8
D-STR-DIM
  6
Continuous
100
AcDbCircle
 10
6981.175265598948
 20
9332.054306415544
 30
0.0
 40
5.999997971852679
  0
TEXT
  5
24B03
330
1F
100
AcDbEntity
  8
D-STR-DIM
100
AcDbText
 10
7694.315242253502
 20
9348.054106340487
 30
0.0
 40
70.0
  1
280
100
AcDbText
  0
TEXT
  5
24B04
330
1F
100
AcDbEntity
  8
D-STR-DIM
100
AcDbText
 10
7662.315262403582
 20
9048.05470774785
 30
0.0
 40
70.0
  1
1303
100
AcDbText
  0
LINE
  5
24B06
330
1F
100
AcDbEntity
  8
D-STR-DIM
  6
Continuous
100
AcDbLine
 10
7641.175362502774
 20
9332.054306415544
 30
0.0
 11
7781.175261845972
 21
9332.054306415544
 31
0.0
  0
LINE
  5
24B07
330
1F
100
AcDbEntity
  8
D-STR-DIM
  6
Continuous
100
AcDbLine
 10
7129.676304902343
 20
9032.053907822914
 30
0.0
 11
7781.17588184596
 21
9032.053907822914
 31
0.0
  0
LINE
  5
24B08
330
1F
100
AcDbEntity
  8
D-STR-DIM
  6
Continuous
100
AcDbLine
 10
7641.175362502774
 20
9129.081707367737
 30
0.0
 11
7641.175362502774
 21
9362.054106274809
 31
0.0
  0
LINE
  5
24B09
330
1F
100
AcDbEntity
  8
D-STR-DIM
  6
Continuous
100
AcDbLine
 10
7241.175364379262
 20
9129.081707367737
 30
0.0
 11
7241.175364379262
 21
9362.054106274809
 31
0.0
  0
LINE
  5
24B0A
330
1F
100
AcDbEntity
  8
D-STR-DIM
  6
Continuous
100
AcDbLine
 10
7129.676304902343
 20
8652.054109699401
 30
0.0
 11
7129.676304902344
 21
8775.708726867065
 31
0.0
  0
LINE
  5
24B0B
330
1F
100
AcDbEntity
  8
D-STR-DIM
  6
Continuous
100
AcDbLine
 10
7241.175364379262
 20
9002.054307963646
 30
0.0
 11
7241.175364379261
 21
8906.415449483029
 31
0.0
  0
CIRCLE
  5
24B0C
330
1F
100
AcDbEntity
  8
D-STR-DIM
  6
Continuous
100
AcDbCircle
 10
7129.676304902343
 20
9032.053907822914
 30
0.0
 40
5.999997971852679
  0
LINE
  5
24B0D
330
1F
100
AcDbEntity
  8
D-STR-DIM
  6
Continuous
100
AcDbLine
 10
7641.175362502774
 20
9002.054307963646
 30
0.0
 11
7641.175362502773
 21
8906.415449483029
 31
0.0
  0
TEXT
  5
24B0E
330
1F
100
AcDbEntity
  8
D-STR-DIM
100
AcDbText
 10
7354.31528384853
 20
9348.054106340487
 30
0.0
 40
70.0
  1
400
100
AcDbText
  0
LINE
  5
24B0F
330
1F
100
AcDbEntity
  8
D-STR-DIM
  6
Continuous
100
AcDbLine
 10
7241.175364379262
 20
9332.054306415544
 30
0.0
 11
7441.175303440999
 21
9332.054306415544
 31
0.0
  0
CIRCLE
  5
24B10
330
1F
100
AcDbEntity
  8
D-STR-DIM
  6
Continuous
100
AcDbCircle
 10
7241.175364379262
 20
9332.054306415544
 30
0.0
 40
5.999997971852679
  0
LINE
  5
24B11
330
1F
100
AcDbEntity
  8
D-STR-DIM
  6
Continuous
100
AcDbLine
 10
7241.175364379262
 20
9332.054306415544
 30
0.0
 11
7111.175384989128
 21
9332.054306415544
 31
0.0
  0
LINE
  5
24B12
330
1F
100
AcDbEntity
  8
D-STR-DIM
  6
Continuous
100
AcDbLine
 10
7641.175362502774
 20
9332.054306415544
 30
0.0
 11
7441.175303440999
 21
9332.054306415544
 31
0.0
  0
CIRCLE
  5
24B13
330
1F
100
AcDbEntity
  8
D-STR-DIM
  6
Continuous
100
AcDbCircle
 10
7641.175362502774
 20
9332.054306415544
 30
0.0
 40
5.999997971852679
  0
LINE
  5
24B14
330
1F
100
AcDbEntity
  8
D-STR-DIM
  6
Continuous
100
AcDbLine
 10
8321.175279312717
 20
9129.081707367737
 30
0.0
 11
8321.175279312717
 21
9362.054106274809
 31
0.0
  0
LINE
  5
24B15
330
1F
100
AcDbEntity
  8
D-STR-DIM
  6
Continuous
100
AcDbLine
 10
7921.175281189208
 20
9129.081707367737
 30
0.0
 11
7921.175281189208
 21
9362.054106274809
 31
0.0
  0
LINE
  5
24B16
330
1F
100
AcDbEntity
  8
D-STR-DIM
  6
Continuous
100
AcDbLine
 10
7921.175281189208
 20
9002.054307963646
 30
0.0
 11
7921.175281189208
 21
8906.415449483029
 31
0.0
  0
LINE
  5
24B17
330
1F
100
AcDbEntity
  8
D-STR-DIM
  6
Continuous
100
AcDbLine
 10
8321.175279312717
 20
9002.054307963646
 30
0.0
 11
8321.175279312717
 21
8906.415449483029
 31
0.0
  0
TEXT
  5
24B18
330
1F
100
AcDbEntity
  8
D-STR-DIM
100
AcDbText
 10
8034.315260658493
 20
9348.054106340487
 30
0.0
 40
70.0
  1
400
100
AcDbText
  0
LINE
  5
24B19
330
1F
100
AcDbEntity
  8
D-STR-DIM
  6
Continuous
100
AcDbLine
 10
7921.175281189208
 20
9332.054306415544
 30
0.0
 11
8121.175280250962
 21
9332.054306415544
 31
0.0
  0
CIRCLE
  5
24B1A
330
1F
100
AcDbEntity
  8
D-STR-DIM
  6
Continuous
100
AcDbCircle
 10
7921.175281189208
 20
9332.054306415544
 30
0.0
 40
5.999997971852679
  0
LINE
  5
24B1B
330
1F
100
AcDbEntity
  8
D-STR-DIM
  6
Continuous
100
AcDbLine
 10
7921.175281189208
 20
9332.054306415544
 30
0.0
 11
7781.175261845972
 21
9332.054306415544
 31
0.0
  0
LINE
  5
24B1C
330
1F
100
AcDbEntity
  8
D-STR-DIM
  6
Continuous
100
AcDbLine
 10
8321.175279312717
 20
9332.054306415544
 30
0.0
 11
8121.175280250962
 21
9332.054306415544
 31
0.0
  0
CIRCLE
  5
24B1D
330
1F
100
AcDbEntity
  8
D-STR-DIM
  6
Continuous
100
AcDbCircle
 10
8321.175279312717
 20
9332.054306415544
 30
0.0
 40
5.999997971852679
  0
TEXT
  5
24B20
330
1F
100
AcDbEntity
  8
D-STR-DIM
100
AcDbText
 10
13545.47801609437
 20
5875.734522629906
 30
0.0
 40
70.0
  1
260
100
AcDbText
  0
TEXT
  5
24B21
330
1F
100
AcDbEntity
  8
D-STR-DIM
100
AcDbText
 10
13525.47801618819
 20
9288.05370662196
 30
0.0
 40
70.0
  1
300
100
AcDbText
  0
TEXT
  5
24B22
330
1F
100
AcDbEntity
  8
D-STR-DIM
100
AcDbText
 10
13537.22901613307
 20
8988.054308029324
 30
0.0
 40
70.0
  1
148.5
100
AcDbText
  0
LINE
  5
24B23
330
1F
100
AcDbEntity
  8
D-STR-DIM
  6
Continuous
100
AcDbLine
 10
13762.33821507704
 20
5972.054722178047
 30
0.0
 11
13632.3382156869
 21
5972.054722178047
 31
0.0
  0
LINE
  5
24B24
330
1F
100
AcDbEntity
  8
D-STR-DIM
  6
Continuous
100
AcDbLine
 10
13762.33821507704
 20
5672.054323585415
 30
0.0
 11
12962.33801883003
 21
5672.054323585415
 31
0.0
  0
LINE
  5
24B25
330
1F
100
AcDbEntity
  8
D-STR-DIM
  6
Continuous
100
AcDbLine
 10
13762.33821507704
 20
9272.054106697018
 30
0.0
 11
13612.33801578073
 21
9272.054106697018
 31
0.0
  0
LINE
  5
24B26
330
1F
100
AcDbEntity
  8
D-STR-DIM
  6
Continuous
100
AcDbLine
 10
13613.8384157737
 20
8972.054708104382
 30
0.0
 11
13688.0884154254
 21
8972.054708104382
 31
0.0
  0
LINE
  5
24B27
330
1F
100
AcDbEntity
  8
D-STR-DIM
  6
Continuous
100
AcDbLine
 10
13762.33821507704
 20
6272.054120770683
 30
0.0
 11
13512.33821624985
 21
6272.054120770683
 31
0.0
  0
LINE
  5
24B28
330
1F
100
AcDbEntity
  8
D-BMK
  6
CENTER2
100
AcDbLine
 10
13548.83841607863
 20
8072.054512326483
 30
0.0
 11
13678.83841546877
 21
8072.054512326483
 31
0.0
  0
LINE
  5
24B29
330
1F
100
AcDbEntity
  8
D-STR
  6
Continuous
100
AcDbLine
 10
12162.338222583
 20
8572.053909980876
 30
0.0
 11
13762.33821507704
 21
8572.053909980876
 31
0.0
  0
LINE
  5
24B2A
330
1F
100
AcDbEntity
  8
D-STR
  6
Continuous
100
AcDbLine
 10
12162.338222583
 20
6672.053918894196
 30
0.0
 11
13762.33821507704
 21
6672.053918894196
 31
0.0
  0
LINE
  5
24B2B
330
1F
100
AcDbEntity
  8
D-STR-DIM
  6
Continuous
100
AcDbLine
 10
8981.175254216564
 20
8632.054109699401
 30
0.0
 11
8981.175254216564
 21
8527.054310191976
 31
0.0
  0
LINE
  5
24B2C
330
1F
100
AcDbEntity
  8
D-STR-DIM
  6
Continuous
100
AcDbLine
 10
9281.175234809131
 20
8632.054109699401
 30
0.0
 11
9281.175234809131
 21
7682.054114156061
 31
0.0
  0
LINE
  5
24B2D
330
1F
100
AcDbEntity
  8
D-STR-DIM
  6
Continuous
100
AcDbLine
 10
10931.17564706868
 20
8632.054109699401
 30
0.0
 11
10931.17564706868
 21
8532.054710168521
 31
0.0
  0
LINE
  5
24B2E
330
1F
100
AcDbEntity
  8
D-STR-DIM
  6
Continuous
100
AcDbLine
 10
12162.338222583
 20
8592.053909980876
 30
0.0
 11
12162.338222583
 21
9302.053706556284
 31
0.0
  0
LINE
  5
24B2F
330
1F
100
AcDbEntity
  8
D-STR-DIM
  6
Continuous
100
AcDbLine
 10
13613.8384157737
 20
8592.053909980876
 30
0.0
 11
13613.8384157737
 21
8722.269320389772
 31
0.0
  0
LINE
  5
24B30
330
1F
100
AcDbEntity
  8
D-STR-DIM
  6
Continuous
100
AcDbLine
 10
12310.83922188638
 20
8592.053909980876
 30
0.0
 11
12310.83922188638
 21
8722.269320389772
 31
0.0
  0
LINE
  5
24B31
330
1F
100
AcDbEntity
  8
D-STR-DIM
  6
Continuous
100
AcDbLine
 10
13462.3384164844
 20
8942.054108245121
 30
0.0
 11
13462.3384164844
 21
8868.057600818989
 31
0.0
  0
LINE
  5
24B32
330
1F
100
AcDbEntity
  8
D-STR-DIM
  6
Continuous
100
AcDbLine
 10
12462.33822117563
 20
8942.054108245121
 30
0.0
 11
12462.33822117563
 21
8868.057600818989
 31
0.0
  0
LINE
  5
24B33
330
1F
100
AcDbEntity
  8
D-STR
  6
Continuous
100
AcDbLine
 10
9981.175871525273
 20
6732.054318612719
 30
0.0
 11
9981.175871525273
 21
8632.054109699401
 31
0.0
  0
LINE
  5
24B34
330
1F
100
AcDbEntity
  8
D-STR
  6
Continuous
100
AcDbLine
 10
10131.17583082164
 20
6732.054318612719
 30
0.0
 11
10131.17583082164
 21
8632.054109699401
 31
0.0
  0
LINE
  5
24B35
330
1F
100
AcDbEntity
  8
D-DCR-HCH
  6
Continuous
100
AcDbLine
 10
10131.17583082164
 20
8478.012910422043
 30
0.0
 11
10220.11135040437
 21
8632.054109699401
 31
0.0
  0
LINE
  5
24B36
330
1F
100
AcDbEntity
  8
D-DCR-HCH
  6
Continuous
100
AcDbLine
 10
10131.17583082164
 20
8518.012110234396
 30
0.0
 11
10197.01743051275
 21
8632.054109699401
 31
0.0
  0
LINE
  5
24B37
330
1F
100
AcDbEntity
  8
D-DCR-HCH
  6
Continuous
100
AcDbLine
 10
10254.64145024243
 20
8432.054110637643
 30
0.0
 11
10370.11142970071
 21
8632.054109699401
 31
0.0
  0
LINE
  5
24B38
330
1F
100
AcDbEntity
  8
D-DCR-HCH
  6
Continuous
100
AcDbLine
 10
10231.54765035078
 20
8432.054110637643
 30
0.0
 11
10347.01738980906
 21
8632.054109699401
 31
0.0
  0
LINE
  5
24B39
330
1F
100
AcDbEntity
  8
D-STR
  6
Continuous
100
AcDbLine
 10
8581.175278093001
 20
6732.054318612719
 30
0.0
 11
8581.175278093001
 21
8632.054109699401
 31
0.0
  0
LINE
  5
24B3A
330
1F
100
AcDbEntity
  8
D-MTR-FRAM
  6
Continuous
100
AcDbLine
 10
9671.91469562544
 20
3714.056553625233
 30
0.0
 11
12379.9140628255
 21
3714.056553625233
 31
0.0
  0
LINE
  5
24B3B
330
1F
100
AcDbEntity
  8
D-MTR-FRAM
  6
Continuous
100
AcDbLine
 10
9671.91469562544
 20
3972.721711842165
 30
0.0
 11
12379.9140628255
 21
3972.721711842165
 31
0.0
  0
LINE
  5
24B3C
330
1F
100
AcDbEntity
  8
D-MTR-FRAM
  6
Continuous
100
AcDbLine
 10
9671.91469562544
 20
3843.3888927337
 30
0.0
 11
12379.9140628255
 21
3843.3888927337
 31
0.0
  0
LINE
  5
24B3D
330
1F
100
AcDbEntity
  8
D-MTR-FRAM
  6
Continuous
100
AcDbLine
 10
9671.91469562544
 20
4102.054530950633
 30
0.0
 11
12379.9140628255
 21
4102.054530950633
 31
0.0
  0
LINE
  5
24B3E
330
1F
100
AcDbEntity
  8
D-MTR-FRAM
  6
Continuous
100
AcDbLine
 10
9671.91469562544
 20
3584.723314516767
 30
0.0
 11
12379.9140628255
 21
3584.723314516767
 31
0.0
  0
LINE
  5
24B3F
330
1F
100
AcDbEntity
  8
D-STR-DIM
  6
Continuous
100
AcDbLine
 10
8581.175278093001
 20
6712.054318612719
 30
0.0
 11
8581.175278093001
 21
5702.05392344468
 31
0.0
  0
TEXT
  5
24B40
330
1F
100
AcDbEntity
  8
D-MTR-MTXT
100
AcDbText
 10
9751.910681250155
 20
3601.923314201517
 30
0.0
 40
70.0
  1
プレ－ト　φ50×4.5
100
AcDbText
  0
TEXT
  5
24B41
330
1F
100
AcDbEntity
  8
D-MTR-MTXT
100
AcDbText
 10
9751.910681250155
 20
3731.256553309983
 30
0.0
 40
70.0
  1
ボルト　Ｍ16　Ｌ＝140
100
AcDbText
  0
TEXT
  5
24B42
330
1F
100
AcDbEntity
  8
D-MTR-MTXT
100
AcDbText
 10
9751.910681250155
 20
3860.58889241845
 30
0.0
 40
70.0
  1
吊り用インサート　Ｍ20（Ｙ－Ｄ32×150）
100
AcDbText
  0
LINE
  5
24B43
330
1F
100
AcDbEntity
  8
D-MTR-FRAM
  6
Continuous
100
AcDbLine
 10
9671.91469562544
 20
4102.054530950633
 30
0.0
 11
9671.91469562544
 21
3584.723314516767
 31
0.0
  0
CIRCLE
  5
24B44
330
1F
100
AcDbEntity
  8
D-STR-DIM
  6
Continuous
100
AcDbCircle
 10
8581.175278093001
 20
5732.054523303942
 30
0.0
 40
5.999997971852679
  0
TEXT
  5
24B45
330
1F
100
AcDbEntity
  8
D-MTR
100
AcDbText
 10
10438.98123578751
 20
4151.831177258928
 30
0.0
 40
140.0
  1
　材　料　表　
100
AcDbText
  0
TEXT
  5
24B46
330
1F
100
AcDbEntity
  8
D-MTR-TXT
100
AcDbText
 10
10572.26015498467
 20
3989.921711526914
 30
0.0
 40
70.0
  1
種　　類
100
AcDbText
  0
LINE
  5
24B47
330
1F
100
AcDbEntity
  8
D-MTR-FRAM
  6
Continuous
100
AcDbLine
 10
11773.91406583442
 20
4102.054530950633
 30
0.0
 11
11773.91406583442
 21
3584.723314516767
 31
0.0
  0
TEXT
  5
24B48
330
1F
100
AcDbEntity
  8
D-STR-DIM
100
AcDbText
 10
9769.175812519819
 20
8043.28651246144
 30
0.0
 40
70.0
  1
φ70
 50
90.0
100
AcDbText
  0
LINE
  5
24B49
330
1F
100
AcDbEntity
  8
D-STR-DIM
  6
Continuous
100
AcDbLine
 10
9961.175871525274
 20
8177.054311833904
 30
0.0
 11
9551.175813542547
 21
8177.054311833904
 31
0.0
  0
LINE
  5
24B4A
330
1F
100
AcDbEntity
  8
D-STR-DIM
  6
Continuous
100
AcDbLine
 10
9961.175871525274
 20
8087.054312256114
 30
0.0
 11
9551.175813542547
 21
8087.054312256114
 31
0.0
  0
LINE
  5
24B4B
330
1F
100
AcDbEntity
  8
D-STR-DIM
  6
Continuous
100
AcDbLine
 10
8611.175277952265
 20
6732.054318612719
 30
0.0
 11
9951.175851666073
 21
6732.054318612719
 31
0.0
  0
LINE
  5
24B4C
330
1F
100
AcDbEntity
  8
D-STR-DIM
  6
Continuous
100
AcDbLine
 10
9281.175234809131
 20
6732.054318612719
 30
0.0
 11
9281.175234809131
 21
7682.054114156061
 31
0.0
  0
LINE
  5
24B4D
330
1F
100
AcDbEntity
  8
D-STR-DIM
  6
Continuous
100
AcDbLine
 10
8981.175254216564
 20
7132.054116736232
 30
0.0
 11
8981.175254216564
 21
7532.053914859746
 31
0.0
  0
TEXT
  5
24B4E
330
1F
100
AcDbEntity
  8
D-STR-DIM
100
AcDbText
 10
9077.495249764652
 20
6845.194518081957
 30
0.0
 40
70.0
  1
400
 50
90.0
100
AcDbText
  0
LINE
  5
24B4F
330
1F
100
AcDbEntity
  8
D-STR-DIM
  6
Continuous
100
AcDbLine
 10
8581.175278093001
 20
6032.053921896578
 30
0.0
 11
8431.17529879669
 21
6032.053921896578
 31
0.0
  0
CIRCLE
  5
24B50
330
1F
100
AcDbEntity
  8
D-STR-DIM
  6
Continuous
100
AcDbCircle
 10
8581.175278093001
 20
6032.053921896578
 30
0.0
 40
5.999997971852679
  0
CIRCLE
  5
24B51
330
1F
100
AcDbEntity
  8
D-STR-DIM
  6
Continuous
100
AcDbCircle
 10
8581.175278093001
 20
6332.054320489208
 30
0.0
 40
5.999997971852679
  0
LINE
  5
24B52
330
1F
100
AcDbEntity
  8
D-STR-DIM
  6
Continuous
100
AcDbLine
 10
8601.175278093
 20
7132.054116736232
 30
0.0
 11
9011.175254075824
 21
7132.054116736232
 31
0.0
  0
LINE
  5
24B53
330
1F
100
AcDbEntity
  8
D-STR-DIM
  6
Continuous
100
AcDbLine
 10
8981.175254216564
 20
6732.054318612719
 30
0.0
 11
8981.175254216564
 21
6932.054117674477
 31
0.0
  0
CIRCLE
  5
24B54
330
1F
100
AcDbEntity
  8
D-STR-DIM
  6
Continuous
100
AcDbCircle
 10
8981.175254216564
 20
6732.054318612719
 30
0.0
 40
5.999997971852679
  0
CIRCLE
  5
24B55
330
1F
100
AcDbEntity
  8
D-STR-DIM
  6
Continuous
100
AcDbCircle
 10
8981.175254216564
 20
7132.054116736232
 30
0.0
 40
5.999997971852679
  0
LINE
  5
24B56
330
1F
100
AcDbEntity
  8
D-STR-DIM
  6
Continuous
100
AcDbLine
 10
8981.175254216564
 20
7132.054116736232
 30
0.0
 11
8981.175254216564
 21
6932.054117674477
 31
0.0
  0
CIRCLE
  5
24B57
330
1F
100
AcDbEntity
  8
D-STR-DIM
  6
Continuous
100
AcDbCircle
 10
9281.175234809131
 20
6732.054318612719
 30
0.0
 40
5.999997971852679
  0
TEXT
  5
24B58
330
1F
100
AcDbEntity
  8
D-STR-DIM
100
AcDbText
 10
9077.495249764652
 20
8440.193710599462
 30
0.0
 40
70.0
  1
210
 50
90.0
100
AcDbText
  0
TEXT
  5
24B59
330
1F
100
AcDbEntity
  8
D-STR-DIM
100
AcDbText
 10
9077.495249764652
 20
7922.194113029512
 30
0.0
 40
70.0
  1
90
 50
90.0
100
AcDbText
  0
CIRCLE
  5
24B5A
330
1F
100
AcDbEntity
  8
D-STR-DIM
  6
Continuous
100
AcDbCircle
 10
8981.175254216564
 20
7932.053912983256
 30
0.0
 40
5.999997971852679
  0
LINE
  5
24B5B
330
1F
100
AcDbEntity
  8
D-STR-DIM
  6
Continuous
100
AcDbLine
 10
8981.175254216564
 20
7932.053912983256
 30
0.0
 11
8981.175254216564
 21
7977.054312772148
 31
0.0
  0
LINE
  5
24B5C
330
1F
100
AcDbEntity
  8
D-STR-DIM
  6
Continuous
100
AcDbLine
 10
8601.175278093
 20
7932.053912983256
 30
0.0
 11
9011.175254075824
 21
7932.053912983256
 31
0.0
  0
TEXT
  5
24B5D
330
1F
100
AcDbEntity
  8
D-STR-DIM
100
AcDbText
 10
8965.175250291606
 20
7445.194315267222
 30
0.0
 40
70.0
  1
800
 50
90.0
100
AcDbText
  0
LINE
  5
24B5E
330
1F
100
AcDbEntity
  8
D-STR-DIM
  6
Continuous
100
AcDbLine
 10
8981.175254216564
 20
7932.053912983256
 30
0.0
 11
8981.175254216564
 21
7532.053914859746
 31
0.0
  0
LINE
  5
24B5F
330
1F
100
AcDbEntity
  8
D-STR-DIM
  6
Continuous
100
AcDbLine
 10
8601.175278093
 20
8022.053712561048
 30
0.0
 11
9011.175254075824
 21
8022.053712561048
 31
0.0
  0
LINE
  5
24B60
330
1F
100
AcDbEntity
  8
D-STR-DIM
  6
Continuous
100
AcDbLine
 10
8601.175278093
 20
8422.054710684555
 30
0.0
 11
9011.175254075824
 21
8422.054710684555
 31
0.0
  0
CIRCLE
  5
24B61
330
1F
100
AcDbEntity
  8
D-STR-STR2
  6
Continuous
100
AcDbCircle
 10
8432.675478789658
 20
8132.053712045014
 30
0.0
 40
14.99999792963168
  0
LINE
  5
24B62
330
1F
100
AcDbEntity
  8
D-BMK
  6
CENTER2
100
AcDbLine
 10
8432.675478789658
 20
8197.05431174008
 30
0.0
 11
8432.675478789658
 21
8067.054312349938
 31
0.0
  0
TEXT
  5
24B63
330
1F
100
AcDbEntity
  8
D-STR-DIM
100
AcDbText
 10
8965.175250291606
 20
8135.194112030282
 30
0.0
 40
70.0
  1
400
 50
90.0
100
AcDbText
  0
LINE
  5
24B64
330
1F
100
AcDbEntity
  8
D-STR-DIM
  6
Continuous
100
AcDbLine
 10
8981.175254216564
 20
8422.054710684555
 30
0.0
 11
8981.175254216564
 21
8222.054711622799
 31
0.0
  0
CIRCLE
  5
24B65
330
1F
100
AcDbEntity
  8
D-STR-DIM
  6
Continuous
100
AcDbCircle
 10
8981.175254216564
 20
8022.053712561048
 30
0.0
 40
5.999997971852679
  0
LINE
  5
24B66
330
1F
100
AcDbEntity
  8
D-STR-DIM
  6
Continuous
100
AcDbLine
 10
8981.175254216564
 20
8022.053712561048
 30
0.0
 11
8981.175254216564
 21
8222.054711622799
 31
0.0
  0
LINE
  5
24B67
330
1F
100
AcDbEntity
  8
D-STR-DIM
  6
Continuous
100
AcDbLine
 10
8981.175254216564
 20
8022.053712561048
 30
0.0
 11
8981.175254216564
 21
7977.054312772148
 31
0.0
  0
CIRCLE
  5
24B68
330
1F
100
AcDbEntity
  8
D-STR-DIM
  6
Continuous
100
AcDbCircle
 10
8981.175254216564
 20
8422.054710684555
 30
0.0
 40
5.999997971852679
  0
LINE
  5
24B69
330
1F
100
AcDbEntity
  8
D-STR-DIM
  6
Continuous
100
AcDbLine
 10
8981.175254216564
 20
8422.054710684555
 30
0.0
 11
8981.175254216564
 21
8527.054310191976
 31
0.0
  0
TEXT
  5
24B6A
330
1F
100
AcDbEntity
  8
D-STR-DIM
100
AcDbText
 10
9265.1752148842
 20
7563.194314713658
 30
0.0
 40
70.0
  1
1900
 50
90.0
100
AcDbText
  0
TEXT
  5
24B6B
330
1F
100
AcDbEntity
  8
D-STR-DIM
100
AcDbText
 10
9569.175813458064
 20
8043.28651246144
 30
0.0
 40
70.0
  1
φ90
 50
90.0
100
AcDbText
  0
CIRCLE
  5
24B6C
330
1F
100
AcDbEntity
  8
D-STR-DIM
  6
Continuous
100
AcDbCircle
 10
9581.175813401813
 20
8177.054311833904
 30
0.0
 40
5.999997971852679
  0
CIRCLE
  5
24B6D
330
1F
100
AcDbEntity
  8
D-STR-DIM
  6
Continuous
100
AcDbCircle
 10
9581.175813401813
 20
8087.054312256114
 30
0.0
 40
5.999997971852679
  0
LINE
  5
24B6E
330
1F
100
AcDbEntity
  8
D-STR-DIM
  6
Continuous
100
AcDbLine
 10
9581.175813401813
 20
8177.054311833904
 30
0.0
 11
9581.175813401813
 21
8132.053712045014
 31
0.0
  0
LINE
  5
24B6F
330
1F
100
AcDbEntity
  8
D-STR-DIM
  6
Continuous
100
AcDbLine
 10
9581.175813401813
 20
8087.054312256114
 30
0.0
 11
9581.175813401813
 21
8132.053712045014
 31
0.0
  0
LINE
  5
24B70
330
1F
100
AcDbEntity
  8
D-STR-DIM
  6
Continuous
100
AcDbLine
 10
10681.17576824145
 20
7132.054116736232
 30
0.0
 11
10681.17576824145
 21
7532.053914859746
 31
0.0
  0
LINE
  5
24B71
330
1F
100
AcDbEntity
  8
D-STR-DIM
  6
Continuous
100
AcDbLine
 10
10931.17564706868
 20
6932.054117674477
 30
0.0
 11
10931.17564706868
 21
7682.054114156061
 31
0.0
  0
LINE
  5
24B72
330
1F
100
AcDbEntity
  8
D-DCR-HCH
  6
Continuous
100
AcDbLine
 10
9981.175871525273
 20
7199.580516419452
 30
0.0
 11
10131.17583082164
 21
7349.580715715768
 31
0.0
  0
LINE
  5
24B73
330
1F
100
AcDbEntity
  8
D-DCR-HCH
  6
Continuous
100
AcDbLine
 10
10003.45239142078
 20
7132.054116736232
 30
0.0
 11
10131.17583082164
 21
7259.778116137052
 31
0.0
  0
LINE
  5
24B74
330
1F
100
AcDbEntity
  8
D-STR-DIM
  6
Continuous
100
AcDbLine
 10
10151.17583082164
 20
7132.054116736232
 30
0.0
 11
10711.17578810072
 21
7132.054116736232
 31
0.0
  0
LINE
  5
24B75
330
1F
100
AcDbEntity
  8
D-STR
  6
Continuous
100
AcDbLine
 10
9981.175871525273
 20
6732.054318612719
 30
0.0
 11
10431.17584941428
 21
6732.054318612719
 31
0.0
  0
LINE
  5
24B76
330
1F
100
AcDbEntity
  8
D-STR
  6
Continuous
100
AcDbLine
 10
10131.17583082164
 20
6932.054117674477
 30
0.0
 11
10431.17584941428
 21
6932.054117674477
 31
0.0
  0
LINE
  5
24B77
330
1F
100
AcDbEntity
  8
D-STR-DIM
  6
Continuous
100
AcDbLine
 10
10131.17583082164
 20
6712.054318612719
 30
0.0
 11
10131.17583082164
 21
6302.054720629945
 31
0.0
  0
LINE
  5
24B78
330
1F
100
AcDbEntity
  8
D-STR-DIM
  6
Continuous
100
AcDbLine
 10
9981.175871525273
 20
6712.054318612719
 30
0.0
 11
9981.175871525273
 21
6302.054720629945
 31
0.0
  0
TEXT
  5
24B79
330
1F
100
AcDbEntity
  8
D-STR-DIM
100
AcDbText
 10
9984.672771508893
 20
6348.054120414151
 30
0.0
 40
70.0
  1
150
100
AcDbText
  0
LINE
  5
24B7A
330
1F
100
AcDbEntity
  8
D-STR-DIM
  6
Continuous
100
AcDbLine
 10
9981.175871525273
 20
6332.054320489208
 30
0.0
 11
10056.17585117349
 21
6332.054320489208
 31
0.0
  0
CIRCLE
  5
24B7B
330
1F
100
AcDbEntity
  8
D-STR-DIM
  6
Continuous
100
AcDbCircle
 10
9981.175871525273
 20
6332.054320489208
 30
0.0
 40
5.999997971852679
  0
CIRCLE
  5
24B7C
330
1F
100
AcDbEntity
  8
D-STR-DIM
  6
Continuous
100
AcDbCircle
 10
10131.17583082164
 20
6332.054320489208
 30
0.0
 40
5.999997971852679
  0
LINE
  5
24B7D
330
1F
100
AcDbEntity
  8
D-STR-DIM
  6
Continuous
100
AcDbLine
 10
10131.17583082164
 20
6332.054320489208
 30
0.0
 11
10056.17585117349
 21
6332.054320489208
 31
0.0
  0
LINE
  5
24B7E
330
1F
100
AcDbEntity
  8
D-STR
  6
DASHED1
100
AcDbLine
 10
9981.175871525273
 20
7132.054116736232
 30
0.0
 11
10131.17583082164
 21
7132.054116736232
 31
0.0
  0
LINE
  5
24B7F
330
1F
100
AcDbEntity
  8
D-STR
  6
Continuous
100
AcDbLine
 10
10131.17521082166
 20
6895.553917845707
 30
0.0
 11
10031.17585129077
 21
6890.553717869164
 31
0.0
  0
LINE
  5
24B80
330
1F
100
AcDbEntity
  8
D-STR
  6
Continuous
100
AcDbLine
 10
10031.17585129077
 20
6870.55371796299
 30
0.0
 11
10131.17645082163
 21
6865.553317986448
 31
0.0
  0
LINE
  5
24B81
330
1F
100
AcDbEntity
  8
D-STR
  6
Continuous
100
AcDbLine
 10
10031.17585129077
 20
6845.554318080267
 30
0.0
 11
10031.17585129077
 21
6915.554117751884
 31
0.0
  0
LINE
  5
24B82
330
1F
100
AcDbEntity
  8
D-STR
  6
Continuous
100
AcDbLine
 10
9981.175871525273
 20
6835.553718127181
 30
0.0
 11
10031.17585129077
 21
6845.553318080272
 31
0.0
  0
LINE
  5
24B83
330
1F
100
AcDbEntity
  8
D-STR
  6
Continuous
100
AcDbLine
 10
10031.17523129071
 20
6915.554117751884
 30
0.0
 11
9981.175871525273
 21
6925.553717704971
 31
0.0
  0
LINE
  5
24B84
330
1F
100
AcDbEntity
  8
D-DCR-HCH
  6
Continuous
100
AcDbLine
 10
10131.17583082164
 20
6778.012918397118
 30
0.0
 11
10220.11197040443
 21
6932.054117674477
 31
0.0
  0
LINE
  5
24B85
330
1F
100
AcDbEntity
  8
D-DCR-HCH
  6
Continuous
100
AcDbLine
 10
10131.17583082164
 20
6818.012118209473
 30
0.0
 11
10197.01743051275
 21
6932.054117674477
 31
0.0
  0
LINE
  5
24B86
330
1F
100
AcDbEntity
  8
D-DCR-HCH
  6
Continuous
100
AcDbLine
 10
10254.64145024243
 20
6732.055318612717
 30
0.0
 11
10370.11142970071
 21
6932.054117674477
 31
0.0
  0
LINE
  5
24B87
330
1F
100
AcDbEntity
  8
D-DCR-HCH
  6
Continuous
100
AcDbLine
 10
10231.54765035078
 20
6732.054318612719
 30
0.0
 11
10347.01738980906
 21
6932.054117674477
 31
0.0
  0
LINE
  5
24B88
330
1F
100
AcDbEntity
  8
D-STR
  6
Continuous
100
AcDbLine
 10
10211.17583044635
 20
6852.053918049776
 30
0.0
 11
10211.17583044635
 21
6932.054117674477
 31
0.0
  0
LINE
  5
24B89
330
1F
100
AcDbEntity
  8
D-STR
  6
Continuous
100
AcDbLine
 10
10131.17583082164
 20
6852.053918049776
 30
0.0
 11
10211.17583044635
 21
6852.053918049776
 31
0.0
  0
LINE
  5
24B8A
330
1F
100
AcDbEntity
  8
D-DCR-HCH
  6
Continuous
100
AcDbLine
 10
10093.25475099952
 20
7132.054116736232
 30
0.0
 11
10131.17583082164
 21
7169.975316558335
 31
0.0
  0
LINE
  5
24B8B
330
1F
100
AcDbEntity
  8
D-STR-DIM
  6
Continuous
100
AcDbLine
 10
10451.17584941428
 20
6932.054117674477
 30
0.0
 11
10961.17564692794
 21
6932.054117674477
 31
0.0
  0
LINE
  5
24B8C
330
1F
100
AcDbEntity
  8
D-STR-DIM
  6
Continuous
100
AcDbLine
 10
10451.17584941428
 20
6732.054318612719
 30
0.0
 11
10961.17564692794
 21
6732.054318612719
 31
0.0
  0
LINE
  5
24B8D
330
1F
100
AcDbEntity
  8
D-DCR-HCH
  6
Continuous
100
AcDbLine
 10
10381.54758964707
 20
6732.054318612719
 30
0.0
 11
10431.17584941428
 21
6818.013118209468
 31
0.0
  0
LINE
  5
24B8E
330
1F
100
AcDbEntity
  8
D-DCR-HCH
  6
Continuous
100
AcDbLine
 10
10404.64200953871
 20
6732.054318612719
 30
0.0
 11
10431.17584941428
 21
6778.012918397118
 31
0.0
  0
TEXT
  5
24B8F
330
1F
100
AcDbEntity
  8
D-STR-DIM
100
AcDbText
 10
10665.17584831648
 20
6945.194117612834
 30
0.0
 40
70.0
  1
200
 50
90.0
100
AcDbText
  0
CIRCLE
  5
24B90
330
1F
100
AcDbEntity
  8
D-STR-DIM
  6
Continuous
100
AcDbCircle
 10
10681.17576824145
 20
7132.054116736232
 30
0.0
 40
5.999997971852679
  0
CIRCLE
  5
24B91
330
1F
100
AcDbEntity
  8
D-STR-DIM
  6
Continuous
100
AcDbCircle
 10
10681.17576824145
 20
6932.054117674477
 30
0.0
 40
5.999997971852679
  0
LINE
  5
24B92
330
1F
100
AcDbEntity
  8
D-STR-DIM
  6
Continuous
100
AcDbLine
 10
10681.17576824145
 20
7132.054116736232
 30
0.0
 11
10681.17576824145
 21
7032.054717205352
 31
0.0
  0
LINE
  5
24B93
330
1F
100
AcDbEntity
  8
D-STR-DIM
  6
Continuous
100
AcDbLine
 10
10681.17576824145
 20
6932.054117674477
 30
0.0
 11
10681.17576824145
 21
7032.054717205352
 31
0.0
  0
LINE
  5
24B94
330
1F
100
AcDbEntity
  8
D-STR-DIM
  6
Continuous
100
AcDbLine
 10
10931.17564706868
 20
6932.054117674477
 30
0.0
 11
10931.17564706868
 21
6832.054718143597
 31
0.0
  0
TEXT
  5
24B95
330
1F
100
AcDbEntity
  8
D-STR-DIM
100
AcDbText
 10
10915.17564714368
 20
6745.194118551079
 30
0.0
 40
70.0
  1
200
 50
90.0
100
AcDbText
  0
CIRCLE
  5
24B96
330
1F
100
AcDbEntity
  8
D-STR-DIM
  6
Continuous
100
AcDbCircle
 10
10931.17564706868
 20
6732.054318612719
 30
0.0
 40
5.999997971852679
  0
LINE
  5
24B97
330
1F
100
AcDbEntity
  8
D-STR-DIM
  6
Continuous
100
AcDbLine
 10
10931.17564706868
 20
6732.054318612719
 30
0.0
 11
10931.17564706868
 21
6832.054718143597
 31
0.0
  0
CIRCLE
  5
24B98
330
1F
100
AcDbEntity
  8
D-STR-DIM
  6
Continuous
100
AcDbCircle
 10
10931.17564706868
 20
6932.054117674477
 30
0.0
 40
5.999997971852679
  0
LINE
  5
24B99
330
1F
100
AcDbEntity
  8
D-STR-DIM
  6
Continuous
100
AcDbLine
 10
10151.17583082164
 20
7932.053912983256
 30
0.0
 11
10711.17578810072
 21
7932.053912983256
 31
0.0
  0
LINE
  5
24B9A
330
1F
100
AcDbEntity
  8
D-STR
  6
Continuous
100
AcDbLine
 10
10131.17583082164
 20
8432.054110637643
 30
0.0
 11
10431.17584941428
 21
8432.054110637643
 31
0.0
  0
LINE
  5
24B9B
330
1F
100
AcDbEntity
  8
D-DCR-HCH
  6
Continuous
100
AcDbLine
 10
9981.175871525273
 20
7828.198713470463
 30
0.0
 11
10085.03095103813
 21
7932.053912983256
 31
0.0
  0
LINE
  5
24B9C
330
1F
100
AcDbEntity
  8
D-DCR-HCH
  6
Continuous
100
AcDbLine
 10
9981.175871525273
 20
7738.395913891749
 30
0.0
 11
10131.17583082164
 21
7888.396113188067
 31
0.0
  0
LINE
  5
24B9D
330
1F
100
AcDbEntity
  8
D-DCR-HCH
  6
Continuous
100
AcDbLine
 10
9981.175871525273
 20
7648.593114313034
 30
0.0
 11
10131.17583082164
 21
7798.593313609349
 31
0.0
  0
LINE
  5
24B9E
330
1F
100
AcDbEntity
  8
D-DCR-HCH
  6
Continuous
100
AcDbLine
 10
9981.175871525273
 20
7558.790514734319
 30
0.0
 11
10131.17583082164
 21
7708.79171403063
 31
0.0
  0
LINE
  5
24B9F
330
1F
100
AcDbEntity
  8
D-DCR-HCH
  6
Continuous
100
AcDbLine
 10
9981.175871525273
 20
7468.9887151556
 30
0.0
 11
10131.17583082164
 21
7618.988914451913
 31
0.0
  0
LINE
  5
24BA0
330
1F
100
AcDbEntity
  8
D-DCR-HCH
  6
Continuous
100
AcDbLine
 10
9981.175871525273
 20
7379.186115576882
 30
0.0
 11
10131.17583082164
 21
7529.186314873197
 31
0.0
  0
LINE
  5
24BA1
330
1F
100
AcDbEntity
  8
D-DCR-HCH
  6
Continuous
100
AcDbLine
 10
9981.175871525273
 20
7289.383315998168
 30
0.0
 11
10131.17583082164
 21
7439.383515294483
 31
0.0
  0
LINE
  5
24BA2
330
1F
100
AcDbEntity
  8
D-STR
  6
DASHED1
100
AcDbLine
 10
9981.175871525273
 20
7932.053912983256
 30
0.0
 11
10131.17583082164
 21
7932.053912983256
 31
0.0
  0
LINE
  5
24BA3
330
1F
100
AcDbEntity
  8
D-DCR-HCH
  6
Continuous
100
AcDbLine
 10
9981.175871525273
 20
7918.00131304918
 30
0.0
 11
9995.228611459388
 21
7932.053912983256
 31
0.0
  0
LINE
  5
24BA4
330
1F
100
AcDbEntity
  8
D-STR
  6
Continuous
100
AcDbLine
 10
10031.17585129077
 20
8122.053312091926
 30
0.0
 11
10131.17645082163
 21
8117.05391211538
 31
0.0
  0
LINE
  5
24BA5
330
1F
100
AcDbEntity
  8
D-STR
  6
Continuous
100
AcDbLine
 10
10131.17521082166
 20
8147.053711974646
 30
0.0
 11
10031.17585129077
 21
8142.053311998102
 31
0.0
  0
LINE
  5
24BA6
330
1F
100
AcDbEntity
  8
D-STR
  6
Continuous
100
AcDbLine
 10
10031.17585129077
 20
8022.053712561048
 30
0.0
 11
10031.17585129077
 21
8422.054710684555
 31
0.0
  0
LINE
  5
24BA7
330
1F
100
AcDbEntity
  8
D-STR-DIM
  6
Continuous
100
AcDbLine
 10
9961.175871525274
 20
8167.054711880815
 30
0.0
 11
9751.1757926043
 21
8167.054711880815
 31
0.0
  0
LINE
  5
24BA8
330
1F
100
AcDbEntity
  8
D-STR-DIM
  6
Continuous
100
AcDbLine
 10
9961.175871525274
 20
8097.053912209204
 30
0.0
 11
9751.1757926043
 21
8097.053912209204
 31
0.0
  0
CIRCLE
  5
24BA9
330
1F
100
AcDbEntity
  8
D-STR-DIM
  6
Continuous
100
AcDbCircle
 10
9781.175812463567
 20
8167.054711880815
 30
0.0
 40
5.999997971852679
  0
CIRCLE
  5
24BAA
330
1F
100
AcDbEntity
  8
D-STR-DIM
  6
Continuous
100
AcDbCircle
 10
9781.175812463567
 20
8097.053912209204
 30
0.0
 40
5.999997971852679
  0
LINE
  5
24BAB
330
1F
100
AcDbEntity
  8
D-STR-DIM
  6
Continuous
100
AcDbLine
 10
9781.175812463567
 20
8167.054711880815
 30
0.0
 11
9781.175812463567
 21
8132.053712045014
 31
0.0
  0
LINE
  5
24BAC
330
1F
100
AcDbEntity
  8
D-STR-DIM
  6
Continuous
100
AcDbLine
 10
9781.175812463567
 20
8097.053912209204
 30
0.0
 11
9781.175812463567
 21
8132.053712045014
 31
0.0
  0
LINE
  5
24BAD
330
1F
100
AcDbEntity
  8
D-STR
  6
Continuous
100
AcDbLine
 10
10031.17523129071
 20
8167.054711880815
 30
0.0
 11
9981.17525152528
 21
8177.054311833904
 31
0.0
  0
LINE
  5
24BAE
330
1F
100
AcDbEntity
  8
D-STR
  6
Continuous
100
AcDbLine
 10
9981.175871525273
 20
8087.054312256114
 30
0.0
 11
10031.17585129077
 21
8097.053912209204
 31
0.0
  0
LINE
  5
24BAF
330
1F
100
AcDbEntity
  8
D-STR
  6
Continuous
100
AcDbLine
 10
10031.17585129077
 20
8097.053912209204
 30
0.0
 11
10031.17585129077
 21
8167.054711880815
 31
0.0
  0
LINE
  5
24BB0
330
1F
100
AcDbEntity
  8
D-STR
  6
Continuous
100
AcDbLine
 10
9981.175871525273
 20
8012.054312607956
 30
0.0
 11
10031.17635129072
 21
8022.053712561048
 31
0.0
  0
LINE
  5
24BB1
330
1F
100
AcDbEntity
  8
D-STR
  6
Continuous
100
AcDbLine
 10
9981.17525152528
 20
8432.054110637643
 30
0.0
 11
10031.17585129077
 21
8422.054710684555
 31
0.0
  0
LINE
  5
24BB2
330
1F
100
AcDbEntity
  8
D-STR
  6
Continuous
100
AcDbLine
 10
10081.17585105621
 20
8022.053712561048
 30
0.0
 11
10081.17585105621
 21
8422.054710684555
 31
0.0
  0
LINE
  5
24BB3
330
1F
100
AcDbEntity
  8
D-STR-DIM
  6
Continuous
100
AcDbLine
 10
10151.17583082164
 20
8117.05391211538
 30
0.0
 11
10261.17581021178
 21
8117.05391211538
 31
0.0
  0
LINE
  5
24BB4
330
1F
100
AcDbEntity
  8
D-STR-DIM
  6
Continuous
100
AcDbLine
 10
10151.17583082164
 20
8147.054711974639
 30
0.0
 11
10261.17581021178
 21
8147.054711974639
 31
0.0
  0
LINE
  5
24BB5
330
1F
100
AcDbEntity
  8
D-STR
  6
Continuous
100
AcDbLine
 10
10131.17583082164
 20
8012.054312607956
 30
0.0
 11
10081.17585105621
 21
8022.053712561048
 31
0.0
  0
TEXT
  5
24BB6
330
1F
100
AcDbEntity
  8
D-STR-DIM
100
AcDbText
 10
10303.41575001362
 20
8066.909512350619
 30
0.0
 40
70.0
  1
φ30
 50
90.0
100
AcDbText
  0
CIRCLE
  5
24BB7
330
1F
100
AcDbEntity
  8
D-STR-DIM
  6
Continuous
100
AcDbCircle
 10
10231.17579035251
 20
8117.05391211538
 30
0.0
 40
5.999997971852679
  0
CIRCLE
  5
24BB8
330
1F
100
AcDbEntity
  8
D-STR-DIM
  6
Continuous
100
AcDbCircle
 10
10231.17579035251
 20
8147.054711974639
 30
0.0
 40
5.999997971852679
  0
LINE
  5
24BB9
330
1F
100
AcDbEntity
  8
D-STR-DIM
  6
Continuous
100
AcDbLine
 10
10231.17579035251
 20
8117.05391211538
 30
0.0
 11
10231.17579035251
 21
8132.053712045014
 31
0.0
  0
LINE
  5
24BBA
330
1F
100
AcDbEntity
  8
D-STR-DIM
  6
Continuous
100
AcDbLine
 10
10231.17579035251
 20
8147.054711974639
 30
0.0
 11
10231.17579035251
 21
8132.053712045014
 31
0.0
  0
LINE
  5
24BBB
330
1F
100
AcDbEntity
  8
D-STR
  6
Continuous
100
AcDbLine
 10
10131.17583082164
 20
8432.054110637643
 30
0.0
 11
10081.17585105621
 21
8422.054710684555
 31
0.0
  0
CIRCLE
  5
24BBC
330
1F
100
AcDbEntity
  8
D-STR-DIM
  6
Continuous
100
AcDbCircle
 10
10681.17576824145
 20
7932.053912983256
 30
0.0
 40
5.999997971852679
  0
LINE
  5
24BBD
330
1F
100
AcDbEntity
  8
D-STR-DIM
  6
Continuous
100
AcDbLine
 10
10681.17576824145
 20
7932.053912983256
 30
0.0
 11
10681.17576824145
 21
8182.054511810449
 31
0.0
  0
LINE
  5
24BBE
330
1F
100
AcDbEntity
  8
D-STR-DIM
  6
Continuous
100
AcDbLine
 10
10931.17564706868
 20
8432.054110637643
 30
0.0
 11
10931.17564706868
 21
7682.054114156061
 31
0.0
  0
TEXT
  5
24BBF
330
1F
100
AcDbEntity
  8
D-STR-DIM
100
AcDbText
 10
10665.17584831648
 20
7445.194315267222
 30
0.0
 40
70.0
  1
800
 50
90.0
100
AcDbText
  0
LINE
  5
24BC0
330
1F
100
AcDbEntity
  8
D-STR-DIM
  6
Continuous
100
AcDbLine
 10
10681.17576824145
 20
7932.053912983256
 30
0.0
 11
10681.17576824145
 21
7532.053914859746
 31
0.0
  0
TEXT
  5
24BC1
330
1F
100
AcDbEntity
  8
D-STR-DIM
100
AcDbText
 10
10915.17564714368
 20
7563.194314713658
 30
0.0
 40
70.0
  1
1500
 50
90.0
100
AcDbText
  0
LINE
  5
24BC2
330
1F
100
AcDbEntity
  8
D-STR-DIM
  6
Continuous
100
AcDbLine
 10
10451.17584941428
 20
8432.054110637643
 30
0.0
 11
10961.17564692794
 21
8432.054110637643
 31
0.0
  0
LINE
  5
24BC3
330
1F
100
AcDbEntity
  8
D-STR-DIM
  6
Continuous
100
AcDbLine
 10
10681.17576824145
 20
8432.054110637643
 30
0.0
 11
10681.17576824145
 21
8182.054511810449
 31
0.0
  0
TEXT
  5
24BC4
330
1F
100
AcDbEntity
  8
D-STR-DIM
100
AcDbText
 10
10665.17584831648
 20
8095.193912217929
 30
0.0
 40
70.0
  1
500
 50
90.0
100
AcDbText
  0
LINE
  5
24BC5
330
1F
100
AcDbEntity
  8
D-DCR-HCH
  6
Continuous
100
AcDbLine
 10
10404.64138953872
 20
8432.054110637643
 30
0.0
 11
10431.17522941423
 21
8478.012910422043
 31
0.0
  0
LINE
  5
24BC6
330
1F
100
AcDbEntity
  8
D-DCR-HCH
  6
Continuous
100
AcDbLine
 10
10381.54696964709
 20
8432.054110637643
 30
0.0
 11
10431.17522941423
 21
8518.013110234393
 31
0.0
  0
CIRCLE
  5
24BC7
330
1F
100
AcDbEntity
  8
D-STR-DIM
  6
Continuous
100
AcDbCircle
 10
10681.17576824145
 20
8432.054110637643
 30
0.0
 40
5.999997971852679
  0
TEXT
  5
24BC8
330
1F
100
AcDbEntity
  8
D-STR-DIM
100
AcDbText
 10
10915.17564714368
 20
8445.194110576004
 30
0.0
 40
70.0
  1
200
 50
90.0
100
AcDbText
  0
CIRCLE
  5
24BC9
330
1F
100
AcDbEntity
  8
D-STR-DIM
  6
Continuous
100
AcDbCircle
 10
10931.17564706868
 20
8432.054110637643
 30
0.0
 40
5.999997971852679
  0
LINE
  5
24BCA
330
1F
100
AcDbEntity
  8
D-STR-DIM
  6
Continuous
100
AcDbLine
 10
10931.17564706868
 20
8432.054110637643
 30
0.0
 11
10931.17564706868
 21
8532.054710168521
 31
0.0
  0
TEXT
  5
24BCB
330
1F
100
AcDbEntity
  8
D-STR-DIM
100
AcDbText
 10
13000.47821865108
 20
5875.734522629906
 30
0.0
 40
70.0
  1
130
100
AcDbText
  0
TEXT
  5
24BCC
330
1F
100
AcDbEntity
  8
D-STR-DIM
100
AcDbText
 10
12205.4782223806
 20
5875.734522629906
 30
0.0
 40
70.0
  1
260
100
AcDbText
  0
LINE
  5
24BCD
330
1F
100
AcDbEntity
  8
D-STR-DIM
  6
Continuous
100
AcDbLine
 10
12162.338222583
 20
6652.053918894195
 30
0.0
 11
12162.338222583
 21
5642.05472372615
 31
0.0
  0
LINE
  5
24BCE
330
1F
100
AcDbEntity
  8
D-STR-DIM
  6
Continuous
100
AcDbLine
 10
12162.338222583
 20
5672.054323585415
 30
0.0
 11
12962.33801883003
 21
5672.054323585415
 31
0.0
  0
TEXT
  5
24BCF
330
1F
100
AcDbEntity
  8
D-MTR-MTXT
100
AcDbText
 10
11745.91426579973
 20
3860.58889241845
 30
0.0
 40
70.0
  1
　　　2　本
100
AcDbText
  0
LINE
  5
24BD0
330
1F
100
AcDbEntity
  8
D-MTR-FRAM
  6
Continuous
100
AcDbLine
 10
12379.9140628255
 20
4102.054530950633
 30
0.0
 11
12379.9140628255
 21
3584.723314516767
 31
0.0
  0
TEXT
  5
24BD1
330
1F
100
AcDbEntity
  8
D-MTR-MTXT
100
AcDbText
 10
11745.91426579973
 20
3601.923314201517
 30
0.0
 40
70.0
  1
　　　4　個
100
AcDbText
  0
TEXT
  5
24BD2
330
1F
100
AcDbEntity
  8
D-MTR-MTXT
100
AcDbText
 10
11745.91426579973
 20
3731.256553309983
 30
0.0
 40
70.0
  1
　　　4　本
100
AcDbText
  0
TEXT
  5
24BD3
330
1F
100
AcDbEntity
  8
D-MTR-TXT
100
AcDbText
 10
11930.97561499631
 20
3989.921711526914
 30
0.0
 40
70.0
  1
個　　数
100
AcDbText
  0
CIRCLE
  5
24BD4
330
1F
100
AcDbEntity
  8
D-STR-DIM
  6
Continuous
100
AcDbCircle
 10
12162.338222583
 20
5672.054323585415
 30
0.0
 40
5.999997971852679
  0
TEXT
  5
24BD5
330
1F
100
AcDbEntity
  8
D-STR-DIM
100
AcDbText
 10
12843.47801938764
 20
5688.053923510357
 30
0.0
 40
70.0
  1
1600
100
AcDbText
  0
TEXT
  5
24BD6
330
1F
100
AcDbEntity
  8
D-STR-DIM
100
AcDbText
 10
12325.47842181765
 20
6288.054720695621
 30
0.0
 40
70.0
  1
500
100
AcDbText
  0
LINE
  5
24BD7
330
1F
100
AcDbEntity
  8
D-STR-DIM
  6
Continuous
100
AcDbLine
 10
12422.33822136328
 20
5972.054722178047
 30
0.0
 11
12292.33822197314
 21
5972.054722178047
 31
0.0
  0
LINE
  5
24BD8
330
1F
100
AcDbEntity
  8
D-STR-DIM
  6
Continuous
100
AcDbLine
 10
12162.338222583
 20
6272.054120770683
 30
0.0
 11
12412.33822141019
 21
6272.054120770683
 31
0.0
  0
LINE
  5
24BD9
330
1F
100
AcDbEntity
  8
D-STR-HTXT
  6
Continuous
100
AcDbLine
 10
12634.78842036665
 20
6798.966318298821
 30
0.0
 11
11962.33782352125
 21
6272.054120770683
 31
0.0
  0
LINE
  5
24BDA
330
1F
100
AcDbEntity
  8
D-BMK
  6
CENTER2
100
AcDbLine
 10
12245.83922219131
 20
8072.054512326483
 30
0.0
 11
12375.83922158145
 21
8072.054512326483
 31
0.0
  0
LINE
  5
24BDB
330
1F
100
AcDbEntity
  8
D-STR-DIM
  6
Continuous
100
AcDbLine
 10
11762.33802445949
 20
6820.553918197548
 30
0.0
 11
11762.33802445949
 21
7446.304115262018
 31
0.0
  0
LINE
  5
24BDC
330
1F
100
AcDbEntity
  8
D-STR
  6
Continuous
100
AcDbLine
 10
12162.338222583
 20
6672.053918894196
 30
0.0
 11
12162.338222583
 21
8572.053909980876
 31
0.0
  0
TEXT
  5
24BDD
330
1F
100
AcDbEntity
  8
D-STR-DIM
100
AcDbText
 10
11746.33782453457
 20
6595.443519253592
 30
0.0
 40
70.0
  1
148.5
 50
90.0
100
AcDbText
  0
TEXT
  5
24BDE
330
1F
100
AcDbEntity
  8
D-STR-HTXT
100
AcDbText
 10
11480.22604093711
 20
6288.054720695621
 30
0.0
 40
70.0
  1
　継壁固定部
100
AcDbText
  0
LINE
  5
24BDF
330
1F
100
AcDbEntity
  8
D-STR-HTXT
  6
Continuous
100
AcDbLine
 10
11535.65134095249
 20
6272.054120770683
 30
0.0
 11
11962.33842352123
 21
6272.054120770683
 31
0.0
  0
LINE
  5
24BE1
330
1F
100
AcDbEntity
  8
D-STR-DIM
  6
Continuous
100
AcDbLine
 10
12162.338222583
 20
5972.054722178047
 30
0.0
 11
12292.33822197314
 21
5972.054722178047
 31
0.0
  0
CIRCLE
  5
24BE2
330
1F
100
AcDbEntity
  8
D-STR-DIM
  6
Continuous
100
AcDbCircle
 10
12162.338222583
 20
5972.054722178047
 30
0.0
 40
5.999997971852679
  0
CIRCLE
  5
24BE3
330
1F
100
AcDbEntity
  8
D-STR-DIM
  6
Continuous
100
AcDbCircle
 10
12162.338222583
 20
6272.054120770683
 30
0.0
 40
5.999997971852679
  0
LINE
  5
24BE4
330
1F
100
AcDbEntity
  8
D-STR-DIM
  6
Continuous
100
AcDbLine
 10
12142.338222583
 20
6672.053918894196
 30
0.0
 11
11732.33782460023
 21
6672.053918894196
 31
0.0
  0
LINE
  5
24BE5
330
1F
100
AcDbEntity
  8
D-STR-DIM
  6
Continuous
100
AcDbLine
 10
12142.338222583
 20
6820.553918197548
 30
0.0
 11
11732.33782460023
 21
6820.553918197548
 31
0.0
  0
CIRCLE
  5
24BE6
330
1F
100
AcDbEntity
  8
D-STR-DIM
  6
Continuous
100
AcDbCircle
 10
11762.33802445949
 20
6672.053918894196
 30
0.0
 40
5.999997971852679
  0
CIRCLE
  5
24BE7
330
1F
100
AcDbEntity
  8
D-STR-DIM
  6
Continuous
100
AcDbCircle
 10
11762.33802445949
 20
6820.553918197548
 30
0.0
 40
5.999997971852679
  0
LINE
  5
24BE8
330
1F
100
AcDbEntity
  8
D-STR-DIM
  6
Continuous
100
AcDbLine
 10
11762.33802445949
 20
6672.053918894196
 30
0.0
 11
11762.33802445949
 21
6746.303918545873
 31
0.0
  0
LINE
  5
24BE9
330
1F
100
AcDbEntity
  8
D-STR-DIM
  6
Continuous
100
AcDbLine
 10
11762.33802445949
 20
6820.553918197548
 30
0.0
 11
11762.33802445949
 21
6746.303918545873
 31
0.0
  0
TEXT
  5
24BEA
330
1F
100
AcDbEntity
  8
D-STR-DIM
100
AcDbText
 10
11746.33782453457
 20
7263.444516119854
 30
0.0
 40
70.0
  1
1251.5
 50
90.0
100
AcDbText
  0
TEXT
  5
24BEB
330
1F
100
AcDbEntity
  8
D-STR-DIM
100
AcDbText
 10
11746.33782453457
 20
8235.194511561159
 30
0.0
 40
70.0
  1
500
 50
90.0
100
AcDbText
  0
LINE
  5
24BEC
330
1F
100
AcDbEntity
  8
D-STR-DIM
  6
Continuous
100
AcDbLine
 10
11762.33802445949
 20
8072.054512326483
 30
0.0
 11
11762.33802445949
 21
7446.304115262018
 31
0.0
  0
LINE
  5
24BED
330
1F
100
AcDbEntity
  8
D-STR-DIM
  6
Continuous
100
AcDbLine
 10
12142.338222583
 20
8072.054512326483
 30
0.0
 11
11732.33782460023
 21
8072.054512326483
 31
0.0
  0
LINE
  5
24BEE
330
1F
100
AcDbEntity
  8
D-STR-DIM
  6
Continuous
100
AcDbLine
 10
12142.338222583
 20
8572.053909980876
 30
0.0
 11
11732.33782460023
 21
8572.053909980876
 31
0.0
  0
LINE
  5
24BEF
330
1F
100
AcDbEntity
  8
D-STR-DIM
  6
Continuous
100
AcDbLine
 10
11762.33802445949
 20
8072.054512326483
 30
0.0
 11
11762.33802445949
 21
8322.054111153679
 31
0.0
  0
CIRCLE
  5
24BF0
330
1F
100
AcDbEntity
  8
D-STR-DIM
  6
Continuous
100
AcDbCircle
 10
11762.33802445949
 20
8072.054512326483
 30
0.0
 40
5.999997971852679
  0
CIRCLE
  5
24BF1
330
1F
100
AcDbEntity
  8
D-STR-DIM
  6
Continuous
100
AcDbCircle
 10
11762.33802445949
 20
8572.053909980876
 30
0.0
 40
5.999997971852679
  0
LINE
  5
24BF2
330
1F
100
AcDbEntity
  8
D-STR-DIM
  6
Continuous
100
AcDbLine
 10
11762.33802445949
 20
8572.053909980876
 30
0.0
 11
11762.33802445949
 21
8322.054111153679
 31
0.0
  0
CIRCLE
  5
24BF3
330
1F
100
AcDbEntity
  8
D-STR-STR2
  6
Continuous
100
AcDbCircle
 10
12310.83922188638
 20
8072.054512326483
 30
0.0
 40
14.99999792963168
  0
CIRCLE
  5
24BF4
330
1F
100
AcDbEntity
  8
D-STR-STR2
  6
Continuous
100
AcDbCircle
 10
12310.83922188638
 20
8072.054512326483
 30
0.0
 40
34.99999783580725
  0
LINE
  5
24BF5
330
1F
100
AcDbEntity
  8
D-BMK
  6
CENTER2
100
AcDbLine
 10
12310.83922188638
 20
8137.054112021553
 30
0.0
 11
12310.83922188638
 21
8007.053912631414
 31
0.0
  0
TEXT
  5
24BF6
330
1F
100
AcDbEntity
  8
D-STR-HTXT
100
AcDbText
 10
13161.29605269487
 20
7237.053916243656
 30
0.0
 40
50.0
  1
350×250
100
AcDbText
  0
LINE
  5
24BF7
330
1F
100
AcDbEntity
  8
D-STR-STR2
  6
Continuous
100
AcDbLine
 10
13022.33841854854
 20
7222.054116314023
 30
0.0
 11
13022.33841854854
 21
7422.05391537578
 31
0.0
  0
LINE
  5
24BF8
330
1F
100
AcDbEntity
  8
D-STR-STR2
  6
Continuous
100
AcDbLine
 10
13152.33841793868
 20
7172.054316548582
 30
0.0
 11
13152.33841793868
 21
7422.05391537578
 31
0.0
  0
LINE
  5
24BF9
330
1F
100
AcDbEntity
  8
D-STR-STR2
  6
Continuous
100
AcDbLine
 10
13502.33801629676
 20
7172.054316548582
 30
0.0
 11
13502.33801629676
 21
7422.05391537578
 31
0.0
  0
LINE
  5
24BFA
330
1F
100
AcDbEntity
  8
D-STR-STR2
  6
Continuous
100
AcDbLine
 10
12422.33822136328
 20
7222.054116314023
 30
0.0
 11
12422.33822136328
 21
7422.05391537578
 31
0.0
  0
LINE
  5
24BFB
330
1F
100
AcDbEntity
  8
D-STR
  6
DASHED1
100
AcDbLine
 10
13562.33841601528
 20
6972.054317486827
 30
0.0
 11
13562.33841601528
 21
8272.054511388239
 31
0.0
  0
LINE
  5
24BFC
330
1F
100
AcDbEntity
  8
D-STR
  6
DASHED1
100
AcDbLine
 10
12362.33822164475
 20
6972.054317486827
 30
0.0
 11
12362.33822164475
 21
8272.054511388239
 31
0.0
  0
TEXT
  5
24BFD
330
1F
100
AcDbEntity
  8
D-STR-DIM
100
AcDbText
 10
12875.47841923748
 20
6288.054720695621
 30
0.0
 40
70.0
  1
600
100
AcDbText
  0
LINE
  5
24BFE
330
1F
100
AcDbEntity
  8
D-STR-DIM
  6
Continuous
100
AcDbLine
 10
13022.33841854854
 20
5972.054722178047
 30
0.0
 11
12722.33821995591
 21
5972.054722178047
 31
0.0
  0
LINE
  5
24BFF
330
1F
100
AcDbEntity
  8
D-STR-DIM
  6
Continuous
100
AcDbLine
 10
13262.33801742266
 20
6272.054120770683
 30
0.0
 11
12962.33801883003
 21
6272.054120770683
 31
0.0
  0
LINE
  5
24C00
330
1F
100
AcDbEntity
  8
D-STR-STR2
  6
Continuous
100
AcDbLine
 10
12422.33822136328
 20
7222.054116314023
 30
0.0
 11
13022.33841854854
 21
7222.054116314023
 31
0.0
  0
LINE
  5
24C01
330
1F
100
AcDbEntity
  8
D-STR
  6
DASHED1
100
AcDbLine
 10
12462.33822117563
 20
6872.053917955951
 30
0.0
 11
13462.3384164844
 21
6872.053917955951
 31
0.0
  0
LINE
  5
24C02
330
1F
100
AcDbEntity
  8
D-STR-DIM
  6
Continuous
100
AcDbLine
 10
12662.33822023739
 20
6652.053918894195
 30
0.0
 11
12662.33822023739
 21
6242.054520911419
 31
0.0
  0
LINE
  5
24C03
330
1F
100
AcDbEntity
  8
D-STR-DIM
  6
Continuous
100
AcDbLine
 10
12422.33822136328
 20
6642.05431903493
 30
0.0
 11
12422.33822136328
 21
6406.332120140757
 31
0.0
  0
TEXT
  5
24C04
330
1F
100
AcDbEntity
  8
D-STR-DIM
100
AcDbText
 10
12635.47822036338
 20
5988.05432210299
 30
0.0
 40
70.0
  1
600
100
AcDbText
  0
LINE
  5
24C05
330
1F
100
AcDbEntity
  8
D-STR-DIM
  6
Continuous
100
AcDbLine
 10
12422.33822136328
 20
5972.054722178047
 30
0.0
 11
12722.33821995591
 21
5972.054722178047
 31
0.0
  0
LINE
  5
24C06
330
1F
100
AcDbEntity
  8
D-STR-DIM
  6
Continuous
100
AcDbLine
 10
12662.33822023739
 20
6272.054120770683
 30
0.0
 11
12962.33801883003
 21
6272.054120770683
 31
0.0
  0
LINE
  5
24C07
330
1F
100
AcDbEntity
  8
D-STR-DIM
  6
Continuous
100
AcDbLine
 10
12422.33822136328
 20
6252.054120770683
 30
0.0
 11
12422.33822136328
 21
5942.054122318786
 31
0.0
  0
CIRCLE
  5
24C08
330
1F
100
AcDbEntity
  8
D-STR-DIM
  6
Continuous
100
AcDbCircle
 10
12422.33822136328
 20
5972.054722178047
 30
0.0
 40
5.999997971852679
  0
LINE
  5
24C09
330
1F
100
AcDbEntity
  8
D-STR-DIM
  6
Continuous
100
AcDbLine
 10
12662.33822023739
 20
6272.054120770683
 30
0.0
 11
12412.33822141019
 21
6272.054120770683
 31
0.0
  0
CIRCLE
  5
24C0A
330
1F
100
AcDbEntity
  8
D-STR-DIM
  6
Continuous
100
AcDbCircle
 10
12662.33822023739
 20
6272.054120770683
 30
0.0
 40
5.999997971852679
  0
CIRCLE
  5
24C0B
330
1F
100
AcDbEntity
  8
D-STR-STR2
  6
Continuous
100
AcDbCircle
 10
12662.33822023739
 20
6820.553918197548
 30
0.0
 40
34.99999783580725
  0
LINE
  5
24C0C
330
1F
100
AcDbEntity
  8
D-BMK
  6
CENTER2
100
AcDbLine
 10
12597.33802054232
 20
6820.553918197548
 30
0.0
 11
12727.33821993246
 21
6820.553918197548
 31
0.0
  0
LINE
  5
24C0D
330
1F
100
AcDbEntity
  8
D-STR
  6
DASHED1
100
AcDbLine
 10
12462.33942117566
 20
6872.053917955951
 30
0.0
 11
12362.33982164478
 21
6972.053317486832
 31
0.0
  0
CIRCLE
  5
24C0E
330
1F
100
AcDbEntity
  8
D-STR-STR2
  6
Continuous
100
AcDbCircle
 10
12662.33822023739
 20
6820.553918197548
 30
0.0
 40
14.99999792963168
  0
LINE
  5
24C0F
330
1F
100
AcDbEntity
  8
D-STR-HTXT
  6
Continuous
100
AcDbLine
 10
12598.95262053478
 20
6779.847118388516
 30
0.0
 11
12634.78842036665
 21
6798.966318298821
 31
0.0
  0
LINE
  5
24C10
330
1F
100
AcDbEntity
  8
D-BMK
  6
CENTER2
100
AcDbLine
 10
12662.33822023739
 20
6885.554517892619
 30
0.0
 11
12662.33822023739
 21
6755.554318502477
 31
0.0
  0
LINE
  5
24C11
330
1F
100
AcDbEntity
  8
D-STR-DIM
  6
Continuous
100
AcDbLine
 10
13262.33801742266
 20
6652.053918894195
 30
0.0
 11
13262.33801742266
 21
6242.054520911419
 31
0.0
  0
LINE
  5
24C12
330
1F
100
AcDbEntity
  8
D-STR-DIM
  6
Continuous
100
AcDbLine
 10
13502.33801629676
 20
6642.05431903493
 30
0.0
 11
13502.33801629676
 21
6406.332120140757
 31
0.0
  0
LINE
  5
24C13
330
1F
100
AcDbEntity
  8
D-STR-DIM
  6
Continuous
100
AcDbLine
 10
13152.33841793868
 20
6642.05431903493
 30
0.0
 11
13152.33841793868
 21
6406.332120140757
 31
0.0
  0
LINE
  5
24C14
330
1F
100
AcDbEntity
  8
D-STR-DIM
  6
Continuous
100
AcDbLine
 10
13022.33841854854
 20
6642.05431903493
 30
0.0
 11
13022.33841854854
 21
6406.332120140757
 31
0.0
  0
TEXT
  5
24C15
330
1F
100
AcDbEntity
  8
D-STR-DIM
100
AcDbText
 10
13240.47841752518
 20
5988.05432210299
 30
0.0
 40
70.0
  1
350
100
AcDbText
  0
LINE
  5
24C16
330
1F
100
AcDbEntity
  8
D-STR-DIM
  6
Continuous
100
AcDbLine
 10
13502.33801629676
 20
5972.054722178047
 30
0.0
 11
13327.33801711773
 21
5972.054722178047
 31
0.0
  0
LINE
  5
24C17
330
1F
100
AcDbEntity
  8
D-STR-DIM
  6
Continuous
100
AcDbLine
 10
13262.33801742266
 20
6272.054120770683
 30
0.0
 11
13512.33821624985
 21
6272.054120770683
 31
0.0
  0
LINE
  5
24C18
330
1F
100
AcDbEntity
  8
D-STR-DIM
  6
Continuous
100
AcDbLine
 10
13152.33841793868
 20
6252.054120770683
 30
0.0
 11
13152.33841793868
 21
5942.054122318786
 31
0.0
  0
LINE
  5
24C19
330
1F
100
AcDbEntity
  8
D-STR-DIM
  6
Continuous
100
AcDbLine
 10
13022.33841854854
 20
6252.054120770683
 30
0.0
 11
13022.33841854854
 21
5942.054122318786
 31
0.0
  0
LINE
  5
24C1A
330
1F
100
AcDbEntity
  8
D-STR-DIM
  6
Continuous
100
AcDbLine
 10
13152.33841793868
 20
5972.054722178047
 30
0.0
 11
13327.33801711773
 21
5972.054722178047
 31
0.0
  0
CIRCLE
  5
24C1B
330
1F
100
AcDbEntity
  8
D-STR-DIM
  6
Continuous
100
AcDbCircle
 10
13152.33841793868
 20
5972.054722178047
 30
0.0
 40
5.999997971852679
  0
CIRCLE
  5
24C1C
330
1F
100
AcDbEntity
  8
D-STR-DIM
  6
Continuous
100
AcDbCircle
 10
13022.33841854854
 20
5972.054722178047
 30
0.0
 40
5.999997971852679
  0
LINE
  5
24C1D
330
1F
100
AcDbEntity
  8
D-STR-DIM
  6
Continuous
100
AcDbLine
 10
13152.33841793868
 20
5972.054722178047
 30
0.0
 11
13087.33841824361
 21
5972.054722178047
 31
0.0
  0
LINE
  5
24C1E
330
1F
100
AcDbEntity
  8
D-STR-DIM
  6
Continuous
100
AcDbLine
 10
13022.33841854854
 20
5972.054722178047
 30
0.0
 11
13087.33841824361
 21
5972.054722178047
 31
0.0
  0
CIRCLE
  5
24C1F
330
1F
100
AcDbEntity
  8
D-STR-DIM
  6
Continuous
100
AcDbCircle
 10
13262.33801742266
 20
6272.054120770683
 30
0.0
 40
5.999997971852679
  0
LINE
  5
24C20
330
1F
100
AcDbEntity
  8
D-STR-DIM
  6
Continuous
100
AcDbLine
 10
13502.33801629676
 20
6252.054120770683
 30
0.0
 11
13502.33801629676
 21
5942.054122318786
 31
0.0
  0
CIRCLE
  5
24C21
330
1F
100
AcDbEntity
  8
D-STR-DIM
  6
Continuous
100
AcDbCircle
 10
13502.33801629676
 20
5972.054722178047
 30
0.0
 40
5.999997971852679
  0
LINE
  5
24C22
330
1F
100
AcDbEntity
  8
D-STR-DIM
  6
Continuous
100
AcDbLine
 10
13502.33801629676
 20
5972.054722178047
 30
0.0
 11
13632.3382156869
 21
5972.054722178047
 31
0.0
  0
TEXT
  5
24C23
330
1F
100
AcDbEntity
  8
D-STR-DIM
100
AcDbText
 10
13425.47801665732
 20
6288.054720695621
 30
0.0
 40
70.0
  1
500
100
AcDbText
  0
LINE
  5
24C24
330
1F
100
AcDbEntity
  8
D-STR-STR2
  6
Continuous
100
AcDbLine
 10
13152.33841793868
 20
7172.054316548582
 30
0.0
 11
13502.33801629676
 21
7172.054316548582
 31
0.0
  0
CIRCLE
  5
24C25
330
1F
100
AcDbEntity
  8
D-STR-STR2
  6
Continuous
100
AcDbCircle
 10
13262.33801742266
 20
6820.553918197548
 30
0.0
 40
14.99999792963168
  0
CIRCLE
  5
24C26
330
1F
100
AcDbEntity
  8
D-STR-STR2
  6
Continuous
100
AcDbCircle
 10
13262.33801742266
 20
6820.553918197548
 30
0.0
 40
34.99999783580725
  0
LINE
  5
24C27
330
1F
100
AcDbEntity
  8
D-BMK
  6
CENTER2
100
AcDbLine
 10
13197.33841772758
 20
6820.553918197548
 30
0.0
 11
13327.33801711773
 21
6820.553918197548
 31
0.0
  0
LINE
  5
24C28
330
1F
100
AcDbEntity
  8
D-BMK
  6
CENTER2
100
AcDbLine
 10
13262.33801742266
 20
6885.554517892619
 30
0.0
 11
13262.33801742266
 21
6755.554318502477
 31
0.0
  0
LINE
  5
24C29
330
1F
100
AcDbEntity
  8
D-STR
  6
DASHED1
100
AcDbLine
 10
13562.33881601527
 20
6972.055317486824
 30
0.0
 11
13462.33881648439
 21
6872.054917955947
 31
0.0
  0
TEXT
  5
24C2A
330
1F
100
AcDbEntity
  8
D-STR-HTXT
100
AcDbText
 10
12683.47842013822
 20
7940.054712945722
 30
0.0
 40
70.0
  1
1,000×800
100
AcDbText
  0
LINE
  5
24C2B
330
1F
100
AcDbEntity
  8
D-STR-STR2
  6
Continuous
100
AcDbLine
 10
12422.33822136328
 20
7422.05391537578
 30
0.0
 11
13022.33841854854
 21
7422.05391537578
 31
0.0
  0
LINE
  5
24C2C
330
1F
100
AcDbEntity
  8
D-STR-STR2
  6
Continuous
100
AcDbLine
 10
12512.33822094107
 20
7572.054114672095
 30
0.0
 11
13412.33821671897
 21
7572.054114672095
 31
0.0
  0
LINE
  5
24C2D
330
1F
100
AcDbEntity
  8
D-STR-STR2
  6
Continuous
100
AcDbLine
 10
12512.33822094107
 20
8372.053910919118
 30
0.0
 11
13412.33821671897
 21
8372.053910919118
 31
0.0
  0
LINE
  5
24C2E
330
1F
100
AcDbEntity
  8
D-STR
  6
DASHED1
100
AcDbLine
 10
12462.33822117563
 20
8372.053910919118
 30
0.0
 11
13462.3384164844
 21
8372.053910919118
 31
0.0
  0
LINE
  5
24C2F
330
1F
100
AcDbEntity
  8
D-STR-STR2
  6
Continuous
100
AcDbLine
 10
12462.33822117563
 20
7622.053914437535
 30
0.0
 11
12462.33822117563
 21
8322.054111153679
 31
0.0
  0
TEXT
  5
24C30
330
1F
100
AcDbEntity
  8
D-STR-HTXT
100
AcDbText
 10
12561.19322071192
 20
7262.054316126373
 30
0.0
 40
50.0
  1
600×200
100
AcDbText
  0
TEXT
  5
24C31
330
1F
100
AcDbEntity
  8
D-STR-HTXT
100
AcDbText
 10
12551.0522448437
 20
7334.054715788603
 30
0.0
 40
50.0
  1
ノックアウト
100
AcDbText
  0
LINE
  5
24C32
330
1F
100
AcDbEntity
  8
D-STR-STR2
  6
Continuous
100
AcDbLine
 10
12462.33822117563
 20
7622.05491443753
 30
0.0
 11
12512.33902094105
 21
7572.054114672095
 31
0.0
  0
LINE
  5
24C33
330
1F
100
AcDbEntity
  8
D-STR
  6
DASHED1
100
AcDbLine
 10
12362.33942164479
 20
8272.054511388239
 30
0.0
 11
12462.33942117566
 21
8372.053910919118
 31
0.0
  0
LINE
  5
24C34
330
1F
100
AcDbEntity
  8
D-STR-STR2
  6
Continuous
100
AcDbLine
 10
12512.33822094107
 20
8372.054910919114
 30
0.0
 11
12462.33822117563
 21
8322.054111153679
 31
0.0
  0
LINE
  5
24C35
330
1F
100
AcDbEntity
  8
D-STR-STR2
  6
Continuous
100
AcDbLine
 10
13462.3384164844
 20
7622.053914437535
 30
0.0
 11
13462.3384164844
 21
8322.054111153679
 31
0.0
  0
TEXT
  5
24C36
330
1F
100
AcDbEntity
  8
D-STR-HTXT
100
AcDbText
 10
13156.40756649887
 20
7309.054315905886
 30
0.0
 40
50.0
  1
ノックアウト
100
AcDbText
  0
LINE
  5
24C37
330
1F
100
AcDbEntity
  8
D-STR-STR2
  6
Continuous
100
AcDbLine
 10
13152.33841793868
 20
7422.05391537578
 30
0.0
 11
13502.33801629676
 21
7422.05391537578
 31
0.0
  0
LINE
  5
24C38
330
1F
100
AcDbEntity
  8
D-STR-STR2
  6
Continuous
100
AcDbLine
 10
13412.33921671901
 20
7572.054114672095
 30
0.0
 11
13462.33881648439
 21
7622.053914437535
 31
0.0
  0
LINE
  5
24C39
330
1F
100
AcDbEntity
  8
D-STR
  6
DASHED1
100
AcDbLine
 10
13462.33881648439
 20
8372.053910919118
 30
0.0
 11
13562.33881601527
 21
8272.054511388239
 31
0.0
  0
CIRCLE
  5
24C3A
330
1F
100
AcDbEntity
  8
D-STR-STR2
  6
Continuous
100
AcDbCircle
 10
13613.8384157737
 20
8072.054512326483
 30
0.0
 40
14.99999792963168
  0
CIRCLE
  5
24C3B
330
1F
100
AcDbEntity
  8
D-STR-STR2
  6
Continuous
100
AcDbCircle
 10
13613.8384157737
 20
8072.054512326483
 30
0.0
 40
34.99999783580725
  0
LINE
  5
24C3C
330
1F
100
AcDbEntity
  8
D-BMK
  6
CENTER2
100
AcDbLine
 10
13613.8384157737
 20
8137.054112021553
 30
0.0
 11
13613.8384157737
 21
8007.053912631414
 31
0.0
  0
LINE
  5
24C3D
330
1F
100
AcDbEntity
  8
D-STR-STR2
  6
Continuous
100
AcDbLine
 10
13462.3384164844
 20
8322.055111153678
 30
0.0
 11
13412.33821671897
 21
8372.053910919118
 31
0.0
  0
LINE
  5
24C3E
330
1F
100
AcDbEntity
  8
D-STR-DIM
  6
Continuous
100
AcDbLine
 10
8611.175277952265
 20
8632.054109699401
 30
0.0
 11
9951.175851666073
 21
8632.054109699401
 31
0.0
  0
LINE
  5
24C41
330
1F
100
AcDbEntity
  8
D-STR-DIM
  6
Continuous
100
AcDbLine
 10
8581.175278093001
 20
8652.054109699401
 30
0.0
 11
8581.175278093001
 21
9362.054106274809
 31
0.0
  0
LINE
  5
24C42
330
1F
100
AcDbEntity
  8
D-STR-DIM
  6
Continuous
100
AcDbLine
 10
8432.675478789658
 20
8652.054109699401
 30
0.0
 11
8432.675478789658
 21
8775.708726867065
 31
0.0
  0
LINE
  5
24C43
330
1F
100
AcDbEntity
  8
D-STR-DIM
  6
Continuous
100
AcDbLine
 10
8581.175278093001
 20
9032.053907822914
 30
0.0
 11
8506.925458441354
 21
9032.053907822914
 31
0.0
  0
CIRCLE
  5
24C44
330
1F
100
AcDbEntity
  8
D-STR-DIM
  6
Continuous
100
AcDbCircle
 10
8432.675478789658
 20
9032.053907822914
 30
0.0
 40
5.999997971852679
  0
LINE
  5
24C45
330
1F
100
AcDbEntity
  8
D-STR-DIM
  6
Continuous
100
AcDbLine
 10
8432.675478789658
 20
9032.053907822914
 30
0.0
 11
8506.925458441354
 21
9032.053907822914
 31
0.0
  0
CIRCLE
  5
24C46
330
1F
100
AcDbEntity
  8
D-STR-DIM
  6
Continuous
100
AcDbCircle
 10
8581.175278093001
 20
9032.053907822914
 30
0.0
 40
5.999997971852679
  0
CIRCLE
  5
24C47
330
1F
100
AcDbEntity
  8
D-STR-DIM
  6
Continuous
100
AcDbCircle
 10
8981.175254216564
 20
8632.054109699401
 30
0.0
 40
5.999997971852679
  0
LINE
  5
24C4A
330
1F
100
AcDbEntity
  8
D-STR-DIM
  6
Continuous
100
AcDbLine
 10
8581.175278093001
 20
9332.054306415544
 30
0.0
 11
8451.175298702867
 21
9332.054306415544
 31
0.0
  0
CIRCLE
  5
24C4B
330
1F
100
AcDbEntity
  8
D-STR-DIM
  6
Continuous
100
AcDbCircle
 10
8581.175278093001
 20
9332.054306415544
 30
0.0
 40
5.999997971852679
  0
CIRCLE
  5
24C4C
330
1F
100
AcDbEntity
  8
D-STR-DIM
  6
Continuous
100
AcDbCircle
 10
9281.175234809131
 20
8632.054109699401
 30
0.0
 40
5.999997971852679
  0
LINE
  5
24C4F
330
1F
100
AcDbEntity
  8
D-STR
  6
Continuous
100
AcDbLine
 10
9981.175871525273
 20
8632.054109699401
 30
0.0
 11
10431.17584941428
 21
8632.054109699401
 31
0.0
  0
LINE
  5
24C57
330
1F
100
AcDbEntity
  8
D-STR-DIM
  6
Continuous
100
AcDbLine
 10
10451.17584941428
 20
8632.054109699401
 30
0.0
 11
10961.17564692794
 21
8632.054109699401
 31
0.0
  0
CIRCLE
  5
24C58
330
1F
100
AcDbEntity
  8
D-STR-DIM
  6
Continuous
100
AcDbCircle
 10
10931.17564706868
 20
8632.054109699401
 30
0.0
 40
5.999997971852679
  0
TEXT
  5
24C59
330
1F
100
AcDbEntity
  8
D-STR-DIM
100
AcDbText
 10
12225.47822228678
 20
9288.05370662196
 30
0.0
 40
70.0
  1
300
100
AcDbText
  0
LINE
  5
24C5C
330
1F
100
AcDbEntity
  8
D-STR-DIM
  6
Continuous
100
AcDbLine
 10
12462.33822117563
 20
9272.054106697018
 30
0.0
 11
12312.33822187931
 21
9272.054106697018
 31
0.0
  0
LINE
  5
24C5D
330
1F
100
AcDbEntity
  8
D-STR-DIM
  6
Continuous
100
AcDbLine
 10
12310.83922188638
 20
8972.054708104382
 30
0.0
 11
12962.33901883
 21
8972.054708104382
 31
0.0
  0
TEXT
  5
24C64
330
1F
100
AcDbEntity
  8
D-STR-DIM
100
AcDbText
 10
12113.2250228134
 20
8988.054308029324
 30
0.0
 40
70.0
  1
148.5
100
AcDbText
  0
LINE
  5
24C65
330
1F
100
AcDbEntity
  8
D-STR-DIM
  6
Continuous
100
AcDbLine
 10
12162.338222583
 20
9272.054106697018
 30
0.0
 11
12312.33822187931
 21
9272.054106697018
 31
0.0
  0
LINE
  5
24C66
330
1F
100
AcDbEntity
  8
D-STR-DIM
  6
Continuous
100
AcDbLine
 10
12162.338222583
 20
8972.054708104382
 30
0.0
 11
12236.58862223469
 21
8972.054708104382
 31
0.0
  0
CIRCLE
  5
24C67
330
1F
100
AcDbEntity
  8
D-STR-DIM
  6
Continuous
100
AcDbCircle
 10
12162.338222583
 20
9272.054106697018
 30
0.0
 40
5.999997971852679
  0
CIRCLE
  5
24C68
330
1F
100
AcDbEntity
  8
D-STR-DIM
  6
Continuous
100
AcDbCircle
 10
12162.338222583
 20
8972.054708104382
 30
0.0
 40
5.999997971852679
  0
CIRCLE
  5
24C69
330
1F
100
AcDbEntity
  8
D-STR-DIM
  6
Continuous
100
AcDbCircle
 10
12310.83922188638
 20
8972.054708104382
 30
0.0
 40
5.999997971852679
  0
LINE
  5
24C6A
330
1F
100
AcDbEntity
  8
D-STR-DIM
  6
Continuous
100
AcDbLine
 10
12310.83922188638
 20
8972.054708104382
 30
0.0
 11
12236.58862223469
 21
8972.054708104382
 31
0.0
  0
TEXT
  5
24C6C
330
1F
100
AcDbEntity
  8
D-STR-DIM
100
AcDbText
 10
12843.47801938764
 20
9288.05370662196
 30
0.0
 40
70.0
  1
1000
100
AcDbText
  0
TEXT
  5
24C6D
330
1F
100
AcDbEntity
  8
D-STR-DIM
100
AcDbText
 10
12843.47801938764
 20
8988.054308029324
 30
0.0
 40
70.0
  1
1303
100
AcDbText
  0
LINE
  5
24C6E
330
1F
100
AcDbEntity
  8
D-STR-DIM
  6
Continuous
100
AcDbLine
 10
13462.3384164844
 20
9272.054106697018
 30
0.0
 11
12962.33801883003
 21
9272.054106697018
 31
0.0
  0
LINE
  5
24C6F
330
1F
100
AcDbEntity
  8
D-STR-DIM
  6
Continuous
100
AcDbLine
 10
13613.8384157737
 20
8972.054708104382
 30
0.0
 11
12962.33901883
 21
8972.054708104382
 31
0.0
  0
LINE
  5
24C70
330
1F
100
AcDbEntity
  8
D-STR-DIM
  6
Continuous
100
AcDbLine
 10
12462.33822117563
 20
9079.562507600043
 30
0.0
 11
12462.33822117563
 21
9302.053706556284
 31
0.0
  0
LINE
  5
24C71
330
1F
100
AcDbEntity
  8
D-STR-DIM
  6
Continuous
100
AcDbLine
 10
12462.33822117563
 20
9272.054106697018
 30
0.0
 11
12962.33801883003
 21
9272.054106697018
 31
0.0
  0
CIRCLE
  5
24C72
330
1F
100
AcDbEntity
  8
D-STR-DIM
  6
Continuous
100
AcDbCircle
 10
12462.33822117563
 20
9272.054106697018
 30
0.0
 40
5.999997971852679
  0
LINE
  5
24C73
330
1F
100
AcDbEntity
  8
D-STR-DIM
  6
Continuous
100
AcDbLine
 10
13462.3384164844
 20
9079.562507600043
 30
0.0
 11
13462.3384164844
 21
9302.053706556284
 31
0.0
  0
LINE
  5
24C74
330
1F
100
AcDbEntity
  8
D-STR-DIM
  6
Continuous
100
AcDbLine
 10
13462.3384164844
 20
9272.054106697018
 30
0.0
 11
13612.33801578073
 21
9272.054106697018
 31
0.0
  0
CIRCLE
  5
24C75
330
1F
100
AcDbEntity
  8
D-STR-DIM
  6
Continuous
100
AcDbCircle
 10
13462.3384164844
 20
9272.054106697018
 30
0.0
 40
5.999997971852679
  0
CIRCLE
  5
24C76
330
1F
100
AcDbEntity
  8
D-STR-DIM
  6
Continuous
100
AcDbCircle
 10
13613.8384157737
 20
8972.054708104382
 30
0.0
 40
5.999997971852679
  0
LINE
  5
24C7C
330
1F
100
AcDbEntity
  8
D-STR-DIM
  6
Continuous
100
AcDbLine
 10
13762.33821507704
 20
8592.053909980876
 30
0.0
 11
13762.33821507704
 21
9302.053706556284
 31
0.0
  0
LINE
  5
24C7D
330
1F
100
AcDbEntity
  8
D-STR-DIM
  6
Continuous
100
AcDbLine
 10
13762.33821507704
 20
6652.053918894195
 30
0.0
 11
13762.33821507704
 21
5642.05472372615
 31
0.0
  0
CIRCLE
  5
24C7E
330
1F
100
AcDbEntity
  8
D-STR-DIM
  6
Continuous
100
AcDbCircle
 10
13762.33821507704
 20
5672.054323585415
 30
0.0
 40
5.999997971852679
  0
LINE
  5
24C7F
330
1F
100
AcDbEntity
  8
D-STR-DIM
  6
Continuous
100
AcDbLine
 10
15142.33880850932
 20
8117.05391211538
 30
0.0
 11
14732.33881052654
 21
8117.05391211538
 31
0.0
  0
LINE
  5
24C80
330
1F
100
AcDbEntity
  8
D-STR-DIM
  6
Continuous
100
AcDbLine
 10
15142.33880850932
 20
8027.054112537589
 30
0.0
 11
14732.33881052654
 21
8027.054112537589
 31
0.0
  0
LINE
  5
24C81
330
1F
100
AcDbEntity
  8
D-STR-DIM
  6
Continuous
100
AcDbLine
 10
15142.33880850932
 20
8107.054512162291
 30
0.0
 11
14932.3388095883
 21
8107.054512162291
 31
0.0
  0
LINE
  5
24C82
330
1F
100
AcDbEntity
  8
D-STR-DIM
  6
Continuous
100
AcDbLine
 10
15142.33880850932
 20
8037.054512490675
 30
0.0
 11
14932.3388095883
 21
8037.054512490675
 31
0.0
  0
LINE
  5
24C83
330
1F
100
AcDbEntity
  8
D-STR-DIM
  6
Continuous
100
AcDbLine
 10
13792.3384149363
 20
8572.053909980876
 30
0.0
 11
15132.33860865005
 21
8572.053909980876
 31
0.0
  0
LINE
  5
24C84
330
1F
100
AcDbEntity
  8
D-STR-DIM
  6
Continuous
100
AcDbLine
 10
13792.3384149363
 20
6672.053918894196
 30
0.0
 11
15132.33860865005
 21
6672.053918894196
 31
0.0
  0
TEXT
  5
24C85
330
1F
100
AcDbEntity
  8
D-STR-DIM
100
AcDbText
 10
14258.65821274867
 20
7210.19451636966
 30
0.0
 40
70.0
  1
250
 50
90.0
100
AcDbText
  0
LINE
  5
24C86
330
1F
100
AcDbEntity
  8
D-STR-DIM
  6
Continuous
100
AcDbLine
 10
14162.33821320056
 20
7172.054316548582
 30
0.0
 11
14162.33821320056
 21
7297.05411596218
 31
0.0
  0
LINE
  5
24C87
330
1F
100
AcDbEntity
  8
D-STR-DIM
  6
Continuous
100
AcDbLine
 10
14462.33801179319
 20
6672.053918894196
 30
0.0
 11
14462.33801179319
 21
7622.053914437535
 31
0.0
  0
LINE
  5
24C88
330
1F
100
AcDbEntity
  8
D-STR
  6
Continuous
100
AcDbLine
 10
13762.33821507704
 20
6672.053918894196
 30
0.0
 11
13762.33821507704
 21
8572.053909980876
 31
0.0
  0
CIRCLE
  5
24C8A
330
1F
100
AcDbEntity
  8
D-STR-DIM
  6
Continuous
100
AcDbCircle
 10
13762.33821507704
 20
5972.054722178047
 30
0.0
 40
5.999997971852679
  0
CIRCLE
  5
24C8B
330
1F
100
AcDbEntity
  8
D-STR-DIM
  6
Continuous
100
AcDbCircle
 10
13762.33821507704
 20
6272.054120770683
 30
0.0
 40
5.999997971852679
  0
LINE
  5
24C8C
330
1F
100
AcDbEntity
  8
D-STR-DIM
  6
Continuous
100
AcDbLine
 10
13782.33821507704
 20
7172.054316548582
 30
0.0
 11
14192.33821305982
 21
7172.054316548582
 31
0.0
  0
TEXT
  5
24C8D
330
1F
100
AcDbEntity
  8
D-STR-DIM
100
AcDbText
 10
14146.33801327563
 20
6835.194118128869
 30
0.0
 40
70.0
  1
500
 50
90.0
100
AcDbText
  0
LINE
  5
24C8E
330
1F
100
AcDbEntity
  8
D-STR-DIM
  6
Continuous
100
AcDbLine
 10
14162.33821320056
 20
6672.053918894196
 30
0.0
 11
14162.33821320056
 21
6922.054717721387
 31
0.0
  0
CIRCLE
  5
24C8F
330
1F
100
AcDbEntity
  8
D-STR-DIM
  6
Continuous
100
AcDbCircle
 10
14162.33821320056
 20
6672.053918894196
 30
0.0
 40
5.999997971852679
  0
CIRCLE
  5
24C90
330
1F
100
AcDbEntity
  8
D-STR-DIM
  6
Continuous
100
AcDbCircle
 10
14162.33821320056
 20
7172.054316548582
 30
0.0
 40
5.999997971852679
  0
LINE
  5
24C91
330
1F
100
AcDbEntity
  8
D-STR-DIM
  6
Continuous
100
AcDbLine
 10
14162.33821320056
 20
7172.054316548582
 30
0.0
 11
14162.33821320056
 21
6922.054717721387
 31
0.0
  0
CIRCLE
  5
24C92
330
1F
100
AcDbEntity
  8
D-STR-DIM
  6
Continuous
100
AcDbCircle
 10
14462.33801179319
 20
6672.053918894196
 30
0.0
 40
5.999997971852679
  0
TEXT
  5
24C93
330
1F
100
AcDbEntity
  8
D-STR-DIM
100
AcDbText
 10
14258.65821274867
 20
7885.194513203086
 30
0.0
 40
70.0
  1
800
 50
90.0
100
AcDbText
  0
LINE
  5
24C94
330
1F
100
AcDbEntity
  8
D-STR-DIM
  6
Continuous
100
AcDbLine
 10
14162.33821320056
 20
7572.054114672095
 30
0.0
 11
14162.33821320056
 21
7972.054112795605
 31
0.0
  0
LINE
  5
24C95
330
1F
100
AcDbEntity
  8
D-STR-DIM
  6
Continuous
100
AcDbLine
 10
13782.33821507704
 20
7572.054114672095
 30
0.0
 11
14192.33821305982
 21
7572.054114672095
 31
0.0
  0
LINE
  5
24C96
330
1F
100
AcDbEntity
  8
D-STR-DIM
  6
Continuous
100
AcDbLine
 10
13782.33821507704
 20
7422.05391537578
 30
0.0
 11
14192.33821305982
 21
7422.05391537578
 31
0.0
  0
CIRCLE
  5
24C97
330
1F
100
AcDbEntity
  8
D-STR-DIM
  6
Continuous
100
AcDbCircle
 10
14162.33821320056
 20
7572.054114672095
 30
0.0
 40
5.999997971852679
  0
CIRCLE
  5
24C98
330
1F
100
AcDbEntity
  8
D-STR-DIM
  6
Continuous
100
AcDbCircle
 10
14162.33821320056
 20
7422.05391537578
 30
0.0
 40
5.999997971852679
  0
TEXT
  5
24C99
330
1F
100
AcDbEntity
  8
D-STR-DIM
100
AcDbText
 10
14146.33801327563
 20
7379.021515577654
 30
0.0
 40
70.0
  1
150
 50
90.0
100
AcDbText
  0
LINE
  5
24C9A
330
1F
100
AcDbEntity
  8
D-STR-DIM
  6
Continuous
100
AcDbLine
 10
14162.33821320056
 20
7572.054114672095
 30
0.0
 11
14162.33821320056
 21
7497.054115023935
 31
0.0
  0
LINE
  5
24C9B
330
1F
100
AcDbEntity
  8
D-STR-DIM
  6
Continuous
100
AcDbLine
 10
14162.33821320056
 20
7422.05391537578
 30
0.0
 11
14162.33821320056
 21
7497.054115023935
 31
0.0
  0
LINE
  5
24C9C
330
1F
100
AcDbEntity
  8
D-STR-DIM
  6
Continuous
100
AcDbLine
 10
14162.33821320056
 20
7422.05391537578
 30
0.0
 11
14162.33821320056
 21
7297.05411596218
 31
0.0
  0
LINE
  5
24C9D
330
1F
100
AcDbEntity
  8
D-STR-DIM
  6
Continuous
100
AcDbLine
 10
13782.33821507704
 20
8372.053910919118
 30
0.0
 11
14192.33821305982
 21
8372.053910919118
 31
0.0
  0
LINE
  5
24C9E
330
1F
100
AcDbEntity
  8
D-STR-DIM
  6
Continuous
100
AcDbLine
 10
14162.33821320056
 20
8372.053910919118
 30
0.0
 11
14162.33821320056
 21
7972.054112795605
 31
0.0
  0
CIRCLE
  5
24C9F
330
1F
100
AcDbEntity
  8
D-STR-DIM
  6
Continuous
100
AcDbCircle
 10
14162.33821320056
 20
8572.053909980876
 30
0.0
 40
5.999997971852679
  0
CIRCLE
  5
24CA0
330
1F
100
AcDbEntity
  8
D-STR-DIM
  6
Continuous
100
AcDbCircle
 10
14162.33821320056
 20
8372.053910919118
 30
0.0
 40
5.999997971852679
  0
TEXT
  5
24CA1
330
1F
100
AcDbEntity
  8
D-STR-DIM
100
AcDbText
 10
14146.33801327563
 20
8385.194710857472
 30
0.0
 40
70.0
  1
200
 50
90.0
100
AcDbText
  0
LINE
  5
24CA2
330
1F
100
AcDbEntity
  8
D-STR-DIM
  6
Continuous
100
AcDbLine
 10
14162.33821320056
 20
8572.053909980876
 30
0.0
 11
14162.33821320056
 21
8472.054310449994
 31
0.0
  0
LINE
  5
24CA3
330
1F
100
AcDbEntity
  8
D-STR-DIM
  6
Continuous
100
AcDbLine
 10
14162.33821320056
 20
8372.053910919118
 30
0.0
 11
14162.33821320056
 21
8472.054310449994
 31
0.0
  0
LINE
  5
24CA4
330
1F
100
AcDbEntity
  8
D-STR-DIM
  6
Continuous
100
AcDbLine
 10
14462.33801179319
 20
8572.053909980876
 30
0.0
 11
14462.33801179319
 21
7622.053914437535
 31
0.0
  0
TEXT
  5
24CA5
330
1F
100
AcDbEntity
  8
D-STR-DIM
100
AcDbText
 10
14446.33841186826
 20
7503.193914995134
 30
0.0
 40
70.0
  1
1900
 50
90.0
100
AcDbText
  0
CIRCLE
  5
24CA6
330
1F
100
AcDbEntity
  8
D-STR-DIM
  6
Continuous
100
AcDbCircle
 10
14462.33801179319
 20
8572.053909980876
 30
0.0
 40
5.999997971852679
  0
TEXT
  5
24CA7
330
1F
100
AcDbEntity
  8
D-STR-DIM
100
AcDbText
 10
14750.33861044213
 20
7983.286312742913
 30
0.0
 40
70.0
  1
φ90
 50
90.0
100
AcDbText
  0
CIRCLE
  5
24CA8
330
1F
100
AcDbEntity
  8
D-STR-DIM
  6
Continuous
100
AcDbCircle
 10
14762.33901038579
 20
8117.05391211538
 30
0.0
 40
5.999997971852679
  0
CIRCLE
  5
24CA9
330
1F
100
AcDbEntity
  8
D-STR-DIM
  6
Continuous
100
AcDbCircle
 10
14762.33901038579
 20
8027.054112537589
 30
0.0
 40
5.999997971852679
  0
LINE
  5
24CAA
330
1F
100
AcDbEntity
  8
D-STR-DIM
  6
Continuous
100
AcDbLine
 10
14762.33901038579
 20
8117.05391211538
 30
0.0
 11
14762.33901038579
 21
8072.054512326483
 31
0.0
  0
LINE
  5
24CAB
330
1F
100
AcDbEntity
  8
D-STR-DIM
  6
Continuous
100
AcDbLine
 10
14762.33901038579
 20
8027.054112537589
 30
0.0
 11
14762.33901038579
 21
8072.054512326483
 31
0.0
  0
TEXT
  5
24CAC
330
1F
100
AcDbEntity
  8
D-STR-DIM
100
AcDbText
 10
14950.33860950389
 20
7983.286312742913
 30
0.0
 40
70.0
  1
φ70
 50
90.0
100
AcDbText
  0
CIRCLE
  5
24CAD
330
1F
100
AcDbEntity
  8
D-STR-DIM
  6
Continuous
100
AcDbCircle
 10
14962.33880944756
 20
8107.054512162291
 30
0.0
 40
5.999997971852679
  0
CIRCLE
  5
24CAE
330
1F
100
AcDbEntity
  8
D-STR-DIM
  6
Continuous
100
AcDbCircle
 10
14962.33880944756
 20
8037.054512490675
 30
0.0
 40
5.999997971852679
  0
LINE
  5
24CAF
330
1F
100
AcDbEntity
  8
D-STR-DIM
  6
Continuous
100
AcDbLine
 10
14962.33880944756
 20
8107.054512162291
 30
0.0
 11
14962.33880944756
 21
8072.054512326483
 31
0.0
  0
LINE
  5
24CB0
330
1F
100
AcDbEntity
  8
D-STR-DIM
  6
Continuous
100
AcDbLine
 10
14962.33880944756
 20
8037.054512490675
 30
0.0
 11
14962.33880944756
 21
8072.054512326483
 31
0.0
  0
TEXT
  5
24CB1
330
1F
100
AcDbEntity
  8
D-STR-DIM
100
AcDbText
 10
15846.33840530054
 20
7135.194316721501
 30
0.0
 40
70.0
  1
700
 50
90.0
100
AcDbText
  0
LINE
  5
24CB2
330
1F
100
AcDbEntity
  8
D-STR-DIM
  6
Continuous
100
AcDbLine
 10
15862.33860522546
 20
7572.054114672095
 30
0.0
 11
15862.33860522546
 21
7222.054116314023
 31
0.0
  0
LINE
  5
24CB3
330
1F
100
AcDbEntity
  8
D-STR-DIM
  6
Continuous
100
AcDbLine
 10
16112.33880405265
 20
6872.053917955951
 30
0.0
 11
16112.33880405265
 21
7622.053914437535
 31
0.0
  0
LINE
  5
24CB4
330
1F
100
AcDbEntity
  8
D-STR
  6
Continuous
100
AcDbLine
 10
15262.33880804019
 20
7172.054316548582
 30
0.0
 11
15262.33880804019
 21
7422.05391537578
 31
0.0
  0
LINE
  5
24CB5
330
1F
100
AcDbEntity
  8
D-STR
  6
Continuous
100
AcDbLine
 10
15212.33860827476
 20
7172.054316548582
 30
0.0
 11
15212.33860827476
 21
7422.05391537578
 31
0.0
  0
LINE
  5
24CB6
330
1F
100
AcDbEntity
  8
D-STR
  6
Continuous
100
AcDbLine
 10
15312.33860780563
 20
6672.053918894196
 30
0.0
 11
15312.33860780563
 21
8572.053909980876
 31
0.0
  0
LINE
  5
24CB7
330
1F
100
AcDbEntity
  8
D-STR
  6
Continuous
100
AcDbLine
 10
15162.33880850932
 20
6672.053918894196
 30
0.0
 11
15162.33880850932
 21
8572.053909980876
 31
0.0
  0
LINE
  5
24CB8
330
1F
100
AcDbEntity
  8
D-STR-DIM
  6
Continuous
100
AcDbLine
 10
15632.33900639826
 20
6872.053917955951
 30
0.0
 11
16142.33840391192
 21
6872.053917955951
 31
0.0
  0
LINE
  5
24CB9
330
1F
100
AcDbEntity
  8
D-STR-DIM
  6
Continuous
100
AcDbLine
 10
15632.33900639826
 20
6672.053918894196
 30
0.0
 11
16142.33840391192
 21
6672.053918894196
 31
0.0
  0
LINE
  5
24CBA
330
1F
100
AcDbEntity
  8
D-STR-DIM
  6
Continuous
100
AcDbLine
 10
15312.33860780563
 20
6652.053918894195
 30
0.0
 11
15312.33860780563
 21
6242.054520911419
 31
0.0
  0
LINE
  5
24CBB
330
1F
100
AcDbEntity
  8
D-STR-DIM
  6
Continuous
100
AcDbLine
 10
15162.33880850932
 20
6652.053918894195
 30
0.0
 11
15162.33880850932
 21
6242.054520911419
 31
0.0
  0
CIRCLE
  5
24CBC
330
1F
100
AcDbEntity
  8
D-STR-DIM
  6
Continuous
100
AcDbCircle
 10
15312.33860780563
 20
6272.054120770683
 30
0.0
 40
5.999997971852679
  0
LINE
  5
24CBD
330
1F
100
AcDbEntity
  8
D-STR-DIM
  6
Continuous
100
AcDbLine
 10
15312.33860780563
 20
6272.054120770683
 30
0.0
 11
15237.33900815747
 21
6272.054120770683
 31
0.0
  0
TEXT
  5
24CBE
330
1F
100
AcDbEntity
  8
D-STR-DIM
100
AcDbText
 10
15164.59620849874
 20
6288.054720695621
 30
0.0
 40
70.0
  1
150
100
AcDbText
  0
CIRCLE
  5
24CBF
330
1F
100
AcDbEntity
  8
D-STR-DIM
  6
Continuous
100
AcDbCircle
 10
15162.33880850932
 20
6272.054120770683
 30
0.0
 40
5.999997971852679
  0
LINE
  5
24CC0
330
1F
100
AcDbEntity
  8
D-STR-DIM
  6
Continuous
100
AcDbLine
 10
15162.33880850932
 20
6272.054120770683
 30
0.0
 11
15237.33900815747
 21
6272.054120770683
 31
0.0
  0
LINE
  5
24CC1
330
1F
100
AcDbEntity
  8
D-STR
  6
Continuous
100
AcDbLine
 10
15212.33860827476
 20
6810.553318244465
 30
0.0
 11
15312.33860780563
 21
6805.553118267923
 31
0.0
  0
LINE
  5
24CC2
330
1F
100
AcDbEntity
  8
D-STR
  6
Continuous
100
AcDbLine
 10
15312.33860780563
 20
6835.553718127181
 30
0.0
 11
15212.33860827476
 21
6830.554518150638
 31
0.0
  0
LINE
  5
24CC3
330
1F
100
AcDbEntity
  8
D-STR
  6
Continuous
100
AcDbLine
 10
15312.33860780563
 20
7162.054716595493
 30
0.0
 11
15262.33880804019
 21
7172.054316548582
 31
0.0
  0
LINE
  5
24CC4
330
1F
100
AcDbEntity
  8
D-STR
  6
Continuous
100
AcDbLine
 10
15312.33860780563
 20
7212.054516360933
 30
0.0
 11
15262.33880804019
 21
7222.054116314023
 31
0.0
  0
LINE
  5
24CC5
330
1F
100
AcDbEntity
  8
D-STR
  6
Continuous
100
AcDbLine
 10
15162.33880850932
 20
6672.053918894196
 30
0.0
 11
15612.33900639826
 21
6672.053918894196
 31
0.0
  0
LINE
  5
24CC6
330
1F
100
AcDbEntity
  8
D-STR
  6
Continuous
100
AcDbLine
 10
15212.33860827476
 20
6855.553918033355
 30
0.0
 11
15162.33840850933
 21
6865.554317986442
 31
0.0
  0
LINE
  5
24CC7
330
1F
100
AcDbEntity
  8
D-STR
  6
Continuous
100
AcDbLine
 10
15162.33880850932
 20
6775.554518408653
 30
0.0
 11
15212.33860827476
 21
6785.553918361741
 31
0.0
  0
LINE
  5
24CC8
330
1F
100
AcDbEntity
  8
D-STR
  6
Continuous
100
AcDbLine
 10
15212.33860827476
 20
6785.553918361741
 30
0.0
 11
15212.33860827476
 21
6855.553918033355
 31
0.0
  0
LINE
  5
24CC9
330
1F
100
AcDbEntity
  8
D-STR
  6
Continuous
100
AcDbLine
 10
15162.33880850932
 20
7162.054716595493
 30
0.0
 11
15212.33860827476
 21
7172.054316548582
 31
0.0
  0
LINE
  5
24CCA
330
1F
100
AcDbEntity
  8
D-STR
  6
Continuous
100
AcDbLine
 10
15162.33880850932
 20
7212.054516360933
 30
0.0
 11
15212.33860827476
 21
7222.054116314023
 31
0.0
  0
LINE
  5
24CCB
330
1F
100
AcDbEntity
  8
D-DCR-HCH
  6
Continuous
100
AcDbLine
 10
15412.71060733476
 20
6672.053918894196
 30
0.0
 11
15528.18060679312
 21
6872.053917955951
 31
0.0
  0
LINE
  5
24CCC
330
1F
100
AcDbEntity
  8
D-DCR-HCH
  6
Continuous
100
AcDbLine
 10
15435.80480722647
 20
6672.053918894196
 30
0.0
 11
15551.27480668476
 21
6872.053917955951
 31
0.0
  0
LINE
  5
24CCD
330
1F
100
AcDbEntity
  8
D-STR
  6
Continuous
100
AcDbLine
 10
15312.33860780563
 20
6872.053917955951
 30
0.0
 11
15612.33900639826
 21
6872.053917955951
 31
0.0
  0
LINE
  5
24CCE
330
1F
100
AcDbEntity
  8
D-STR
  6
Continuous
100
AcDbLine
 10
15392.33880743033
 20
6792.054518331247
 30
0.0
 11
15392.33880743033
 21
6872.053917955951
 31
0.0
  0
LINE
  5
24CCF
330
1F
100
AcDbEntity
  8
D-STR
  6
Continuous
100
AcDbLine
 10
15312.33860780563
 20
6792.054518331247
 30
0.0
 11
15392.33880743033
 21
6792.054518331247
 31
0.0
  0
LINE
  5
24CD0
330
1F
100
AcDbEntity
  8
D-DCR-HCH
  6
Continuous
100
AcDbLine
 10
15312.33900780562
 20
6758.012918490942
 30
0.0
 11
15378.1808074968
 21
6872.053917955951
 31
0.0
  0
LINE
  5
24CD1
330
1F
100
AcDbEntity
  8
D-DCR-HCH
  6
Continuous
100
AcDbLine
 10
15312.33900780562
 20
6718.012718678593
 30
0.0
 11
15401.27460738845
 21
6872.053917955951
 31
0.0
  0
LINE
  5
24CD2
330
1F
100
AcDbEntity
  8
D-DCR-HCH
  6
Continuous
100
AcDbLine
 10
15585.80460652279
 20
6672.053918894196
 30
0.0
 11
15612.33900639826
 21
6718.012718678593
 31
0.0
  0
LINE
  5
24CD3
330
1F
100
AcDbEntity
  8
D-DCR-HCH
  6
Continuous
100
AcDbLine
 10
15562.71080663107
 20
6672.053918894196
 30
0.0
 11
15612.33900639826
 21
6758.012918490942
 31
0.0
  0
LINE
  5
24CD4
330
1F
100
AcDbEntity
  8
D-STR-DIM
  6
Continuous
100
AcDbLine
 10
15862.33860522546
 20
6872.053917955951
 30
0.0
 11
15862.33860522546
 21
7222.054116314023
 31
0.0
  0
CIRCLE
  5
24CD5
330
1F
100
AcDbEntity
  8
D-STR-DIM
  6
Continuous
100
AcDbCircle
 10
15862.33860522546
 20
6872.053917955951
 30
0.0
 40
5.999997971852679
  0
TEXT
  5
24CD6
330
1F
100
AcDbEntity
  8
D-STR-DIM
100
AcDbText
 10
16096.33860412773
 20
6685.193918832552
 30
0.0
 40
70.0
  1
200
 50
90.0
100
AcDbText
  0
CIRCLE
  5
24CD7
330
1F
100
AcDbEntity
  8
D-STR-DIM
  6
Continuous
100
AcDbCircle
 10
16112.33880405265
 20
6872.053917955951
 30
0.0
 40
5.999997971852679
  0
CIRCLE
  5
24CD8
330
1F
100
AcDbEntity
  8
D-STR-DIM
  6
Continuous
100
AcDbCircle
 10
16112.33880405265
 20
6672.053918894196
 30
0.0
 40
5.999997971852679
  0
LINE
  5
24CD9
330
1F
100
AcDbEntity
  8
D-STR-DIM
  6
Continuous
100
AcDbLine
 10
16112.33880405265
 20
6872.053917955951
 30
0.0
 11
16112.33880405265
 21
6772.054518425071
 31
0.0
  0
LINE
  5
24CDA
330
1F
100
AcDbEntity
  8
D-STR-DIM
  6
Continuous
100
AcDbLine
 10
16112.33880405265
 20
6672.053918894196
 30
0.0
 11
16112.33880405265
 21
6772.054518425071
 31
0.0
  0
LINE
  5
24CDB
330
1F
100
AcDbEntity
  8
D-STR-DIM
  6
Continuous
100
AcDbLine
 10
15332.33860780563
 20
7572.054114672095
 30
0.0
 11
15892.33880508472
 21
7572.054114672095
 31
0.0
  0
LINE
  5
24CDC
330
1F
100
AcDbEntity
  8
D-STR-DIM
  6
Continuous
100
AcDbLine
 10
15632.33900639826
 20
8572.053909980876
 30
0.0
 11
16142.33840391192
 21
8572.053909980876
 31
0.0
  0
LINE
  5
24CDD
330
1F
100
AcDbEntity
  8
D-STR-DIM
  6
Continuous
100
AcDbLine
 10
15632.33900639826
 20
8372.053910919118
 30
0.0
 11
16142.33840391192
 21
8372.053910919118
 31
0.0
  0
LINE
  5
24CDE
330
1F
100
AcDbEntity
  8
D-DCR-HCH
  6
Continuous
100
AcDbLine
 10
15162.33880850932
 20
7913.369713070908
 30
0.0
 11
15312.33860780563
 21
8063.369912367223
 31
0.0
  0
LINE
  5
24CDF
330
1F
100
AcDbEntity
  8
D-DCR-HCH
  6
Continuous
100
AcDbLine
 10
15162.33880850932
 20
7823.567113492194
 30
0.0
 11
15312.33860780563
 21
7973.567312788507
 31
0.0
  0
LINE
  5
24CE0
330
1F
100
AcDbEntity
  8
D-DCR-HCH
  6
Continuous
100
AcDbLine
 10
15162.33880850932
 20
7733.764313913477
 30
0.0
 11
15312.33860780563
 21
7883.764513209794
 31
0.0
  0
LINE
  5
24CE1
330
1F
100
AcDbEntity
  8
D-DCR-HCH
  6
Continuous
100
AcDbLine
 10
15162.33880850932
 20
7643.961514334764
 30
0.0
 11
15312.33860780563
 21
7793.961713631079
 31
0.0
  0
LINE
  5
24CE2
330
1F
100
AcDbEntity
  8
D-DCR-HCH
  6
Continuous
100
AcDbLine
 10
15180.23360842536
 20
7572.054114672095
 30
0.0
 11
15312.33860780563
 21
7704.159114052362
 31
0.0
  0
LINE
  5
24CE3
330
1F
100
AcDbEntity
  8
D-DCR-HCH
  6
Continuous
100
AcDbLine
 10
15270.03640800411
 20
7572.054114672095
 30
0.0
 11
15312.33860780563
 21
7614.357314473642
 31
0.0
  0
LINE
  5
24CE4
330
1F
100
AcDbEntity
  8
D-STR
  6
DASHED1
100
AcDbLine
 10
15162.33880850932
 20
7572.054114672095
 30
0.0
 11
15312.33860780563
 21
7572.054114672095
 31
0.0
  0
LINE
  5
24CE5
330
1F
100
AcDbEntity
  8
D-STR
  6
Continuous
100
AcDbLine
 10
15312.33860780563
 20
7432.054515328864
 30
0.0
 11
15262.33880804019
 21
7422.05391537578
 31
0.0
  0
LINE
  5
24CE6
330
1F
100
AcDbEntity
  8
D-STR
  6
Continuous
100
AcDbLine
 10
15162.33840850933
 20
7432.054515328864
 30
0.0
 11
15212.33860827476
 21
7422.05391537578
 31
0.0
  0
LINE
  5
24CE7
330
1F
100
AcDbEntity
  8
D-DCR-HCH
  6
Continuous
100
AcDbLine
 10
15162.33880850932
 20
8182.777911807056
 30
0.0
 11
15312.33860780563
 21
8332.778111103371
 31
0.0
  0
LINE
  5
24CE8
330
1F
100
AcDbEntity
  8
D-DCR-HCH
  6
Continuous
100
AcDbLine
 10
15162.33880850932
 20
8092.975112228339
 30
0.0
 11
15312.33860780563
 21
8242.975311524656
 31
0.0
  0
LINE
  5
24CE9
330
1F
100
AcDbEntity
  8
D-DCR-HCH
  6
Continuous
100
AcDbLine
 10
15162.33880850932
 20
8003.172512649625
 30
0.0
 11
15312.33860780563
 21
8153.17271194594
 31
0.0
  0
LINE
  5
24CEA
330
1F
100
AcDbEntity
  8
D-STR
  6
Continuous
100
AcDbLine
 10
15312.33860780563
 20
8087.054312256114
 30
0.0
 11
15212.33860827476
 21
8082.054112279571
 31
0.0
  0
LINE
  5
24CEB
330
1F
100
AcDbEntity
  8
D-STR
  6
Continuous
100
AcDbLine
 10
15212.33860827476
 20
8062.053912373398
 30
0.0
 11
15312.33860780563
 21
8057.053712396855
 31
0.0
  0
LINE
  5
24CEC
330
1F
100
AcDbEntity
  8
D-STR
  6
DASHED1
100
AcDbLine
 10
15162.33880850932
 20
8372.053910919118
 30
0.0
 11
15312.33860780563
 21
8372.053910919118
 31
0.0
  0
LINE
  5
24CED
330
1F
100
AcDbEntity
  8
D-STR
  6
Continuous
100
AcDbLine
 10
15162.33880850932
 20
8572.053909980876
 30
0.0
 11
15612.33900639826
 21
8572.053909980876
 31
0.0
  0
LINE
  5
24CEE
330
1F
100
AcDbEntity
  8
D-DCR-HCH
  6
Continuous
100
AcDbLine
 10
15162.33880850932
 20
8272.580711385769
 30
0.0
 11
15261.81260804271
 21
8372.053910919118
 31
0.0
  0
LINE
  5
24CEF
330
1F
100
AcDbEntity
  8
D-STR
  6
Continuous
100
AcDbLine
 10
15212.33860827476
 20
8107.054512162291
 30
0.0
 11
15162.33880850932
 21
8117.05391211538
 31
0.0
  0
LINE
  5
24CF0
330
1F
100
AcDbEntity
  8
D-STR
  6
Continuous
100
AcDbLine
 10
15212.33860827476
 20
8037.054512490675
 30
0.0
 11
15212.33860827476
 21
8107.054512162291
 31
0.0
  0
LINE
  5
24CF1
330
1F
100
AcDbEntity
  8
D-STR
  6
Continuous
100
AcDbLine
 10
15162.33880850932
 20
8027.054112537589
 30
0.0
 11
15212.33860827476
 21
8037.05371249068
 31
0.0
  0
LINE
  5
24CF2
330
1F
100
AcDbEntity
  8
D-DCR-HCH
  6
Continuous
100
AcDbLine
 10
15162.33880850932
 20
8362.383310964487
 30
0.0
 11
15172.00980846396
 21
8372.053910919118
 31
0.0
  0
TEXT
  5
24CF3
330
1F
100
AcDbEntity
  8
D-STR-DIM
100
AcDbText
 10
15484.57880699763
 20
8006.909312632092
 30
0.0
 40
70.0
  1
φ30
 50
90.0
100
AcDbText
  0
CIRCLE
  5
24CF4
330
1F
100
AcDbEntity
  8
D-STR-DIM
  6
Continuous
100
AcDbCircle
 10
15412.33840733652
 20
8057.054712396849
 30
0.0
 40
5.999997971852679
  0
CIRCLE
  5
24CF5
330
1F
100
AcDbEntity
  8
D-STR-DIM
  6
Continuous
100
AcDbCircle
 10
15412.33840733652
 20
8087.054312256114
 30
0.0
 40
5.999997971852679
  0
LINE
  5
24CF6
330
1F
100
AcDbEntity
  8
D-STR-DIM
  6
Continuous
100
AcDbLine
 10
15332.33860780563
 20
8057.054712396849
 30
0.0
 11
15442.33860719578
 21
8057.054712396849
 31
0.0
  0
LINE
  5
24CF7
330
1F
100
AcDbEntity
  8
D-STR-DIM
  6
Continuous
100
AcDbLine
 10
15332.33860780563
 20
8087.054312256114
 30
0.0
 11
15442.33860719578
 21
8087.054312256114
 31
0.0
  0
LINE
  5
24CF8
330
1F
100
AcDbEntity
  8
D-STR-DIM
  6
Continuous
100
AcDbLine
 10
15412.33840733652
 20
8057.054712396849
 30
0.0
 11
15412.33840733652
 21
8072.054512326483
 31
0.0
  0
LINE
  5
24CF9
330
1F
100
AcDbEntity
  8
D-STR-DIM
  6
Continuous
100
AcDbLine
 10
15412.33840733652
 20
8087.054312256114
 30
0.0
 11
15412.33840733652
 21
8072.054512326483
 31
0.0
  0
LINE
  5
24CFA
330
1F
100
AcDbEntity
  8
D-DCR-HCH
  6
Continuous
100
AcDbLine
 10
15435.80440722648
 20
8372.053910919118
 30
0.0
 11
15551.27440668477
 21
8572.053909980876
 31
0.0
  0
LINE
  5
24CFB
330
1F
100
AcDbEntity
  8
D-DCR-HCH
  6
Continuous
100
AcDbLine
 10
15412.71000733477
 20
8372.053910919118
 30
0.0
 11
15528.18000679307
 21
8572.053909980876
 31
0.0
  0
LINE
  5
24CFC
330
1F
100
AcDbEntity
  8
D-STR
  6
Continuous
100
AcDbLine
 10
15312.33860780563
 20
8372.053910919118
 30
0.0
 11
15612.33900639826
 21
8372.053910919118
 31
0.0
  0
LINE
  5
24CFD
330
1F
100
AcDbEntity
  8
D-DCR-HCH
  6
Continuous
100
AcDbLine
 10
15312.33860780563
 20
8418.012710703518
 30
0.0
 11
15401.27420738846
 21
8572.053909980876
 31
0.0
  0
LINE
  5
24CFE
330
1F
100
AcDbEntity
  8
D-DCR-HCH
  6
Continuous
100
AcDbLine
 10
15312.33860780563
 20
8458.012710515868
 30
0.0
 11
15378.18040749681
 21
8572.053909980876
 31
0.0
  0
LINE
  5
24CFF
330
1F
100
AcDbEntity
  8
D-DCR-HCH
  6
Continuous
100
AcDbLine
 10
15562.71020663109
 20
8372.053910919118
 30
0.0
 11
15612.33900639826
 21
8458.012710515868
 31
0.0
  0
LINE
  5
24D00
330
1F
100
AcDbEntity
  8
D-DCR-HCH
  6
Continuous
100
AcDbLine
 10
15585.80460652279
 20
8372.053910919118
 30
0.0
 11
15612.33900639826
 21
8418.012710703518
 31
0.0
  0
TEXT
  5
24D01
330
1F
100
AcDbEntity
  8
D-STR-DIM
100
AcDbText
 10
15846.33840530054
 20
7885.194513203086
 30
0.0
 40
70.0
  1
800
 50
90.0
100
AcDbText
  0
LINE
  5
24D02
330
1F
100
AcDbEntity
  8
D-STR-DIM
  6
Continuous
100
AcDbLine
 10
15862.33860522546
 20
7572.054114672095
 30
0.0
 11
15862.33860522546
 21
7972.054112795605
 31
0.0
  0
LINE
  5
24D03
330
1F
100
AcDbEntity
  8
D-STR-DIM
  6
Continuous
100
AcDbLine
 10
16112.33880405265
 20
8372.053910919118
 30
0.0
 11
16112.33880405265
 21
7622.053914437535
 31
0.0
  0
CIRCLE
  5
24D04
330
1F
100
AcDbEntity
  8
D-STR-DIM
  6
Continuous
100
AcDbCircle
 10
15862.33860522546
 20
7572.054114672095
 30
0.0
 40
5.999997971852679
  0
TEXT
  5
24D05
330
1F
100
AcDbEntity
  8
D-STR-DIM
100
AcDbText
 10
16096.33860412773
 20
7503.193914995134
 30
0.0
 40
70.0
  1
1500
 50
90.0
100
AcDbText
  0
LINE
  5
24D06
330
1F
100
AcDbEntity
  8
D-STR-DIM
  6
Continuous
100
AcDbLine
 10
15862.33860522546
 20
8372.053910919118
 30
0.0
 11
15862.33860522546
 21
7972.054112795605
 31
0.0
  0
CIRCLE
  5
24D07
330
1F
100
AcDbEntity
  8
D-STR-DIM
  6
Continuous
100
AcDbCircle
 10
15862.33860522546
 20
8372.053910919118
 30
0.0
 40
5.999997971852679
  0
TEXT
  5
24D08
330
1F
100
AcDbEntity
  8
D-STR-DIM
100
AcDbText
 10
16096.33860412773
 20
8385.194710857472
 30
0.0
 40
70.0
  1
200
 50
90.0
100
AcDbText
  0
CIRCLE
  5
24D09
330
1F
100
AcDbEntity
  8
D-STR-DIM
  6
Continuous
100
AcDbCircle
 10
16112.33880405265
 20
8572.053909980876
 30
0.0
 40
5.999997971852679
  0
CIRCLE
  5
24D0A
330
1F
100
AcDbEntity
  8
D-STR-DIM
  6
Continuous
100
AcDbCircle
 10
16112.33880405265
 20
8372.053910919118
 30
0.0
 40
5.999997971852679
  0
LINE
  5
24D0B
330
1F
100
AcDbEntity
  8
D-STR-DIM
  6
Continuous
100
AcDbLine
 10
16112.33880405265
 20
8572.053909980876
 30
0.0
 11
16112.33880405265
 21
8472.054310449994
 31
0.0
  0
LINE
  5
24D0C
330
1F
100
AcDbEntity
  8
D-STR-DIM
  6
Continuous
100
AcDbLine
 10
16112.33880405265
 20
8372.053910919118
 30
0.0
 11
16112.33880405265
 21
8472.054310449994
 31
0.0
  0
CIRCLE
  5
24D13
330
1F
100
AcDbEntity
  8
D-STR-DIM
  6
Continuous
100
AcDbCircle
 10
13762.33821507704
 20
9272.054106697018
 30
0.0
 40
5.999997971852679
  0
CIRCLE
  5
24D14
330
1F
100
AcDbEntity
  8
D-STR-DIM
  6
Continuous
100
AcDbCircle
 10
13762.33821507704
 20
8972.054708104382
 30
0.0
 40
5.999997971852679
  0
LINE
  5
24D15
330
1F
100
AcDbEntity
  8
D-STR-DIM
  6
Continuous
100
AcDbLine
 10
13762.33821507704
 20
8972.054708104382
 30
0.0
 11
13688.0884154254
 21
8972.054708104382
 31
0.0
  0
TEXT
  5
251C8
330
1F
100
AcDbEntity
  8
D-TTL-TXT
100
AcDbText
 10
1841.893585033933
 20
9671.784777698318
 30
0.0
 40
100.0
  1
（ＫＡ－1－2は左右逆になります）
100
AcDbText
  0
TEXT
  5
251C9
330
1F
100
AcDbEntity
  8
D-TTL-TXT
100
AcDbText
 10
1865.153364340405
 20
9903.193346380486
 30
0.0
 40
140.0
  1
タイプ1　（ＫＡ－1－1）
100
AcDbText
  0
TEXT
  5
251CA
330
1F
100
AcDbEntity
  8
D-TTL-TXT
100
AcDbText
 10
6832.519184046012
 20
9903.193346380486
 30
0.0
 40
140.0
  1
タイプ2　（ＫＡ－2－1）
100
AcDbText
  0
TEXT
  5
251CB
330
1F
100
AcDbEntity
  8
D-TTL-TXT
100
AcDbText
 10
6809.259404739539
 20
9671.784777698318
 30
0.0
 40
100.0
  1
（ＫＡ－2－2は左右逆になります）
100
AcDbText
  0
TEXT
  5
251CC
330
1F
100
AcDbEntity
  8
D-TTL-TXT
100
AcDbText
 10
11930.89136483887
 20
9671.784777698318
 30
0.0
 40
100.0
  1
（ＫＡ－3－2は左右逆になります）
100
AcDbText
  0
TEXT
  5
251CD
330
1F
100
AcDbEntity
  8
D-TTL-TXT
100
AcDbText
 10
11954.15114414534
 20
9903.193346380486
 30
0.0
 40
140.0
  1
タイプ3　（ＫＡ－3－1）
100
AcDbText
  0
TEXT
  5
251D6
330
1F
100
AcDbEntity
  8
D-TTL-TXT
100
AcDbText
 10
807.5347324427166
 20
9258.754323730162
 30
0.0
 40
150.0
  1
　車　道　側　
100
AcDbText
  0
TEXT
  5
251D7
330
1F
100
AcDbEntity
  8
D-TTL-TXT
100
AcDbText
 10
989.2470497962113
 20
9084.754041130164
 30
0.0
 40
105.0
  1
（電　力　側）
100
AcDbText
  0
TEXT
  5
251D8
330
1F
100
AcDbEntity
  8
D-TTL-TXT
100
AcDbText
 10
3540.37514113002
 20
9258.754323730162
 30
0.0
 40
150.0
  1
　民　地　側　
100
AcDbText
  0
TEXT
  5
251D9
330
1F
100
AcDbEntity
  8
D-TTL-TXT
100
AcDbText
 10
3717.255182167657
 20
9084.754041130164
 30
0.0
 40
105.0
  1
（通　信　側）
100
AcDbText
  0
TEXT
  5
251DA
330
1F
100
AcDbEntity
  8
D-TTL-TXT
100
AcDbText
 10
5780.181121232239
 20
9258.754323730162
 30
0.0
 40
150.0
  1
　車　道　側　
100
AcDbText
  0
TEXT
  5
251DB
330
1F
100
AcDbEntity
  8
D-TTL-TXT
100
AcDbText
 10
5961.893438585733
 20
9084.754041130164
 30
0.0
 40
105.0
  1
（電　力　側）
100
AcDbText
  0
TEXT
  5
251DC
330
1F
100
AcDbEntity
  8
D-TTL-TXT
100
AcDbText
 10
8689.90157095718
 20
9084.754041130164
 30
0.0
 40
105.0
  1
（通　信　側）
100
AcDbText
  0
TEXT
  5
251DD
330
1F
100
AcDbEntity
  8
D-TTL-TXT
100
AcDbText
 10
8513.021529919543
 20
9258.754323730162
 30
0.0
 40
150.0
  1
　民　地　側　
100
AcDbText
  0
TEXT
  5
251DE
330
1F
100
AcDbEntity
  8
D-TTL-TXT
100
AcDbText
 10
11129.42793532186
 20
9084.754041130164
 30
0.0
 40
105.0
  1
（電　力　側）
100
AcDbText
  0
TEXT
  5
251DF
330
1F
100
AcDbEntity
  8
D-TTL-TXT
100
AcDbText
 10
10947.71561796837
 20
9258.754323730162
 30
0.0
 40
150.0
  1
　車　道　側　
100
AcDbText
  0
TEXT
  5
251E0
330
1F
100
AcDbEntity
  8
D-TTL-TXT
100
AcDbText
 10
13857.43606769331
 20
9084.754041130164
 30
0.0
 40
105.0
  1
（通　信　側）
100
AcDbText
  0
TEXT
  5
251E1
330
1F
100
AcDbEntity
  8
D-TTL-TXT
100
AcDbText
 10
13680.55602665567
 20
9258.754323730162
 30
0.0
 40
150.0
  1
　民　地　側　
100
AcDbText
  0
TEXT
  5
2527C
330
1F
100
AcDbEntity
  8
D-MTR-TXT
100
AcDbText
 10
6402.266052049018
 20
3604.587657363985
 30
0.0
 40
69.99999999999999
  1
構造形式　　　
100
AcDbText
  0
TEXT
  5
2527D
330
1F
100
AcDbEntity
  8
D-MTR-TXT
100
AcDbText
 10
6395.829454031682
 20
3475.254903630578
 30
0.0
 40
69.99999999999999
  1
寸法
100
AcDbText
  0
TEXT
  5
2527E
330
1F
100
AcDbEntity
  8
D-MTR-TXT
100
AcDbText
 10
6348.498288881954
 20
3927.921221697286
 30
0.0
 40
69.99999999999999
  1
設　計　荷　重
100
AcDbText
  0
TEXT
  5
2527F
330
1F
100
AcDbEntity
  8
D-MTR-TXT
100
AcDbText
 10
6385.466333728982
 20
3151.921339297275
 30
0.0
 40
69.99999999999999
  1
土の単位重量
100
AcDbText
  0
TEXT
  5
25280
330
1F
100
AcDbEntity
  8
D-MTR-TXT
100
AcDbText
 10
6351.109108946602
 20
2763.92139809727
 30
0.0
 40
69.99999999999999
  1
使　用　材　料
100
AcDbText
  0
LINE
  5
25281
330
1F
100
AcDbEntity
  8
D-MTR-FRAM
  6
Continuous
100
AcDbLine
 10
6321.470070128612
 20
4102.054530950633
 30
0.0
 11
9029.469437328677
 21
4102.054530950633
 31
0.0
  0
LINE
  5
25282
330
1F
100
AcDbEntity
  8
D-MTR-FRAM
  6
Continuous
100
AcDbLine
 10
6321.470070128612
 20
3843.388743483858
 30
0.0
 11
9029.469437328677
 21
3843.388743483858
 31
0.0
  0
LINE
  5
25283
330
1F
100
AcDbEntity
  8
D-MTR-FRAM
  6
Continuous
100
AcDbLine
 10
6321.470070128612
 20
3714.054589750628
 30
0.0
 11
9029.469437328677
 21
3714.054589750628
 31
0.0
  0
LINE
  5
25284
330
1F
100
AcDbEntity
  8
D-MTR-FRAM
  6
Continuous
100
AcDbLine
 10
6321.470070128612
 20
3584.721556017257
 30
0.0
 11
9029.469437328677
 21
3584.721556017257
 31
0.0
  0
LINE
  5
25285
330
1F
100
AcDbEntity
  8
D-MTR-FRAM
  6
Continuous
100
AcDbLine
 10
6321.470070128612
 20
3455.387402283975
 30
0.0
 11
9029.469437328677
 21
3455.387402283975
 31
0.0
  0
LINE
  5
25286
330
1F
100
AcDbEntity
  8
D-MTR-FRAM
  6
Continuous
100
AcDbLine
 10
6321.470070128612
 20
3326.054648550621
 30
0.0
 11
9029.469437328677
 21
3326.054648550621
 31
0.0
  0
LINE
  5
25287
330
1F
100
AcDbEntity
  8
D-MTR-FRAM
  6
Continuous
100
AcDbLine
 10
6321.470070128612
 20
3067.387461083969
 30
0.0
 11
9029.469437328677
 21
3067.387461083969
 31
0.0
  0
LINE
  5
25288
330
1F
100
AcDbEntity
  8
D-MTR-FRAM
  6
Continuous
100
AcDbLine
 10
6321.470070128612
 20
2938.054707350614
 30
0.0
 11
9029.469437328677
 21
2938.054707350614
 31
0.0
  0
LINE
  5
25289
330
1F
100
AcDbEntity
  8
D-MTR-FRAM
  6
Continuous
100
AcDbLine
 10
6321.470070128612
 20
2679.387799883928
 30
0.0
 11
9029.469437328677
 21
2679.387799883928
 31
0.0
  0
LINE
  5
2528B
330
1F
100
AcDbEntity
  8
D-MTR-FRAM
  6
Continuous
100
AcDbLine
 10
6321.470070128612
 20
4102.054530950633
 30
0.0
 11
6321.470070128615
 21
2679.387799883929
 31
0.0
  0
LINE
  5
2528D
330
1F
100
AcDbEntity
  8
D-MTR-FRAM
  6
Continuous
100
AcDbLine
 10
9029.469437328677
 20
4102.054530950633
 30
0.0
 11
9029.469437328675
 21
2679.387799883929
 31
0.0
  0
TEXT
  5
2528E
330
1F
100
AcDbEntity
  8
D-MTR-TXT
100
AcDbText
 10
6989.465695329051
 20
3087.254962430573
 30
0.0
 40
69.99999999999999
  1
地下水位以下
100
AcDbText
  0
LINE
  5
2528F
330
1F
100
AcDbEntity
  8
D-MTR-FRAM
  6
Continuous
100
AcDbLine
 10
7502.802966661987
 20
4102.054530950633
 30
0.0
 11
7502.802966661985
 21
2679.387799883929
 31
0.0
  0
LINE
  5
25290
330
1F
100
AcDbEntity
  8
D-MTR-FRAM
  6
Continuous
100
AcDbLine
 10
6961.469706128653
 20
3326.054648550621
 30
0.0
 11
6961.469706128653
 21
3067.387461083969
 31
0.0
  0
TEXT
  5
25296
330
1F
100
AcDbEntity
  8
D-MTR-MTXT
100
AcDbText
 10
7538.798953062393
 20
2828.587774963973
 30
0.0
 40
69.99999999999999
  1
設計基準強度　　
100
AcDbText
  0
TEXT
  5
25297
330
1F
100
AcDbEntity
  8
D-MTR-MTXT
100
AcDbText
 10
7538.798953062393
 20
2699.255021230566
 30
0.0
 40
69.99999999999999
  1
ＳＤ２９５Ａ　　
100
AcDbText
  0
TEXT
  5
25299
330
1F
100
AcDbEntity
  8
D-MTR-MTXT
100
AcDbText
 10
7538.798953062393
 20
2957.921928697201
 30
0.0
 40
69.99999999999999
  1
ｋａ＝0.5　（静止土圧係数）
100
AcDbText
  0
LINE
  5
2529A
330
1F
100
AcDbEntity
  8
D-MTR-FRAM
  6
Continuous
100
AcDbLine
 10
6961.469706128653
 20
2808.72195361721
 30
0.0
 11
9029.469437328677
 21
2808.72195361721
 31
0.0
  0
TEXT
  5
2529C
330
1F
100
AcDbEntity
  8
D-MTR-TXT
100
AcDbText
 10
6989.465695329051
 20
2828.587774963973
 30
0.0
 40
69.99999999999999
  1
コンクリ－ト
100
AcDbText
  0
TEXT
  5
2529D
330
1F
100
AcDbEntity
  8
D-MTR-TXT
100
AcDbText
 10
7079.065966369023
 20
2699.255021230566
 30
0.0
 40
69.99999999999999
  1
鉄　　筋
100
AcDbText
  0
TEXT
  5
2529E
330
1F
100
AcDbEntity
  8
D-MTR-TXT
100
AcDbText
 10
6679.533921397633
 20
2957.921928697201
 30
0.0
 40
69.99999999999999
  1
土　圧　係　数
100
AcDbText
  0
LINE
  5
252A0
330
1F
100
AcDbEntity
  8
D-MTR-FRAM
  6
Continuous
100
AcDbLine
 10
6961.469706128653
 20
2938.054707350614
 30
0.0
 11
6961.469706128653
 21
2679.387799883928
 31
0.0
  0
TEXT
  5
252A7
330
1F
100
AcDbEntity
  8
D-MTR-MTXT
100
AcDbText
 10
8060.61903579596
 20
2697.793189389767
 30
0.0
 40
69.99999999999999
  1
σｓａ＝160Ｎ／ｍｍ
100
AcDbText
  0
TEXT
  5
252A8
330
1F
100
AcDbEntity
  8
D-MTR-MTXT
100
AcDbText
 10
8060.61903579596
 20
2827.125943123171
 30
0.0
 40
69.99999999999999
  1
σｃｋ＝　30Ｎ／ｍｍ
100
AcDbText
  0
TEXT
  5
252AA
330
1F
100
AcDbEntity
  8
D-MTR-MTXT
100
AcDbText
 10
8935.849862279155
 20
2867.904010050807
 30
0.0
 40
49.99999999999999
  1
2
100
AcDbText
  0
TEXT
  5
252AB
330
1F
100
AcDbEntity
  8
D-MTR-MTXT
100
AcDbText
 10
8905.764994187888
 20
2738.571256317401
 30
0.0
 40
49.99999999999999
  1
2
100
AcDbText
  0
TEXT
  5
252AC
330
1F
100
AcDbEntity
  8
D-MTR-MTXT
100
AcDbText
 10
7852.398921702388
 20
3733.921811097216
 30
0.0
 40
69.99999999999999
  1
0.200
100
AcDbText
  0
TEXT
  5
252AD
330
1F
100
AcDbEntity
  8
D-MTR-MTXT
100
AcDbText
 10
7606.489970798411
 20
3475.254903630578
 30
0.0
 40
69.99999999999999
  1
1,600
100
AcDbText
  0
TEXT
  5
252AE
330
1F
100
AcDbEntity
  8
D-MTR-MTXT
100
AcDbText
 10
7538.798953062393
 20
3604.587657363985
 30
0.0
 40
69.99999999999999
  1
鉄筋コンクリ－ト版
100
AcDbText
  0
LINE
  5
252AF
330
1F
100
AcDbEntity
  8
D-MTR-MTXT
  6
Continuous
100
AcDbLine
 10
7570.802949861991
 20
3390.721025417273
 30
0.0
 11
8410.80342586194
 21
3390.721025417273
 31
0.0
  0
TEXT
  5
252B0
330
1F
100
AcDbEntity
  8
D-MTR-MTXT
100
AcDbText
 10
7538.798953062393
 20
3992.588998563814
 30
0.0
 40
69.99999999999999
  1
Ｔ－25　（後輪１輪　100ｋＮ）
100
AcDbText
  0
TEXT
  5
252B1
330
1F
100
AcDbEntity
  8
D-MTR-MTXT
100
AcDbText
 10
7538.798953062393
 20
3216.587716163978
 30
0.0
 40
69.99999999999999
  1
γ＝19.0ｋＮ／ｍ
100
AcDbText
  0
LINE
  5
252B2
330
1F
100
AcDbEntity
  8
D-MTR-FRAM
  6
Continuous
100
AcDbLine
 10
6961.469706128653
 20
3972.721497217263
 30
0.0
 11
9029.469437328677
 21
3972.721497217263
 31
0.0
  0
LINE
  5
252B3
330
1F
100
AcDbEntity
  8
D-MTR-FRAM
  6
Continuous
100
AcDbLine
 10
6961.469706128653
 20
3196.721894817215
 30
0.0
 11
9029.469437328677
 21
3196.721894817215
 31
0.0
  0
TEXT
  5
252B4
330
1F
100
AcDbEntity
  8
D-MTR
100
AcDbText
 10
6798.536356136043
 20
4186.054122550661
 30
0.0
 40
139.9999999999999
  1
　設　計　条　件　
100
AcDbText
  0
LINE
  5
252B5
330
1F
100
AcDbEntity
  8
D-MTR-FRAM
  6
Continuous
100
AcDbLine
 10
6961.469706128653
 20
4102.054530950633
 30
0.0
 11
6961.469706128653
 21
3843.388743483858
 31
0.0
  0
TEXT
  5
252B6
330
1F
100
AcDbEntity
  8
D-MTR-TXT
100
AcDbText
 10
7034.266250848992
 20
3992.588998563814
 30
0.0
 40
69.99999999999999
  1
活　荷　重
100
AcDbText
  0
TEXT
  5
252B7
330
1F
100
AcDbEntity
  8
D-MTR-TXT
100
AcDbText
 10
7034.266250848992
 20
3863.25456483062
 30
0.0
 40
69.99999999999999
  1
衝　　　撃
100
AcDbText
  0
TEXT
  5
252B8
330
1F
100
AcDbEntity
  8
D-MTR-TXT
100
AcDbText
 10
7174.53290015566
 20
3475.254903630578
 30
0.0
 40
69.99999999999999
  1
×
100
AcDbText
  0
TEXT
  5
252B9
330
1F
100
AcDbEntity
  8
D-MTR-TXT
100
AcDbText
 10
6800.396847761756
 20
3604.587657363985
 30
0.0
 40
69.99999999999999
  1
　（工場製品）
100
AcDbText
  0
TEXT
  5
252BA
330
1F
100
AcDbEntity
  8
D-MTR-TXT
100
AcDbText
 10
6584.9071898941
 20
3733.921811097216
 30
0.0
 40
69.99999999999999
  1
許　容　土　被　り
100
AcDbText
  0
TEXT
  5
252BB
330
1F
100
AcDbEntity
  8
D-MTR-TXT
100
AcDbText
 10
6649.375310046082
 20
3345.921869897208
 30
0.0
 40
69.99999999999999
  1
地　下　水　位
100
AcDbText
  0
TEXT
  5
252BC
330
1F
100
AcDbEntity
  8
D-MTR-TXT
100
AcDbText
 10
6989.465695329051
 20
3216.587716163978
 30
0.0
 40
69.99999999999999
  1
地下水位以上
100
AcDbText
  0
TEXT
  5
252BD
330
1F
100
AcDbEntity
  8
D-MTR-TXT
100
AcDbText
 10
6733.237874790605
 20
3475.254903630578
 30
0.0
 40
69.99999999999999
  1
　（幅
100
AcDbText
  0
TEXT
  5
252BE
330
1F
100
AcDbEntity
  8
D-MTR-TXT
100
AcDbText
 10
6985.732647035689
 20
3475.254903630578
 30
0.0
 40
69.99999999999999
  1
×
100
AcDbText
  0
TEXT
  5
252BF
330
1F
100
AcDbEntity
  8
D-MTR-TXT
100
AcDbText
 10
7073.466246928994
 20
3475.254903630578
 30
0.0
 40
69.99999999999999
  1
高
100
AcDbText
  0
TEXT
  5
252C0
330
1F
100
AcDbEntity
  8
D-MTR-TXT
100
AcDbText
 10
7275.598993382384
 20
3475.254903630578
 30
0.0
 40
69.99999999999999
  1
厚）
100
AcDbText
  0
TEXT
  5
252C1
330
1F
100
AcDbEntity
  8
D-MTR-MTXT
100
AcDbText
 10
7538.798953062393
 20
3733.921811097216
 30
0.0
 40
69.99999999999999
  1
Ｈ′＝
100
AcDbText
  0
TEXT
  5
252C2
330
1F
100
AcDbEntity
  8
D-MTR-MTXT
100
AcDbText
 10
7538.798953062393
 20
3863.25456483062
 30
0.0
 40
69.99999999999999
  1
ｉ＝0.3
100
AcDbText
  0
TEXT
  5
252C3
330
1F
100
AcDbEntity
  8
D-MTR-MTXT
100
AcDbText
 10
8351.738053439316
 20
3733.921811097216
 30
0.0
 40
69.99999999999999
  1
1.000　ｍ
100
AcDbText
  0
TEXT
  5
252C4
330
1F
100
AcDbEntity
  8
D-MTR-MTXT
100
AcDbText
 10
8115.39903460299
 20
3475.254903630578
 30
0.0
 40
69.99999999999999
  1
1,900
100
AcDbText
  0
TEXT
  5
252C5
330
1F
100
AcDbEntity
  8
D-MTR-MTXT
100
AcDbText
 10
7964.932237115725
 20
3475.254903630578
 30
0.0
 40
69.99999999999999
  1
×
100
AcDbText
  0
TEXT
  5
252C6
330
1F
100
AcDbEntity
  8
D-MTR-MTXT
100
AcDbText
 10
8257.532791397945
 20
3263.930075205393
 30
0.0
 40
49.99999999999999
  1
3
100
AcDbText
  0
TEXT
  5
252C7
330
1F
100
AcDbEntity
  8
D-MTR-MTXT
100
AcDbText
 10
8217.338626879257
 20
3733.921811097216
 30
0.0
 40
69.99999999999999
  1
～
100
AcDbText
  0
DIMENSION
  5
252CC
330
1F
100
AcDbEntity
  8
0
100
AcDbDimension
  2
*D1
 10
5070.956599043169
 20
8972.054708104382
 30
0.0
 11
5045.956399160457
 21
8921.263835427042
 31
0.0
 70
   160
 71
     5
 42
50.00039976542393
  3
20
100
AcDbAlignedDimension
 13
5020.956199277745
 23
8572.053909980876
 33
0.0
 14
5070.956599043169
 24
8572.053909980876
 34
0.0
100
AcDbRotatedDimension
1001
ACAD
1000
DSTYLE
1002
{
1070
    41
1040
11.0
1070
   279
1070
     2
1070
   343
1005
2531F
1070
   342
1005
0
1070
   173
1070
     1
1070
   344
1005
2531F
1070
    75
1070
     1
1002
}
  0
DIMENSION
  5
252DB
330
1F
100
AcDbEntity
  8
0
100
AcDbDimension
  2
*D2
 10
5120.956598808611
 20
8972.054708104382
 30
0.0
 11
5160.95659880861
 21
8972.054708104382
 31
0.0
 70
   160
 71
     5
 42
49.99999976544131
  3
20
100
AcDbAlignedDimension
 13
5070.956599043169
 23
8572.053909980876
 33
0.0
 14
5120.956598808611
 24
8572.053909980876
 34
0.0
100
AcDbRotatedDimension
1001
ACAD
1000
DSTYLE
1002
{
1070
    41
1040
11.0
1070
   343
1005
2531F
1070
   342
1005
0
1070
   173
1070
     1
1070
   344
1005
2531F
1070
    75
1070
     1
1002
}
  0
DIMENSION
  5
25392
330
1F
100
AcDbEntity
  8
0
100
AcDbDimension
  2
*D4
 10
4970.95659951229
 20
8972.054708104382
 30
0.0
 11
4930.95659951229
 21
8972.054708104382
 31
0.0
 70
   160
 71
     5
 42
49.99959976545506
  3
20
100
AcDbAlignedDimension
 13
5020.956199277745
 23
8572.053909980876
 33
0.0
 14
4970.95659951229
 24
8572.053909980876
 34
0.0
100
AcDbRotatedDimension
  0
DIMENSION
  5
253C2
330
1F
100
AcDbEntity
  8
0
100
AcDbDimension
  2
*D7
 10
9981.175871525273
 20
9032.054907822907
 30
0.0
 11
9941.175871525274
 21
9032.054907822907
 31
0.0
 70
   160
 71
     5
 42
49.99959976545506
  3
20
100
AcDbAlignedDimension
 13
10031.17547129072
 23
8632.054109699401
 33
0.0
 14
9981.175871525273
 24
8632.054109699401
 34
0.0
100
AcDbRotatedDimension
  0
DIMENSION
  5
253C3
330
1F
100
AcDbEntity
  8
0
100
AcDbDimension
  2
*D6
 10
10131.17587082159
 20
9032.054907822907
 30
0.0
 11
10171.17587082159
 21
9032.054907822907
 31
0.0
 70
   160
 71
     5
 42
49.99999976544131
  3
20
100
AcDbAlignedDimension
 13
10081.17587105615
 23
8632.054109699401
 33
0.0
 14
10131.17587082159
 24
8632.054109699401
 34
0.0
100
AcDbRotatedDimension
1001
ACAD
1000
DSTYLE
1002
{
1070
    41
1040
11.0
1070
   343
1005
2531F
1070
   342
1005
0
1070
   173
1070
     1
1070
   344
1005
2531F
1070
    75
1070
     1
1002
}
  0
DIMENSION
  5
253C4
330
1F
100
AcDbEntity
  8
0
100
AcDbDimension
  2
*D5
 10
10081.17587105615
 20
9032.054907822907
 30
0.0
 11
10056.17567117344
 21
8981.264035145567
 31
0.0
 70
   160
 71
     5
 42
50.00039976542393
  3
20
100
AcDbAlignedDimension
 13
10031.17547129072
 23
8632.054109699401
 33
0.0
 14
10081.17587105615
 24
8632.054109699401
 34
0.0
100
AcDbRotatedDimension
1001
ACAD
1000
DSTYLE
1002
{
1070
    41
1040
11.0
1070
   279
1070
     2
1070
   343
1005
2531F
1070
   342
1005
0
1070
   173
1070
     1
1070
   344
1005
2531F
1070
    75
1070
     1
1002
}
  0
DIMENSION
  5
2540C
330
1F
100
AcDbEntity
  8
0
100
AcDbDimension
  2
*D10
 10
15162.33880850932
 20
8972.054708104382
 30
0.0
 11
15122.33880850932
 21
8972.054708104382
 31
0.0
 70
   160
 71
     5
 42
49.99959976545506
  3
20
100
AcDbAlignedDimension
 13
15212.33840827477
 23
8572.053909980876
 33
0.0
 14
15162.33880850932
 24
8572.053909980876
 34
0.0
100
AcDbRotatedDimension
  0
DIMENSION
  5
2540D
330
1F
100
AcDbEntity
  8
0
100
AcDbDimension
  2
*D9
 10
15312.33880780564
 20
8972.054708104382
 30
0.0
 11
15352.33880780564
 21
8972.054708104382
 31
0.0
 70
   160
 71
     5
 42
49.99999976544131
  3
20
100
AcDbAlignedDimension
 13
15262.33880804019
 23
8572.053909980876
 33
0.0
 14
15312.33880780564
 24
8572.053909980876
 34
0.0
100
AcDbRotatedDimension
1001
ACAD
1000
DSTYLE
1002
{
1070
    41
1040
11.0
1070
   343
1005
2531F
1070
   342
1005
0
1070
   173
1070
     1
1070
   344
1005
2531F
1070
    75
1070
     1
1002
}
  0
DIMENSION
  5
2540E
330
1F
100
AcDbEntity
  8
0
100
AcDbDimension
  2
*D8
 10
15262.33880804019
 20
8972.054708104382
 30
0.0
 11
15237.33860815748
 21
8921.263835427042
 31
0.0
 70
   160
 71
     5
 42
50.00039976542393
  3
20
100
AcDbAlignedDimension
 13
15212.33840827477
 23
8572.053909980876
 33
0.0
 14
15262.33880804019
 24
8572.053909980876
 34
0.0
100
AcDbRotatedDimension
1001
ACAD
1000
DSTYLE
1002
{
1070
    41
1040
11.0
1070
   279
1070
     2
1070
   343
1005
2531F
1070
   342
1005
0
1070
   173
1070
     1
1070
   344
1005
2531F
1070
    75
1070
     1
1002
}
  0
LINE
  5
25466
330
1F
100
AcDbEntity
  8
D-STR-STR2
  6
Continuous
100
AcDbLine
 10
2462.621313619391
 20
8572.053909980876
 30
0.0
 11
2462.621313619391
 21
8505.386710247995
 31
0.0
  0
LINE
  5
25467
330
1F
100
AcDbEntity
  8
D-STR-STR2
  6
Continuous
100
AcDbLine
 10
2462.621313619391
 20
8505.386710247995
 30
0.0
 11
2479.288713552618
 21
8505.386710247995
 31
0.0
  0
LINE
  5
25468
330
1F
100
AcDbEntity
  8
D-STR-STR2
  6
Continuous
100
AcDbLine
 10
2479.288713552618
 20
8572.053909980876
 30
0.0
 11
2479.288713552618
 21
8505.386710247995
 31
0.0
  0
LINE
  5
2546C
330
1F
100
AcDbEntity
  8
D-STR-STR2
  6
Continuous
100
AcDbLine
 10
3062.621313619391
 20
8505.386710247995
 30
0.0
 11
3079.288713552618
 21
8505.386710247995
 31
0.0
  0
LINE
  5
2546D
330
1F
100
AcDbEntity
  8
D-STR-STR2
  6
Continuous
100
AcDbLine
 10
3079.288713552618
 20
8572.053909980876
 30
0.0
 11
3079.288713552618
 21
8505.386710247995
 31
0.0
  0
LINE
  5
2546E
330
1F
100
AcDbEntity
  8
D-STR-STR2
  6
Continuous
100
AcDbLine
 10
3062.621313619391
 20
8572.053909980876
 30
0.0
 11
3062.621313619391
 21
8505.386710247995
 31
0.0
  0
DIMENSION
  5
2546F
330
1F
100
AcDbEntity
  8
D-STR-DIM
100
AcDbDimension
  2
*D11
 10
2470.955013586005
 20
8745.150352417004
 30
0.0
 11
2220.955013586005
 21
8800.150352417004
 31
0.0
 70
    32
 71
     5
 42
500.0
  3
20
100
AcDbAlignedDimension
 13
1970.955013586004
 23
8572.053909980876
 33
0.0
 14
2470.955013586005
 24
8572.053909980876
 34
0.0
100
AcDbRotatedDimension
1001
ACAD
1000
DSTYLE
1002
{
1070
    41
1040
10.0
1070
   343
1005
2531F
1070
   342
1005
0
1070
   173
1070
     1
1070
   344
1005
2531F
1070
    75
1070
     1
1070
    76
1070
     1
1002
}
  0
DIMENSION
  5
2547C
330
1F
100
AcDbEntity
  8
D-STR-DIM
100
AcDbDimension
  2
*D12
 10
3070.955013586005
 20
8745.150352417004
 30
0.0
 11
2770.955013586005
 21
8800.150352417004
 31
0.0
 70
    32
 71
     5
 42
600.0
  3
20
100
AcDbAlignedDimension
 13
2470.955013586005
 23
8572.053909980876
 33
0.0
 14
3070.955013586005
 24
8572.053909980876
 34
0.0
100
AcDbRotatedDimension
1001
ACAD
1000
DSTYLE
1002
{
1070
    41
1040
10.0
1070
   343
1005
2531F
1070
   342
1005
0
1070
   173
1070
     1
1070
   344
1005
2531F
1070
    76
1070
     1
1002
}
  0
DIMENSION
  5
25489
330
1F
100
AcDbEntity
  8
D-STR-DIM
100
AcDbDimension
  2
*D13
 10
3570.95500608005
 20
8745.150352417004
 30
0.0
 11
3320.955009833028
 21
8800.150352417004
 31
0.0
 70
    32
 71
     5
 42
499.9999924940457
  3
20
100
AcDbAlignedDimension
 13
3070.955013586005
 23
8572.053909980876
 33
0.0
 14
3570.95500608005
 24
8572.053909980876
 34
0.0
100
AcDbRotatedDimension
1001
ACAD
1000
DSTYLE
1002
{
1070
    41
1040
10.0
1070
   343
1005
2531F
1070
   342
1005
0
1070
   173
1070
     1
1070
   344
1005
2531F
1070
    76
1070
     1
1002
}
  0
LINE
  5
254DB
330
1F
100
AcDbEntity
  8
D-STR-DIM
  6
Continuous
100
AcDbLine
 10
3310.955407299756
 20
8727.604755680092
 30
0.0
 11
3310.955407299756
 21
8602.054509840137
 31
0.0
  0
LINE
  5
254DC
330
1F
100
AcDbEntity
  8
D-STR-DIM
  6
Continuous
100
AcDbLine
 10
2830.955009551555
 20
8727.604755680092
 30
0.0
 11
2830.955009551555
 21
8602.054509840137
 31
0.0
  0
LINE
  5
254DD
330
1F
100
AcDbEntity
  8
D-STR-DIM
  6
Continuous
100
AcDbLine
 10
2230.955212366283
 20
8727.604755680092
 30
0.0
 11
2230.955212366283
 21
8602.054509840137
 31
0.0
  0
LINE
  5
254DF
330
1F
100
AcDbEntity
  8
D-STR-DIM
  6
Continuous
100
AcDbLine
 10
2960.95520894169
 20
8727.604755680092
 30
0.0
 11
2960.95520894169
 21
8602.054509840137
 31
0.0
  0
LINE
  5
254E0
330
1F
100
AcDbEntity
  8
D-STR-DIM
  6
Continuous
100
AcDbLine
 10
3422.455606776694
 20
8848.257106420554
 30
0.0
 11
3422.455606776694
 21
9002.054307963646
 31
0.0
  0
LINE
  5
254E1
330
1F
100
AcDbEntity
  8
D-STR-DIM
  6
Continuous
100
AcDbLine
 10
2119.456412889304
 20
8848.257106420554
 30
0.0
 11
2119.456412889304
 21
9002.054307963646
 31
0.0
  0
LINE
  5
25527
330
1F
100
AcDbEntity
  8
D-STR-STR2
  6
Continuous
100
AcDbLine
 10
7472.841565632335
 20
8565.386909966518
 30
0.0
 11
7489.508965565561
 21
8565.386909966518
 31
0.0
  0
LINE
  5
25528
330
1F
100
AcDbEntity
  8
D-STR-STR2
  6
Continuous
100
AcDbLine
 10
7472.841565632335
 20
8632.054109699401
 30
0.0
 11
7472.841565632335
 21
8565.386909966518
 31
0.0
  0
LINE
  5
25529
330
1F
100
AcDbEntity
  8
D-STR-STR2
  6
Continuous
100
AcDbLine
 10
7489.508965565561
 20
8632.054109699401
 30
0.0
 11
7489.508965565561
 21
8565.386909966518
 31
0.0
  0
LINE
  5
2552A
330
1F
100
AcDbEntity
  8
D-STR-STR2
  6
Continuous
100
AcDbLine
 10
8072.841565632336
 20
8632.054109699401
 30
0.0
 11
8072.841565632336
 21
8565.386909966518
 31
0.0
  0
LINE
  5
2552B
330
1F
100
AcDbEntity
  8
D-STR-STR2
  6
Continuous
100
AcDbLine
 10
8089.508965565562
 20
8632.054109699401
 30
0.0
 11
8089.508965565562
 21
8565.386909966518
 31
0.0
  0
LINE
  5
2552C
330
1F
100
AcDbEntity
  8
D-STR-STR2
  6
Continuous
100
AcDbLine
 10
8072.841565632336
 20
8565.386909966518
 30
0.0
 11
8089.508965565562
 21
8565.386909966518
 31
0.0
  0
DIMENSION
  5
2552D
330
1F
100
AcDbEntity
  8
D-STR-DIM
100
AcDbDimension
  2
*D15
 10
8081.175265598949
 20
8805.150552135527
 30
0.0
 11
7781.175265598948
 21
8860.150552135529
 31
0.0
 70
    32
 71
     5
 42
600.0
  3
20
100
AcDbAlignedDimension
 13
7481.175265598948
 23
8632.054109699401
 33
0.0
 14
8081.175265598949
 24
8632.054109699401
 34
0.0
100
AcDbRotatedDimension
1001
ACAD
1000
DSTYLE
1002
{
1070
    41
1040
10.0
1070
   343
1005
2531F
1070
   342
1005
0
1070
   173
1070
     1
1070
   344
1005
2531F
1070
    76
1070
     1
1002
}
  0
DIMENSION
  5
2552E
330
1F
100
AcDbEntity
  8
D-STR-DIM
100
AcDbDimension
  2
*D14
 10
7481.175265598948
 20
8805.150552135527
 30
0.0
 11
7231.175265598948
 21
8860.150552135529
 31
0.0
 70
    32
 71
     5
 42
500.0
  3
20
100
AcDbAlignedDimension
 13
6981.175265598948
 23
8632.054109699401
 33
0.0
 14
7481.175265598948
 24
8632.054109699401
 34
0.0
100
AcDbRotatedDimension
1001
ACAD
1000
DSTYLE
1002
{
1070
    41
1040
10.0
1070
   343
1005
2531F
1070
   342
1005
0
1070
   173
1070
     1
1070
   344
1005
2531F
1070
    75
1070
     1
1070
    76
1070
     1
1002
}
  0
DIMENSION
  5
2552F
330
1F
100
AcDbEntity
  8
D-STR-DIM
100
AcDbDimension
  2
*D16
 10
8581.175258092994
 20
8805.150552135527
 30
0.0
 11
8331.17526184597
 21
8860.150552135529
 31
0.0
 70
    32
 71
     5
 42
499.9999924940457
  3
20
100
AcDbAlignedDimension
 13
8081.175265598949
 23
8632.054109699401
 33
0.0
 14
8581.175258092994
 24
8632.054109699401
 34
0.0
100
AcDbRotatedDimension
1001
ACAD
1000
DSTYLE
1002
{
1070
    41
1040
10.0
1070
   343
1005
2531F
1070
   342
1005
0
1070
   173
1070
     1
1070
   344
1005
2531F
1070
    76
1070
     1
1002
}
  0
LINE
  5
25569
330
1F
100
AcDbEntity
  8
D-STR-DIM
  6
Continuous
100
AcDbLine
 10
7129.676304902343
 20
8906.415449483029
 30
0.0
 11
7129.676304902343
 21
9062.054707682174
 31
0.0
  0
LINE
  5
2556A
330
1F
100
AcDbEntity
  8
D-STR-DIM
  6
Continuous
100
AcDbLine
 10
7241.175364379261
 20
8775.708726867065
 30
0.0
 11
7241.175364379262
 21
8662.053709558666
 31
0.0
  0
LINE
  5
2556B
330
1F
100
AcDbEntity
  8
D-STR-DIM
  6
Continuous
100
AcDbLine
 10
7641.175362502773
 20
8775.708726867065
 30
0.0
 11
7641.175362502774
 21
8662.053709558666
 31
0.0
  0
LINE
  5
2556C
330
1F
100
AcDbEntity
  8
D-STR-DIM
  6
Continuous
100
AcDbLine
 10
7921.175281189208
 20
8775.708726867065
 30
0.0
 11
7921.175281189208
 21
8662.053709558666
 31
0.0
  0
LINE
  5
2556D
330
1F
100
AcDbEntity
  8
D-STR-DIM
  6
Continuous
100
AcDbLine
 10
8321.175279312717
 20
8775.708726867065
 30
0.0
 11
8321.175279312717
 21
8662.053709558666
 31
0.0
  0
LINE
  5
2556E
330
1F
100
AcDbEntity
  8
D-STR-DIM
  6
Continuous
100
AcDbLine
 10
8432.675478789654
 20
8906.415449483029
 30
0.0
 11
8432.675478789658
 21
9062.054707682174
 31
0.0
  0
LINE
  5
25571
330
1F
100
AcDbEntity
  8
D-STR-STR2
  6
Continuous
100
AcDbLine
 10
5037.622899193837
 20
8505.386710247995
 30
0.0
 11
5054.290299127064
 21
8505.386710247995
 31
0.0
  0
LINE
  5
25572
330
1F
100
AcDbEntity
  8
D-STR-STR2
  6
Continuous
100
AcDbLine
 10
5037.622899193837
 20
8572.053909980876
 30
0.0
 11
5037.622899193837
 21
8505.386710247995
 31
0.0
  0
LINE
  5
25573
330
1F
100
AcDbEntity
  8
D-STR-STR2
  6
Continuous
100
AcDbLine
 10
5054.290299127064
 20
8572.053909980876
 30
0.0
 11
5054.290299127064
 21
8505.386710247995
 31
0.0
  0
LINE
  5
25574
330
1F
100
AcDbEntity
  8
D-STR-STR2
  6
Continuous
100
AcDbLine
 10
10064.50957114005
 20
8632.054109699401
 30
0.0
 11
10064.50957114005
 21
8565.386909966518
 31
0.0
  0
LINE
  5
25575
330
1F
100
AcDbEntity
  8
D-STR-STR2
  6
Continuous
100
AcDbLine
 10
10047.84217120682
 20
8632.054109699401
 30
0.0
 11
10047.84217120682
 21
8565.386909966518
 31
0.0
  0
LINE
  5
25576
330
1F
100
AcDbEntity
  8
D-STR-STR2
  6
Continuous
100
AcDbLine
 10
10047.84217120682
 20
8565.386909966518
 30
0.0
 11
10064.50957114005
 21
8565.386909966518
 31
0.0
  0
LINE
  5
25577
330
1F
100
AcDbEntity
  8
D-STR-STR2
  6
Continuous
100
AcDbLine
 10
12670.67192254961
 20
8572.053909980876
 30
0.0
 11
12670.67192254961
 21
8505.386710247995
 31
0.0
  0
LINE
  5
25578
330
1F
100
AcDbEntity
  8
D-STR-STR2
  6
Continuous
100
AcDbLine
 10
12654.00452261638
 20
8572.053909980876
 30
0.0
 11
12654.00452261638
 21
8505.386710247995
 31
0.0
  0
LINE
  5
25579
330
1F
100
AcDbEntity
  8
D-STR-STR2
  6
Continuous
100
AcDbLine
 10
12654.00452261638
 20
8505.386710247995
 30
0.0
 11
12670.67192254961
 21
8505.386710247995
 31
0.0
  0
LINE
  5
2557A
330
1F
100
AcDbEntity
  8
D-STR-STR2
  6
Continuous
100
AcDbLine
 10
13254.00452261638
 20
8505.386710247995
 30
0.0
 11
13270.67192254961
 21
8505.386710247995
 31
0.0
  0
LINE
  5
2557B
330
1F
100
AcDbEntity
  8
D-STR-STR2
  6
Continuous
100
AcDbLine
 10
13254.00452261638
 20
8572.053909980876
 30
0.0
 11
13254.00452261638
 21
8505.386710247995
 31
0.0
  0
LINE
  5
2557C
330
1F
100
AcDbEntity
  8
D-STR-STR2
  6
Continuous
100
AcDbLine
 10
13270.67192254961
 20
8572.053909980876
 30
0.0
 11
13270.67192254961
 21
8505.386710247995
 31
0.0
  0
DIMENSION
  5
2557D
330
1F
100
AcDbEntity
  8
D-STR-DIM
100
AcDbDimension
  2
*D17
 10
13262.338222583
 20
8745.150352417004
 30
0.0
 11
12962.338222583
 21
8800.150352417004
 31
0.0
 70
    32
 71
     5
 42
600.0
  3
20
100
AcDbAlignedDimension
 13
12662.338222583
 23
8572.053909980876
 33
0.0
 14
13262.338222583
 24
8572.053909980876
 34
0.0
100
AcDbRotatedDimension
1001
ACAD
1000
DSTYLE
1002
{
1070
    41
1040
10.0
1070
   343
1005
2531F
1070
   342
1005
0
1070
   173
1070
     1
1070
   344
1005
2531F
1070
    76
1070
     1
1002
}
  0
DIMENSION
  5
2557E
330
1F
100
AcDbEntity
  8
D-STR-DIM
100
AcDbDimension
  2
*D18
 10
12662.338222583
 20
8745.150352417004
 30
0.0
 11
12412.338222583
 21
8800.150352417004
 31
0.0
 70
    32
 71
     5
 42
500.0
  3
20
100
AcDbAlignedDimension
 13
12162.338222583
 23
8572.053909980876
 33
0.0
 14
12662.338222583
 24
8572.053909980876
 34
0.0
100
AcDbRotatedDimension
1001
ACAD
1000
DSTYLE
1002
{
1070
    41
1040
10.0
1070
   343
1005
2531F
1070
   342
1005
0
1070
   173
1070
     1
1070
   344
1005
2531F
1070
    75
1070
     1
1070
    76
1070
     1
1002
}
  0
DIMENSION
  5
2557F
330
1F
100
AcDbEntity
  8
D-STR-DIM
100
AcDbDimension
  2
*D19
 10
13762.33821507704
 20
8745.150352417004
 30
0.0
 11
13512.33821883002
 21
8800.150352417004
 31
0.0
 70
    32
 71
     5
 42
499.9999924940457
  3
20
100
AcDbAlignedDimension
 13
13262.338222583
 23
8572.053909980876
 33
0.0
 14
13762.33821507704
 24
8572.053909980876
 34
0.0
100
AcDbRotatedDimension
1001
ACAD
1000
DSTYLE
1002
{
1070
    41
1040
10.0
1070
   343
1005
2531F
1070
   342
1005
0
1070
   173
1070
     1
1070
   344
1005
2531F
1070
    76
1070
     1
1002
}
  0
LINE
  5
255B7
330
1F
100
AcDbEntity
  8
D-STR-STR2
  6
Continuous
100
AcDbLine
 10
15229.00510819086
 20
8505.386710247995
 30
0.0
 11
15245.67250812409
 21
8505.386710247995
 31
0.0
  0
LINE
  5
255B8
330
1F
100
AcDbEntity
  8
D-STR-STR2
  6
Continuous
100
AcDbLine
 10
15229.00510819086
 20
8572.053909980876
 30
0.0
 11
15229.00510819086
 21
8505.386710247995
 31
0.0
  0
LINE
  5
255B9
330
1F
100
AcDbEntity
  8
D-STR-STR2
  6
Continuous
100
AcDbLine
 10
15245.67250812409
 20
8572.053909980876
 30
0.0
 11
15245.67250812409
 21
8505.386710247995
 31
0.0
  0
LINE
  5
255BC
330
1F
100
AcDbEntity
  8
D-STR-DIM
  6
Continuous
100
AcDbLine
 10
12310.83922188638
 20
8868.057600818991
 30
0.0
 11
12310.83922188638
 21
9002.054307963646
 31
0.0
  0
LINE
  5
255BD
330
1F
100
AcDbEntity
  8
D-STR-DIM
  6
Continuous
100
AcDbLine
 10
12462.33822117563
 20
8722.269320389772
 30
0.0
 11
12462.33822117563
 21
8602.054509840137
 31
0.0
  0
LINE
  5
255BE
330
1F
100
AcDbEntity
  8
D-STR-DIM
  6
Continuous
100
AcDbLine
 10
13462.3384164844
 20
8722.269320389772
 30
0.0
 11
13462.3384164844
 21
8602.054509840137
 31
0.0
  0
LINE
  5
255BF
330
1F
100
AcDbEntity
  8
D-STR-DIM
  6
Continuous
100
AcDbLine
 10
13613.8384157737
 20
8868.057600818991
 30
0.0
 11
13613.8384157737
 21
9002.054307963646
 31
0.0
  0
LEADER
  5
255C0
330
1F
100
AcDbEntity
  8
D-STR-HTXT
100
AcDbLeader
  3
20
 40
70.0
 41
644.0
 76
     3
 10
3079.288713552618
 20
8538.720310114435
 30
0.0
 10
3775.66105213164
 20
8803.50870320372
 30
0.0
 10
4474.183589800341
 20
8803.50870320372
 30
0.0
213
0.0
223
-35.0
233
0.0
1001
ACAD
1000
DSTYLE
1002
{
1070
    41
1040
30.0
1070
   147
1040
20.0
1070
    77
1070
     0
1002
}
  0
TEXT
  5
255C2
330
1F
100
AcDbEntity
  8
D-STR-HTXT
100
AcDbText
 10
3815.66105213164
 20
8807.414769034272
 30
0.0
 40
70.0
  1
吊り用インサート
100
AcDbText
  0
TEXT
  5
25608
330
1F
100
AcDbEntity
  8
D-STR-HTXT
100
AcDbText
 10
4016.810435831474
 20
8728.271440406393
 30
0.0
 40
70.0
  1
Ｍ20
100
AcDbText
  0
LEADER
  5
25609
330
1F
100
AcDbEntity
  8
D-STR-HTXT
100
AcDbLeader
  3
20
 40
70.0
 41
644.0
 76
     3
 10
8089.508965565562
 20
8598.720509832959
 30
0.0
 10
8785.881304144583
 20
8863.508902922244
 30
0.0
 10
9484.403841813284
 20
8863.508902922244
 30
0.0
213
0.0
223
-35.0
233
0.0
1001
ACAD
1000
DSTYLE
1002
{
1070
    41
1040
30.0
1070
   147
1040
20.0
1070
    77
1070
     0
1002
}
  0
TEXT
  5
2560A
330
1F
100
AcDbEntity
  8
D-STR-HTXT
100
AcDbText
 10
9027.030687844417
 20
8788.271640124916
 30
0.0
 40
70.0
  1
Ｍ20
100
AcDbText
  0
TEXT
  5
2560B
330
1F
100
AcDbEntity
  8
D-STR-HTXT
100
AcDbText
 10
8825.881304144584
 20
8867.414968752797
 30
0.0
 40
70.0
  1
吊り用インサート
100
AcDbText
  0
LEADER
  5
2560C
330
1F
100
AcDbEntity
  8
D-STR-HTXT
100
AcDbLeader
  3
20
 40
70.0
 41
644.0
 76
     3
 10
13270.67192254961
 20
8538.720310114435
 30
0.0
 10
13967.04426112863
 20
8803.50870320372
 30
0.0
 10
14665.56679879733
 20
8803.50870320372
 30
0.0
213
0.0
223
-35.0
233
0.0
1001
ACAD
1000
DSTYLE
1002
{
1070
    41
1040
30.0
1070
   147
1040
20.0
1070
    77
1070
     0
1002
}
  0
TEXT
  5
2560D
330
1F
100
AcDbEntity
  8
D-STR-HTXT
100
AcDbText
 10
14007.04426112863
 20
8807.414769034272
 30
0.0
 40
70.0
  1
吊り用インサート
100
AcDbText
  0
TEXT
  5
2560E
330
1F
100
AcDbEntity
  8
D-STR-HTXT
100
AcDbText
 10
14208.19364482847
 20
8728.271440406393
 30
0.0
 40
70.0
  1
Ｍ20
100
AcDbText
  0
TEXT
  5
2560F
330
1F
100
AcDbEntity
  8
D-MTR-MTXT
100
AcDbText
 10
8475.348782475499
 20
3475.254903630578
 30
0.0
 40
69.99999999999999
  1
×
100
AcDbText
  0
TEXT
  5
25610
330
1F
100
AcDbEntity
  8
D-MTR-MTXT
100
AcDbText
 10
8625.815579962765
 20
3475.254903630578
 30
0.0
 40
69.99999999999999
  1
150
100
AcDbText
  0
VIEWPORT
  5
2E
102
{ACAD_XDICTIONARY
360
2562E
102
}
330
1B
100
AcDbEntity
 67
     1
  8
0
100
AcDbViewport
 10
473.1810839499198
 20
473.2126938647103
 30
0.0
 40
2443.154659054329
 41
1598.230339464706
 68
     1
 69
     1
 12
473.1810839499198
 22
473.2126938647103
 13
0.0
 23
0.0
 14
10.0
 24
10.0
 15
10.0
 25
10.0
 16
0.0
 26
0.0
 36
1.0
 17
0.0
 27
0.0
 37
0.0
 42
50.0
 43
0.0
 44
0.0
 45
1598.230339464706
 50
0.0
 51
0.0
 72
   100
 90
    32800
  1

281
     0
 71
     1
 74
     0
110
0.0
120
0.0
130
0.0
111
1.0
121
0.0
131
0.0
112
0.0
122
1.0
132
0.0
 79
     0
146
0.0
  0
ENDSEC
  0
SECTION
  2
OBJECTS
  0
DICTIONARY
  5
C
330
0
100
AcDbDictionary
281
     1
  3
ACAD_COLOR
350
25624
  3
ACAD_GROUP
350
D
  3
ACAD_LAYOUT
350
1A
  3
ACAD_MATERIAL
350
25623
  3
ACAD_MLINESTYLE
350
17
  3
ACAD_PLOTSETTINGS
350
19
  3
ACAD_PLOTSTYLENAME
350
7E80
  3
ACAD_TABLESTYLE
350
25625
  3
AcadDim
350
8E27
  3
ACDBHEADERROUNDTRIPXREC
350
2562D
  3
AcDbVariableDictionary
350
7E86
1001
ACAD
1000
TREAT_AS_HARD
1070
     0
  0
DICTIONARY
  5
7BCB
330
1F
100
AcDbDictionary
280
     1
281
     1
  3
ACAD_LAYOUTSELFREF
360
7DA3
1001
ACAD
1000
TREAT_AS_HARD
1070
     1
  0
DICTIONARY
  5
7BCD
330
1B
100
AcDbDictionary
280
     1
281
     1
  3
ACAD_LAYOUTSELFREF
360
7DA2
1001
ACAD
1000
TREAT_AS_HARD
1070
     1
  0
DICTIONARY
  5
2562E
330
2E
100
AcDbDictionary
280
     1
281
     1
  3
ACAD_XREC_ROUNDTRIP
360
2562F
  0
DICTIONARY
  5
25624
102
{ACAD_REACTORS
330
C
102
}
330
C
100
AcDbDictionary
281
     1
  0
DICTIONARY
  5
D
102
{ACAD_REACTORS
330
C
102
}
330
C
100
AcDbDictionary
281
     1
  3
*A1
350
252C8
1001
ACAD
1000
TREAT_AS_HARD
1070
     0
  0
DICTIONARY
  5
1A
102
{ACAD_REACTORS
330
C
102
}
330
C
100
AcDbDictionary
281
     1
  3
Model
350
7E82
  3
ﾚｲｱｳﾄ1
350
7E83
1001
ACAD
1000
TREAT_AS_HARD
1070
     0
  0
DICTIONARY
  5
25623
102
{ACAD_REACTORS
330
C
102
}
330
C
100
AcDbDictionary
281
     1
  0
DICTIONARY
  5
17
102
{ACAD_REACTORS
330
C
102
}
330
C
100
AcDbDictionary
281
     1
  3
STANDARD
350
18
1001
ACAD
1000
TREAT_AS_HARD
1070
     0
  0
DICTIONARY
  5
19
102
{ACAD_REACTORS
330
C
102
}
330
C
100
AcDbDictionary
281
     1
1001
ACAD
1000
TREAT_AS_HARD
1070
     0
  0
ACDBDICTIONARYWDFLT
  5
7E80
102
{ACAD_REACTORS
330
C
102
}
330
C
100
AcDbDictionary
281
     1
  3
Normal
350
7E81
100
AcDbDictionaryWithDefault
340
7E81
  0
DICTIONARY
  5
25625
102
{ACAD_REACTORS
330
C
102
}
330
C
100
AcDbDictionary
281
     1
  3
Standard
350
25626
  0
XRECORD
  5
8E27
102
{ACAD_REACTORS
330
C
102
}
330
C
100
AcDbXrecord
280
     1
 90
   990106
  3

 60
     0
 61
     0
 62
     1
 63
     3
 64
     0
 65
     0
 66
     0
 67
     3
 68
     1
 69
     0
 70
     0
 71
     0
 72
     0
 40
0.0
170
     0
340
0
  0
DICTIONARY
  5
2562D
102
{ACAD_REACTORS
330
C
102
}
330
C
100
AcDbDictionary
281
     1
  0
DICTIONARY
  5
7E86
102
{ACAD_REACTORS
330
C
102
}
330
C
100
AcDbDictionary
281
     1
  3
CTABLESTYLE
350
2562A
  3
DIMASSOC
350
7E87
  3
PROJECTNAME
350
2562B
  3
SORTENTS
350
B6AF
  0
XRECORD
  5
7DA3
102
{ACAD_REACTORS
330
7BCB
102
}
330
7BCB
100
AcDbXrecord
280
     1
340
1F
  0
XRECORD
  5
7DA2
102
{ACAD_REACTORS
330
7BCD
102
}
330
7BCD
100
AcDbXrecord
280
     1
340
1B
  0
XRECORD
  5
2562F
102
{ACAD_REACTORS
330
2562E
102
}
330
2562E
100
AcDbXrecord
280
     1
102
SHADEPLOT
 70
     0
  0
GROUP
  5
252C8
102
{ACAD_REACTORS
330
D
102
}
330
D
100
AcDbGroup
300

 70
     1
 71
     1
  0
LAYOUT
  5
7E82
102
{ACAD_XDICTIONARY
360
25630
102
}
102
{ACAD_REACTORS
330
1A
102
}
330
1A
100
AcDbPlotSettings
  1

  2
RICOH IPSiO NX730N RPCS★
  4
A3
  6

 40
5.873749732971191
 41
5.873747825622558
 42
5.873748779296875
 43
5.873748779296875
 44
296.9259948730469
 45
419.9466552734374
 46
-5.91
 47
-6.15
 48
0.0
 49
0.0
140
16819.99993279995
141
11879.99995240002
142
1.0
143
40.0
 70
 11948
 72
     1
 73
     1
 74
     4
  7
canon国土交通省.ctb
 75
     0
147
0.025
148
0.0
149
0.0
100
AcDbLayout
  1
Model
 70
     1
 71
     0
 10
0.0
 20
0.0
 11
12.0
 21
9.0
 12
0.0
 22
0.0
 32
0.0
 14
0.0
 24
0.0
 34
0.0
 15
0.0
 25
0.0
 35
0.0
146
0.0
 13
0.0
 23
0.0
 33
0.0
 16
1.0
 26
0.0
 36
0.0
 17
0.0
 27
1.0
 37
0.0
 76
     0
330
1F
  0
LAYOUT
  5
7E83
102
{ACAD_XDICTIONARY
360
25632
102
}
102
{ACAD_REACTORS
330
1A
102
}
330
1A
100
AcDbPlotSettings
  1

  2
Canon LASER SHOT LBP-740
  4

  6

 40
0.0
 41
0.0
 42
0.0
 43
0.0
 44
0.0
 45
0.0
 46
0.0
 47
0.0
 48
0.0
 49
0.0
140
0.0
141
0.0
142
1.0
143
0.000000000000000E+99
 70
   688
 72
     0
 73
     1
 74
     1
  7
canon国土交通省.ctb
 75
     0
147
0.0
148
182.4834335403793
149
501.366229236586
100
AcDbLayout
  1
ﾚｲｱｳﾄ1
 70
     1
 71
     1
 10
-7.184387147259029
 20
-19.73882792270024
 11
-7.184387147259029
 21
-19.73882792270024
 12
0.0
 22
0.0
 32
0.0
 14
-7.18438714725903
 24
-19.73882792270024
 34
-0.0015258207003583
 15
833.8481947040165
 25
574.2966304217307
 35
0.0000000349246037
146
0.0
 13
0.0
 23
0.0
 33
0.0
 16
1.0
 26
0.0
 36
0.0
 17
0.0
 27
1.0
 37
0.0
 76
     0
330
1B
331
2E
  0
MLINESTYLE
  5
18
102
{ACAD_REACTORS
330
17
102
}
330
17
100
AcDbMlineStyle
  2
STANDARD
 70
     0
  3

 62
   256
 51
90.0
 52
90.0
 71
     2
 49
0.5
 62
   256
  6
BYLAYER
 49
-0.5
 62
   256
  6
BYLAYER
  0
ACDBPLACEHOLDER
  5
7E81
102
{ACAD_REACTORS
330
7E80
102
}
330
7E80
  0
TABLESTYLE
  5
25626
102
{ACAD_REACTORS
330
25625
102
}
330
25625
100
AcDbTableStyle
  3
Standard
 70
     0
 71
     0
 40
0.06
 41
0.06
280
     0
281
     0
  7
STANDARD
140
0.18
170
     2
 62
     0
 63
     7
283
     0
274
    -2
284
     1
 64
     0
275
    -2
285
     1
 65
     0
276
    -2
286
     1
 66
     0
277
    -2
287
     1
 67
     0
278
    -2
288
     1
 68
     0
279
    -2
289
     1
 69
     0
  7
STANDARD
140
0.25
170
     5
 62
     0
 63
     7
283
     0
274
    -2
284
     1
 64
     0
275
    -2
285
     1
 65
     0
276
    -2
286
     1
 66
     0
277
    -2
287
     1
 67
     0
278
    -2
288
     1
 68
     0
279
    -2
289
     1
 69
     0
  7
STANDARD
140
0.18
170
     5
 62
     0
 63
     7
283
     0
274
    -2
284
     1
 64
     0
275
    -2
285
     1
 65
     0
276
    -2
286
     1
 66
     0
277
    -2
287
     1
 67
     0
278
    -2
288
     1
 68
     0
279
    -2
289
     1
 69
     0
  0
DICTIONARYVAR
  5
2562A
102
{ACAD_REACTORS
330
7E86
102
}
330
7E86
100
DictionaryVariables
280
     0
  1
STANDARD
  0
DICTIONARYVAR
  5
7E87
102
{ACAD_REACTORS
330
7E86
102
}
330
7E86
100
DictionaryVariables
280
     0
  1
1
  0
DICTIONARYVAR
  5
2562B
102
{ACAD_REACTORS
330
7E86
102
}
330
7E86
100
DictionaryVariables
280
     0
  1

  0
DICTIONARYVAR
  5
B6AF
102
{ACAD_REACTORS
330
7E86
102
}
330
7E86
100
DictionaryVariables
280
     0
  1
112
  0
DICTIONARY
  5
25630
330
7E82
100
AcDbDictionary
280
     1
281
     1
  3
ACAD_XREC_ROUNDTRIP
360
25631
  0
DICTIONARY
  5
25632
330
7E83
100
AcDbDictionary
280
     1
281
     1
  3
ACAD_XREC_ROUNDTRIP
360
25633
  0
XRECORD
  5
25631
102
{ACAD_REACTORS
330
25630
102
}
330
25630
100
AcDbXrecord
280
     1
102
SHADEPLOT
 70
     2
102
SHADEPLOTRESLEVEL
 70
     2
102
SHADEPLOTCUSTOMDPI
 70
   300
  0
XRECORD
  5
25633
102
{ACAD_REACTORS
330
25632
102
}
330
25632
100
AcDbXrecord
280
     1
102
SHADEPLOT
 70
     0
102
SHADEPLOTRESLEVEL
 70
     2
102
SHADEPLOTCUSTOMDPI
 70
   300
  0
ENDSEC
  0
EOF
