  0
SECTION
  2
HEADER
  9
$ACADVER
  1
AC1015
  9
$ACADMAINTVER
 70
    20
  9
$DWGCODEPAGE
  3
ANSI_932
  9
$INSBASE
 10
0.0
 20
0.0
 30
0.0
  9
$EXTMIN
 10
0.0
 20
0.0
 30
0.0
  9
$EXTMAX
 10
1681.999993260642
 20
1187.999995240002
 30
0.0
  9
$LIMMIN
 10
0.0
 20
0.0
  9
$LIMMAX
 10
12.0
 20
9.0
  9
$ORTHOMODE
 70
     0
  9
$REGENMODE
 70
     1
  9
$FILLMODE
 70
     1
  9
$QTEXTMODE
 70
     0
  9
$MIRRTEXT
 70
     1
  9
$LTSCALE
 40
10.0
  9
$ATTMODE
 70
     1
  9
$TEXTSIZE
 40
5.0
  9
$TRACEWID
 40
0.05
  9
$TEXTSTYLE
  7
STANDARD
  9
$CLAYER
  8
D-MTR-FRAM
  9
$CELTYPE
  6
CONTINUOUS
  9
$CECOLOR
 62
   256
  9
$CELTSCALE
 40
1.0
  9
$DISPSILH
 70
     0
  9
$DIMSCALE
 40
1.0
  9
$DIMASZ
 40
1.0
  9
$DIMEXO
 40
2.0
  9
$DIMDLI
 40
0.0
  9
$DIMRND
 40
0.0
  9
$DIMDLE
 40
0.0
  9
$DIMEXE
 40
2.0
  9
$DIMTP
 40
0.0
  9
$DIMTM
 40
0.0
  9
$DIMTXT
 40
7.0
  9
$DIMCEN
 40
2.0
  9
$DIMTSZ
 40
0.0
  9
$DIMTOL
 70
     0
  9
$DIMLIM
 70
     0
  9
$DIMTIH
 70
     0
  9
$DIMTOH
 70
     0
  9
$DIMSE1
 70
     0
  9
$DIMSE2
 70
     0
  9
$DIMTAD
 70
     1
  9
$DIMZIN
 70
     8
  9
$DIMBLK
  1
Origin
  9
$DIMASO
 70
     1
  9
$DIMSHO
 70
     1
  9
$DIMPOST
  1

  9
$DIMAPOST
  1

  9
$DIMALT
 70
     0
  9
$DIMALTD
 70
     3
  9
$DIMALTF
 40
0.03937007874016
  9
$DIMLFAC
 40
1.0
  9
$DIMTOFL
 70
     1
  9
$DIMTVP
 40
0.0
  9
$DIMTIX
 70
     1
  9
$DIMSOXD
 70
     0
  9
$DIMSAH
 70
     0
  9
$DIMBLK1
  1

  9
$DIMBLK2
  1

  9
$DIMSTYLE
  2
2
  9
$DIMCLRD
 70
   256
  9
$DIMCLRE
 70
   256
  9
$DIMCLRT
 70
   256
  9
$DIMTFAC
 40
1.0
  9
$DIMGAP
 40
2.0
  9
$DIMJUST
 70
     0
  9
$DIMSD1
 70
     0
  9
$DIMSD2
 70
     0
  9
$DIMTOLJ
 70
     1
  9
$DIMTZIN
 70
     8
  9
$DIMALTZ
 70
     0
  9
$DIMALTTZ
 70
     0
  9
$DIMUPT
 70
     0
  9
$DIMDEC
 70
     0
  9
$DIMTDEC
 70
     0
  9
$DIMALTU
 70
     2
  9
$DIMALTTD
 70
     3
  9
$DIMTXSTY
  7
STANDARD
  9
$DIMAUNIT
 70
     1
  9
$DIMADEC
 70
     4
  9
$DIMALTRND
 40
0.0
  9
$DIMAZIN
 70
     0
  9
$DIMDSEP
 70
    46
  9
$DIMATFIT
 70
     3
  9
$DIMFRAC
 70
     0
  9
$DIMLDRBLK
  1
Origin
  9
$DIMLUNIT
 70
     2
  9
$DIMLWD
 70
    -2
  9
$DIMLWE
 70
    -2
  9
$DIMTMOVE
 70
     1
  9
$LUNITS
 70
     2
  9
$LUPREC
 70
     4
  9
$SKETCHINC
 40
0.1
  9
$FILLETRAD
 40
0.0
  9
$AUNITS
 70
     0
  9
$AUPREC
 70
     0
  9
$MENU
  1
.
  9
$ELEVATION
 40
0.0
  9
$PELEVATION
 40
0.0
  9
$THICKNESS
 40
0.0
  9
$LIMCHECK
 70
     0
  9
$CHAMFERA
 40
0.0
  9
$CHAMFERB
 40
0.0
  9
$CHAMFERC
 40
0.0
  9
$CHAMFERD
 40
0.0
  9
$SKPOLY
 70
     0
  9
$TDCREATE
 40
2452130.357449167
  9
$TDUCREATE
 40
2452129.982449167
  9
$TDUPDATE
 40
2454744.616626157
  9
$TDUUPDATE
 40
2454744.241626158
  9
$TDINDWG
 40
0.4059792130
  9
$TDUSRTIMER
 40
0.4059792130
  9
$USRTIMER
 70
     1
  9
$ANGBASE
 50
0.0
  9
$ANGDIR
 70
     0
  9
$PDMODE
 70
     2
  9
$PDSIZE
 40
0.0
  9
$PLINEWID
 40
0.0
  9
$SPLFRAME
 70
     0
  9
$SPLINETYPE
 70
     6
  9
$SPLINESEGS
 70
     8
  9
$HANDSEED
  5
8380
  9
$SURFTAB1
 70
     6
  9
$SURFTAB2
 70
     6
  9
$SURFTYPE
 70
     6
  9
$SURFU
 70
     6
  9
$SURFV
 70
     6
  9
$UCSBASE
  2

  9
$UCSNAME
  2

  9
$UCSORG
 10
0.0
 20
0.0
 30
0.0
  9
$UCSXDIR
 10
1.0
 20
0.0
 30
0.0
  9
$UCSYDIR
 10
0.0
 20
1.0
 30
0.0
  9
$UCSORTHOREF
  2

  9
$UCSORTHOVIEW
 70
     0
  9
$UCSORGTOP
 10
0.0
 20
0.0
 30
0.0
  9
$UCSORGBOTTOM
 10
0.0
 20
0.0
 30
0.0
  9
$UCSORGLEFT
 10
0.0
 20
0.0
 30
0.0
  9
$UCSORGRIGHT
 10
0.0
 20
0.0
 30
0.0
  9
$UCSORGFRONT
 10
0.0
 20
0.0
 30
0.0
  9
$UCSORGBACK
 10
0.0
 20
0.0
 30
0.0
  9
$PUCSBASE
  2

  9
$PUCSNAME
  2

  9
$PUCSORG
 10
0.0
 20
0.0
 30
0.0
  9
$PUCSXDIR
 10
1.0
 20
0.0
 30
0.0
  9
$PUCSYDIR
 10
0.0
 20
1.0
 30
0.0
  9
$PUCSORTHOREF
  2

  9
$PUCSORTHOVIEW
 70
     0
  9
$PUCSORGTOP
 10
0.0
 20
0.0
 30
0.0
  9
$PUCSORGBOTTOM
 10
0.0
 20
0.0
 30
0.0
  9
$PUCSORGLEFT
 10
0.0
 20
0.0
 30
0.0
  9
$PUCSORGRIGHT
 10
0.0
 20
0.0
 30
0.0
  9
$PUCSORGFRONT
 10
0.0
 20
0.0
 30
0.0
  9
$PUCSORGBACK
 10
0.0
 20
0.0
 30
0.0
  9
$USERI1
 70
     0
  9
$USERI2
 70
     0
  9
$USERI3
 70
     0
  9
$USERI4
 70
     0
  9
$USERI5
 70
     0
  9
$USERR1
 40
0.5
  9
$USERR2
 40
0.0
  9
$USERR3
 40
0.0
  9
$USERR4
 40
0.0
  9
$USERR5
 40
0.0
  9
$WORLDVIEW
 70
     1
  9
$SHADEDGE
 70
     3
  9
$SHADEDIF
 70
    70
  9
$TILEMODE
 70
     1
  9
$MAXACTVP
 70
    48
  9
$PINSBASE
 10
0.0
 20
0.0
 30
0.0
  9
$PLIMCHECK
 70
     0
  9
$PEXTMIN
 10
1.000000000000000E+20
 20
1.000000000000000E+20
 30
1.000000000000000E+20
  9
$PEXTMAX
 10
-1.000000000000000E+20
 20
-1.000000000000000E+20
 30
-1.000000000000000E+20
  9
$PLIMMIN
 10
0.0
 20
0.0
  9
$PLIMMAX
 10
12.0
 20
9.0
  9
$UNITMODE
 70
     0
  9
$VISRETAIN
 70
     1
  9
$PLINEGEN
 70
     0
  9
$PSLTSCALE
 70
     1
  9
$TREEDEPTH
 70
  3020
  9
$CMLSTYLE
  2

  9
$CMLJUST
 70
     0
  9
$CMLSCALE
 40
1.0
  9
$PROXYGRAPHICS
 70
     1
  9
$MEASUREMENT
 70
     0
  9
$CELWEIGHT
370
    -1
  9
$ENDCAPS
280
     0
  9
$JOINSTYLE
280
     0
  9
$LWDISPLAY
290
     0
  9
$INSUNITS
 70
     0
  9
$HYPERLINKBASE
  1

  9
$STYLESHEET
  1
canon国土交通省.ctb
  9
$XEDIT
290
     1
  9
$CEPSNTYPE
380
     0
  9
$PSTYLEMODE
290
     1
  9
$FINGERPRINTGUID
  2
{C6E6A0E0-8B8C-11D5-9A72-000629A6C5B5}
  9
$VERSIONGUID
  2
{319302CC-8F02-11D6-9BFF-000629A6C5B5}
  9
$EXTNAMES
290
     1
  9
$PSVPSCALE
 40
0.0
  9
$OLESTARTUP
290
     0
  0
ENDSEC
  0
SECTION
  2
CLASSES
  0
CLASS
  1
ACDBDICTIONARYWDFLT
  2
AcDbDictionaryWithDefault
  3
ObjectDBX Classes
 90
        0
280
     0
281
     0
  0
CLASS
  1
ACDBPLACEHOLDER
  2
AcDbPlaceHolder
  3
ObjectDBX Classes
 90
        0
280
     0
281
     0
  0
CLASS
  1
LAYOUT
  2
AcDbLayout
  3
ObjectDBX Classes
 90
        0
280
     0
281
     0
  0
CLASS
  1
DICTIONARYVAR
  2
AcDbDictionaryVar
  3
ObjectDBX Classes
 90
        0
280
     0
281
     0
  0
CLASS
  1
TABLESTYLE
  2
AcDbTableStyle
  3
ObjectDBX Classes
 90
     2047
280
     0
281
     0
  0
ENDSEC
  0
SECTION
  2
TABLES
  0
TABLE
  2
VPORT
  5
44
330
0
100
AcDbSymbolTable
 70
     2
  0
VPORT
  5
837A
330
44
100
AcDbSymbolTableRecord
100
AcDbViewportTableRecord
  2
*Active
 70
     0
 10
0.0
 20
0.0
 11
1.0
 21
1.0
 12
841.0000005465331
 22
600.8877578406498
 13
0.0
 23
0.0
 14
1.0
 24
1.0
 15
0.0
 25
0.0
 16
0.0
 26
0.0
 36
1.0
 17
0.0
 27
0.0
 37
0.0
 40
1213.788447100646
 41
1.786538461538461
 42
50.0
 43
0.0
 44
0.0
 50
0.0
 51
0.0
 71
     0
 72
   100
 73
     1
 74
     3
 75
     0
 76
     0
 77
     0
 78
     0
281
     0
 65
     1
110
0.0
120
0.0
130
0.0
111
1.0
121
0.0
131
0.0
112
0.0
122
1.0
132
0.0
 79
     0
146
0.0
  0
ENDTAB
  0
TABLE
  2
LTYPE
  5
1E
330
0
100
AcDbSymbolTable
 70
     5
  0
LTYPE
  5
1F
330
1E
100
AcDbSymbolTableRecord
100
AcDbLinetypeTableRecord
  2
BYBLOCK
 70
     0
  3

 72
    65
 73
     0
 40
0.0
  0
LTYPE
  5
20
330
1E
100
AcDbSymbolTableRecord
100
AcDbLinetypeTableRecord
  2
BYLAYER
 70
     0
  3

 72
    65
 73
     0
 40
0.0
  0
LTYPE
  5
21
330
1E
100
AcDbSymbolTableRecord
100
AcDbLinetypeTableRecord
  2
CONTINUOUS
 70
     0
  3
Solid line
 72
    65
 73
     0
 40
0.0
  0
LTYPE
  5
25
330
1E
100
AcDbSymbolTableRecord
100
AcDbLinetypeTableRecord
  2
CENTER
 70
     0
  3
____ _ ____ _ ____ _ ____ _ ____ _ ____ _ ____
 72
    65
 73
     4
 40
2.0
 49
1.25
 74
     0
 49
-0.25
 74
     0
 49
0.25
 74
     0
 49
-0.25
 74
     0
  0
LTYPE
  5
73E1
330
1E
100
AcDbSymbolTableRecord
100
AcDbLinetypeTableRecord
  2
HIDDEN
 70
     0
  3
_ _ _ _ _ _ _ _ _ _ _ _ _ _ 
 72
    65
 73
     2
 40
9.524999999999998
 49
6.349999999999999
 74
     0
 49
-3.174999999999999
 74
     0
  0
LTYPE
  5
8364
330
1E
100
AcDbSymbolTableRecord
100
AcDbLinetypeTableRecord
  2
DASHDOT
 70
     0
  3
Dash dot __ . __ . __ . __ . __ . __ . __ . __
 72
    65
 73
     4
 40
1.0
 49
0.5
 74
     0
 49
-0.25
 74
     0
 49
0.0
 74
     0
 49
-0.25
 74
     0
  0
LTYPE
  5
8365
330
1E
100
AcDbSymbolTableRecord
100
AcDbLinetypeTableRecord
  2
DASHED
 70
     0
  3
Dashed __ __ __ __ __ __ __ __ __ __ __ __ __ _
 72
    65
 73
     2
 40
0.75
 49
0.5
 74
     0
 49
-0.25
 74
     0
  0
ENDTAB
  0
TABLE
  2
LAYER
  5
2D
330
0
100
AcDbSymbolTable
 70
    14
  0
LAYER
  5
2E
330
2D
100
AcDbSymbolTableRecord
100
AcDbLayerTableRecord
  2
0
 70
     0
 62
     7
  6
CONTINUOUS
370
    13
390
281A
  0
LAYER
  5
2F18
330
2D
100
AcDbSymbolTableRecord
100
AcDbLayerTableRecord
  2
D-STR-DIM
 70
     0
 62
     7
  6
CONTINUOUS
370
    13
390
281A
  0
LAYER
  5
2F19
330
2D
100
AcDbSymbolTableRecord
100
AcDbLayerTableRecord
  2
D-TTL-TXT
 70
     0
 62
     7
  6
CONTINUOUS
370
    13
390
281A
  0
LAYER
  5
2F1A
330
2D
100
AcDbSymbolTableRecord
100
AcDbLayerTableRecord
  2
DEFPOINTS
 70
     0
 62
     7
  6
CONTINUOUS
290
     0
370
    13
390
281A
  0
LAYER
  5
2F1B
330
2D
100
AcDbSymbolTableRecord
100
AcDbLayerTableRecord
  2
D-STR
 70
     0
 62
     1
  6
CONTINUOUS
370
    18
390
281A
  0
LAYER
  5
2F1C
330
2D
100
AcDbSymbolTableRecord
100
AcDbLayerTableRecord
  2
D-TTL
 70
     0
 62
     2
  6
CONTINUOUS
370
    13
390
281A
  0
LAYER
  5
2F1D
330
2D
100
AcDbSymbolTableRecord
100
AcDbLayerTableRecord
  2
D-TTL-FRAM
 70
     0
 62
     2
  6
CONTINUOUS
290
     0
370
    13
390
281A
  0
LAYER
  5
2F1E
330
2D
100
AcDbSymbolTableRecord
100
AcDbLayerTableRecord
  2
D-BMK
 70
     0
 62
     2
  6
CENTER
370
    13
390
281A
  0
LAYER
  5
2F1F
330
2D
100
AcDbSymbolTableRecord
100
AcDbLayerTableRecord
  2
D-STR-HTXT
 70
     0
 62
     7
  6
CONTINUOUS
370
    13
390
281A
  0
LAYER
  5
2F21
330
2D
100
AcDbSymbolTableRecord
100
AcDbLayerTableRecord
  2
D-MTR-FRAM
 70
     0
 62
     7
  6
CONTINUOUS
370
    13
390
281A
  0
LAYER
  5
2F22
330
2D
100
AcDbSymbolTableRecord
100
AcDbLayerTableRecord
  2
D-MTR
 70
     0
 62
     6
  6
CONTINUOUS
370
    13
390
281A
  0
LAYER
  5
2F23
330
2D
100
AcDbSymbolTableRecord
100
AcDbLayerTableRecord
  2
D-MTR-TXT
 70
     0
 62
     7
  6
CONTINUOUS
370
    13
390
281A
  0
LAYER
  5
2F24
330
2D
100
AcDbSymbolTableRecord
100
AcDbLayerTableRecord
  2
D-MTR-MTXT
 70
     0
 62
     7
  6
CONTINUOUS
370
    13
390
281A
  0
LAYER
  5
835C
330
2D
100
AcDbSymbolTableRecord
100
AcDbLayerTableRecord
  2
D-STR-STR2
 70
     0
 62
     1
  6
CONTINUOUS
370
    18
390
281A
  0
ENDTAB
  0
TABLE
  2
STYLE
  5
2B
330
0
100
AcDbSymbolTable
 70
     2
  0
STYLE
  5
2C
330
2B
100
AcDbSymbolTableRecord
100
AcDbTextStyleTableRecord
  2
STANDARD
 70
     0
 40
0.0
 41
1.0
 50
0.0
 71
     0
 42
5.0
  3
txt
  4
bigfont
  0
STYLE
  5
8363
330
2B
100
AcDbSymbolTableRecord
100
AcDbTextStyleTableRecord
  2

 70
     1
 40
0.0
 41
1.0
 50
0.0
 71
     0
 42
5.0
  3
ltypeshp.shx
  4

  0
ENDTAB
  0
TABLE
  2
VIEW
  5
43
330
0
100
AcDbSymbolTable
 70
     0
  0
ENDTAB
  0
TABLE
  2
UCS
  5
42
330
0
100
AcDbSymbolTable
 70
     0
  0
ENDTAB
  0
TABLE
  2
APPID
  5
3F
330
0
100
AcDbSymbolTable
 70
     1
  0
APPID
  5
40
330
3F
100
AcDbSymbolTableRecord
100
AcDbRegAppTableRecord
  2
ACAD
 70
     0
  0
ENDTAB
  0
TABLE
  2
DIMSTYLE
  5
41
330
0
100
AcDbSymbolTable
 70
     2
100
AcDbDimStyleTable
 71
     2
340
2F27
340
281B
  0
DIMSTYLE
105
281B
330
41
100
AcDbSymbolTableRecord
100
AcDbDimStyleTableRecord
  2
Standard
 70
     0
340
2C
  0
DIMSTYLE
105
2F27
102
{ACAD_REACTORS
330
798F
330
79A9
330
79C1
330
79CE
330
79DB
330
79EA
330
79F7
330
7A06
330
7A67
330
7A74
330
7A83
330
7B4A
330
7B60
330
7B6D
330
7B7A
330
7B90
330
7B9D
330
7BBF
330
7BBD
330
7BC0
330
7BBE
330
7C19
330
7C59
330
7C5A
330
7C5B
330
7CB1
330
7CC9
330
7CCA
330
7D3B
330
7D14
330
7D13
330
7D12
330
7D11
330
7D0F
102
}
330
41
100
AcDbSymbolTableRecord
100
AcDbDimStyleTableRecord
  2
2
 70
     0
 41
1.0
 42
2.0
 43
0.0
 44
2.0
 73
     0
 74
     0
 77
     1
 78
     8
140
7.0
141
2.0
143
0.03937007874016
147
2.0
171
     3
172
     1
174
     1
176
   256
177
   256
178
   256
179
     4
271
     0
272
     0
274
     3
275
     1
279
     1
284
     8
340
2C
341
2856
342
2856
  0
ENDTAB
  0
TABLE
  2
BLOCK_RECORD
  5
45
330
0
100
AcDbSymbolTable
 70
    36
  0
BLOCK_RECORD
  5
46
102
{ACAD_XDICTIONARY
360
2849
102
}
330
45
100
AcDbSymbolTableRecord
100
AcDbBlockTableRecord
  2
*MODEL_SPACE
340
281E
  0
BLOCK_RECORD
  5
47
102
{ACAD_XDICTIONARY
360
284B
102
}
330
45
100
AcDbSymbolTableRecord
100
AcDbBlockTableRecord
  2
*PAPER_SPACE
340
281F
  0
BLOCK_RECORD
  5
2856
330
45
100
AcDbSymbolTableRecord
100
AcDbBlockTableRecord
  2
_Origin
340
0
102
{BLKREFS
331
80CB
331
80CC
331
80D4
331
80D5
331
80DD
331
80DE
331
80EB
331
80EC
331
80F3
331
80F4
331
80FE
331
80FF
331
810C
331
810D
331
8116
331
8117
331
811F
331
8120
331
812A
331
812B
331
8133
331
8134
331
8172
331
8173
331
817B
331
817C
331
8184
331
8185
331
8192
331
8193
331
819A
331
819B
331
81A3
331
81A4
331
81AE
331
81AF
331
81B9
331
81BA
331
81C7
331
81C8
331
81CF
331
81D0
331
81D8
331
81D9
331
81E1
331
81E2
331
81EA
331
81EB
331
81F3
331
81F4
331
81FC
331
81FD
331
8205
331
8206
331
8210
331
8211
331
8219
331
821A
331
8222
331
8223
331
822B
331
822C
331
8234
331
8235
331
823D
331
823E
331
8246
331
8247
102
}
  0
BLOCK_RECORD
  5
7990
330
45
100
AcDbSymbolTableRecord
100
AcDbBlockTableRecord
  2
*D1
340
0
  0
BLOCK_RECORD
  5
79AA
330
45
100
AcDbSymbolTableRecord
100
AcDbBlockTableRecord
  2
*D2
340
0
  0
BLOCK_RECORD
  5
79C2
330
45
100
AcDbSymbolTableRecord
100
AcDbBlockTableRecord
  2
*D3
340
0
  0
BLOCK_RECORD
  5
79CF
330
45
100
AcDbSymbolTableRecord
100
AcDbBlockTableRecord
  2
*D4
340
0
  0
BLOCK_RECORD
  5
79DC
330
45
100
AcDbSymbolTableRecord
100
AcDbBlockTableRecord
  2
*D5
340
0
  0
BLOCK_RECORD
  5
79EB
330
45
100
AcDbSymbolTableRecord
100
AcDbBlockTableRecord
  2
*D6
340
0
  0
BLOCK_RECORD
  5
79F8
330
45
100
AcDbSymbolTableRecord
100
AcDbBlockTableRecord
  2
*D7
340
0
  0
BLOCK_RECORD
  5
7A07
330
45
100
AcDbSymbolTableRecord
100
AcDbBlockTableRecord
  2
*D8
340
0
  0
BLOCK_RECORD
  5
7A53
330
45
100
AcDbSymbolTableRecord
100
AcDbBlockTableRecord
  2
_Open
340
0
102
{BLKREFS
331
7A60
331
7A64
331
7B03
331
7BB8
331
7BBB
331
7CAA
331
7CAE
331
7D2D
331
7D38
331
8366
102
}
  0
BLOCK_RECORD
  5
7A68
330
45
100
AcDbSymbolTableRecord
100
AcDbBlockTableRecord
  2
*D10
340
0
  0
BLOCK_RECORD
  5
7A75
330
45
100
AcDbSymbolTableRecord
100
AcDbBlockTableRecord
  2
*D11
340
0
  0
BLOCK_RECORD
  5
7A84
330
45
100
AcDbSymbolTableRecord
100
AcDbBlockTableRecord
  2
*D12
340
0
  0
BLOCK_RECORD
  5
7B4B
330
45
100
AcDbSymbolTableRecord
100
AcDbBlockTableRecord
  2
*D13
340
0
  0
BLOCK_RECORD
  5
7B61
330
45
100
AcDbSymbolTableRecord
100
AcDbBlockTableRecord
  2
*D14
340
0
  0
BLOCK_RECORD
  5
7B6E
330
45
100
AcDbSymbolTableRecord
100
AcDbBlockTableRecord
  2
*D15
340
0
  0
BLOCK_RECORD
  5
7B7B
330
45
100
AcDbSymbolTableRecord
100
AcDbBlockTableRecord
  2
*D16
340
0
  0
BLOCK_RECORD
  5
7B91
330
45
100
AcDbSymbolTableRecord
100
AcDbBlockTableRecord
  2
*D17
340
0
  0
BLOCK_RECORD
  5
7B9E
330
45
100
AcDbSymbolTableRecord
100
AcDbBlockTableRecord
  2
*D18
340
0
  0
BLOCK_RECORD
  5
7BC1
330
45
100
AcDbSymbolTableRecord
100
AcDbBlockTableRecord
  2
*D19
340
0
  0
BLOCK_RECORD
  5
7BCD
330
45
100
AcDbSymbolTableRecord
100
AcDbBlockTableRecord
  2
*D20
340
0
  0
BLOCK_RECORD
  5
7BD9
330
45
100
AcDbSymbolTableRecord
100
AcDbBlockTableRecord
  2
*D21
340
0
  0
BLOCK_RECORD
  5
7BE7
330
45
100
AcDbSymbolTableRecord
100
AcDbBlockTableRecord
  2
*D22
340
0
  0
BLOCK_RECORD
  5
7C1A
330
45
100
AcDbSymbolTableRecord
100
AcDbBlockTableRecord
  2
*D23
340
0
  0
BLOCK_RECORD
  5
7C5C
330
45
100
AcDbSymbolTableRecord
100
AcDbBlockTableRecord
  2
*D24
340
0
  0
BLOCK_RECORD
  5
7C68
330
45
100
AcDbSymbolTableRecord
100
AcDbBlockTableRecord
  2
*D25
340
0
  0
BLOCK_RECORD
  5
7C78
330
45
100
AcDbSymbolTableRecord
100
AcDbBlockTableRecord
  2
*D26
340
0
  0
BLOCK_RECORD
  5
7CB4
330
45
100
AcDbSymbolTableRecord
100
AcDbBlockTableRecord
  2
*D27
340
0
  0
BLOCK_RECORD
  5
7CCB
330
45
100
AcDbSymbolTableRecord
100
AcDbBlockTableRecord
  2
*D28
340
0
  0
BLOCK_RECORD
  5
7CDB
330
45
100
AcDbSymbolTableRecord
100
AcDbBlockTableRecord
  2
*D29
340
0
  0
BLOCK_RECORD
  5
7D3F
330
45
100
AcDbSymbolTableRecord
100
AcDbBlockTableRecord
  2
*D30
340
0
  0
BLOCK_RECORD
  5
7D4B
330
45
100
AcDbSymbolTableRecord
100
AcDbBlockTableRecord
  2
*D31
340
0
  0
BLOCK_RECORD
  5
7D57
330
45
100
AcDbSymbolTableRecord
100
AcDbBlockTableRecord
  2
*D32
340
0
  0
BLOCK_RECORD
  5
7D63
330
45
100
AcDbSymbolTableRecord
100
AcDbBlockTableRecord
  2
*D33
340
0
  0
BLOCK_RECORD
  5
7D6F
330
45
100
AcDbSymbolTableRecord
100
AcDbBlockTableRecord
  2
*D34
340
0
  0
BLOCK_RECORD
  5
7D7B
330
45
100
AcDbSymbolTableRecord
100
AcDbBlockTableRecord
  2
*D35
340
0
  0
ENDTAB
  0
ENDSEC
  0
SECTION
  2
BLOCKS
  0
BLOCK
  5
48
330
46
100
AcDbEntity
  8
0
100
AcDbBlockBegin
  2
*MODEL_SPACE
 70
     0
 10
0.0
 20
0.0
 30
0.0
  3
*MODEL_SPACE
  1

  0
ENDBLK
  5
49
330
46
100
AcDbEntity
  8
0
100
AcDbBlockEnd
  0
BLOCK
  5
4A
330
47
100
AcDbEntity
 67
     1
  8
0
100
AcDbBlockBegin
  2
*PAPER_SPACE
 70
     0
 10
0.0
 20
0.0
 30
0.0
  3
*PAPER_SPACE
  1

  0
ENDBLK
  5
4B
330
47
100
AcDbEntity
 67
     1
  8
0
100
AcDbBlockEnd
  0
BLOCK
  5
2859
330
2856
100
AcDbEntity
  8
0
100
AcDbBlockBegin
  2
_Origin
 70
     0
 10
0.0
 20
0.0
 30
0.0
  3
_Origin
  1

  0
CIRCLE
  5
2857
330
2856
100
AcDbEntity
  8
0
  6
ByBlock
 62
     0
370
    -2
100
AcDbCircle
 10
0.0
 20
0.0
 30
0.0
 40
0.5
  0
LINE
  5
2858
330
2856
100
AcDbEntity
  8
0
  6
ByBlock
 62
     0
370
    -2
100
AcDbLine
 10
0.0
 20
0.0
 30
0.0
 11
-1.0
 21
0.0
 31
0.0
  0
ENDBLK
  5
285A
330
2856
100
AcDbEntity
  8
0
100
AcDbBlockEnd
  0
BLOCK
  5
799C
330
7990
100
AcDbEntity
  8
0
100
AcDbBlockBegin
  2
*D1
 70
     1
 10
0.0
 20
0.0
 30
0.0
  3
*D1
  1

  0
LINE
  5
80F9
330
7990
100
AcDbEntity
  8
D-STR-DIM
  6
Continuous
370
    -2
100
AcDbLine
 10
320.2622709670932
 20
862.6625718397313
 30
0.0
 11
320.2622709670932
 21
892.6625718397312
 31
0.0
  0
LINE
  5
80FA
330
7990
100
AcDbEntity
  8
D-STR-DIM
  6
Continuous
370
    -2
100
AcDbLine
 10
324.7622709670932
 20
862.6625718397313
 30
0.0
 11
324.7622709670932
 21
892.6625718397312
 31
0.0
  0
LINE
  5
80FB
330
7990
100
AcDbEntity
  8
D-STR-DIM
  6
Continuous
370
    -2
100
AcDbLine
 10
319.2622709670932
 20
890.6625718397313
 30
0.0
 11
318.2622709670932
 21
890.6625718397313
 31
0.0
  0
LINE
  5
80FC
330
7990
100
AcDbEntity
  8
D-STR-DIM
  6
Continuous
370
    -2
100
AcDbLine
 10
325.7622709670932
 20
890.6625718397313
 30
0.0
 11
326.7622709670932
 21
890.6625718397313
 31
0.0
  0
LINE
  5
80FD
330
7990
100
AcDbEntity
  8
D-STR-DIM
  6
Continuous
370
    -2
100
AcDbLine
 10
320.2622709670932
 20
890.6625718397313
 30
0.0
 11
324.7622709670932
 21
890.6625718397313
 31
0.0
  0
INSERT
  5
80FE
330
7990
100
AcDbEntity
  8
D-STR-DIM
  6
Continuous
370
    -2
100
AcDbBlockReference
  2
_Origin
 10
320.2622709670932
 20
890.6625718397313
 30
0.0
  0
INSERT
  5
80FF
330
7990
100
AcDbEntity
  8
D-STR-DIM
  6
Continuous
370
    -2
100
AcDbBlockReference
  2
_Origin
 10
324.7622709670932
 20
890.6625718397313
 30
0.0
 50
180.0
  0
MTEXT
  5
8100
330
7990
100
AcDbEntity
  8
D-STR-DIM
  6
Continuous
100
AcDbMText
 10
322.5122709670932
 20
896.1625718397312
 30
0.0
 40
7.0
 41
0.0
 71
     5
 72
     1
  1
\A1;4.5
 73
     1
 44
1.0
1001
ACAD
1000
MTEXTBEGIN
1070
    73
1070
     1
1070
    44
1040
1.0
1070
    74
1070
     0
1000
MTEXTEND
  0
POINT
  5
8101
330
7990
100
AcDbEntity
  8
DEFPOINTS
  6
Continuous
 62
     0
100
AcDbPoint
 10
320.2622709670932
 20
860.6625718397312
 30
0.0
  0
POINT
  5
8102
330
7990
100
AcDbEntity
  8
DEFPOINTS
  6
Continuous
 62
     0
100
AcDbPoint
 10
324.7622709670932
 20
860.6625718397312
 30
0.0
  0
POINT
  5
8103
330
7990
100
AcDbEntity
  8
DEFPOINTS
  6
Continuous
 62
     0
100
AcDbPoint
 10
324.7622709670932
 20
890.6625718397313
 30
0.0
  0
ENDBLK
  5
799D
330
7990
100
AcDbEntity
  8
0
100
AcDbBlockEnd
  0
BLOCK
  5
79B4
330
79AA
100
AcDbEntity
  8
0
100
AcDbBlockBegin
  2
*D2
 70
     1
 10
0.0
 20
0.0
 30
0.0
  3
*D2
  1

  0
LINE
  5
80C8
330
79AA
100
AcDbEntity
  8
D-STR-DIM
  6
Continuous
370
    -2
100
AcDbLine
 10
324.7622709670932
 20
862.6625718397313
 30
0.0
 11
324.7622709670932
 21
892.6625718397312
 31
0.0
  0
LINE
  5
80C9
330
79AA
100
AcDbEntity
  8
D-STR-DIM
  6
Continuous
370
    -2
100
AcDbLine
 10
570.2622709670931
 20
847.6625718397313
 30
0.0
 11
570.2622709670931
 21
892.6625718397312
 31
0.0
  0
LINE
  5
80CA
330
79AA
100
AcDbEntity
  8
D-STR-DIM
  6
Continuous
370
    -2
100
AcDbLine
 10
325.7622709670932
 20
890.6625718397313
 30
0.0
 11
569.2622709670931
 21
890.6625718397313
 31
0.0
  0
INSERT
  5
80CB
330
79AA
100
AcDbEntity
  8
D-STR-DIM
  6
Continuous
370
    -2
100
AcDbBlockReference
  2
_Origin
 10
324.7622709670932
 20
890.6625718397313
 30
0.0
 50
180.0
  0
INSERT
  5
80CC
330
79AA
100
AcDbEntity
  8
D-STR-DIM
  6
Continuous
370
    -2
100
AcDbBlockReference
  2
_Origin
 10
570.2622709670931
 20
890.6625718397313
 30
0.0
  0
MTEXT
  5
80CD
330
79AA
100
AcDbEntity
  8
D-STR-DIM
  6
Continuous
100
AcDbMText
 10
447.5122709670931
 20
896.1625718397312
 30
0.0
 40
7.0
 41
0.0
 71
     5
 72
     1
  1
\A1;245.5
 73
     1
 44
1.0
1001
ACAD
1000
MTEXTBEGIN
1070
    73
1070
     1
1070
    44
1040
1.0
1070
    74
1070
     0
1000
MTEXTEND
  0
POINT
  5
80CE
330
79AA
100
AcDbEntity
  8
DEFPOINTS
  6
Continuous
 62
     0
100
AcDbPoint
 10
324.7622709670932
 20
860.6625718397312
 30
0.0
  0
POINT
  5
80CF
330
79AA
100
AcDbEntity
  8
DEFPOINTS
  6
Continuous
 62
     0
100
AcDbPoint
 10
570.2622709670931
 20
845.6625718397313
 30
0.0
  0
POINT
  5
80D0
330
79AA
100
AcDbEntity
  8
DEFPOINTS
  6
Continuous
 62
     0
100
AcDbPoint
 10
570.2622709670931
 20
890.6625718397313
 30
0.0
  0
ENDBLK
  5
79B5
330
79AA
100
AcDbEntity
  8
0
100
AcDbBlockEnd
  0
BLOCK
  5
79CC
330
79C2
100
AcDbEntity
  8
0
100
AcDbBlockBegin
  2
*D3
 70
     1
 10
0.0
 20
0.0
 30
0.0
  3
*D3
  1

  0
LINE
  5
80D1
330
79C2
100
AcDbEntity
  8
D-STR-DIM
  6
Continuous
370
    -2
100
AcDbLine
 10
320.2622709670932
 20
862.6625718397313
 30
0.0
 11
320.2622709670932
 21
922.6625718397313
 31
0.0
  0
LINE
  5
80D2
330
79C2
100
AcDbEntity
  8
D-STR-DIM
  6
Continuous
370
    -2
100
AcDbLine
 10
570.2622709670931
 20
847.6625718397313
 30
0.0
 11
570.2622709670931
 21
922.6625718397313
 31
0.0
  0
LINE
  5
80D3
330
79C2
100
AcDbEntity
  8
D-STR-DIM
  6
Continuous
370
    -2
100
AcDbLine
 10
321.2622709670932
 20
920.6625718397313
 30
0.0
 11
569.2622709670931
 21
920.6625718397313
 31
0.0
  0
INSERT
  5
80D4
330
79C2
100
AcDbEntity
  8
D-STR-DIM
  6
Continuous
370
    -2
100
AcDbBlockReference
  2
_Origin
 10
320.2622709670932
 20
920.6625718397313
 30
0.0
 50
180.0
  0
INSERT
  5
80D5
330
79C2
100
AcDbEntity
  8
D-STR-DIM
  6
Continuous
370
    -2
100
AcDbBlockReference
  2
_Origin
 10
570.2622709670931
 20
920.6625718397313
 30
0.0
  0
MTEXT
  5
80D6
330
79C2
100
AcDbEntity
  8
D-STR-DIM
  6
Continuous
100
AcDbMText
 10
445.2622709670931
 20
926.1625718397313
 30
0.0
 40
7.0
 41
0.0
 71
     5
 72
     1
  1
\A1;250
 73
     1
 44
1.0
1001
ACAD
1000
MTEXTBEGIN
1070
    73
1070
     1
1070
    44
1040
1.0
1070
    74
1070
     0
1000
MTEXTEND
  0
POINT
  5
80D7
330
79C2
100
AcDbEntity
  8
DEFPOINTS
  6
Continuous
 62
     0
100
AcDbPoint
 10
320.2622709670932
 20
860.6625718397312
 30
0.0
  0
POINT
  5
80D8
330
79C2
100
AcDbEntity
  8
DEFPOINTS
  6
Continuous
 62
     0
100
AcDbPoint
 10
570.2622709670931
 20
845.6625718397313
 30
0.0
  0
POINT
  5
80D9
330
79C2
100
AcDbEntity
  8
DEFPOINTS
  6
Continuous
 62
     0
100
AcDbPoint
 10
570.2622709670931
 20
920.6625718397313
 30
0.0
  0
ENDBLK
  5
79CD
330
79C2
100
AcDbEntity
  8
0
100
AcDbBlockEnd
  0
BLOCK
  5
79D9
330
79CF
100
AcDbEntity
  8
0
100
AcDbBlockBegin
  2
*D4
 70
     1
 10
0.0
 20
0.0
 30
0.0
  3
*D4
  1

  0
LINE
  5
8130
330
79CF
100
AcDbEntity
  8
D-STR-DIM
  6
Continuous
370
    -2
100
AcDbLine
 10
566.0622709670933
 20
852.6625718397312
 30
0.0
 11
611.0622709670933
 21
852.6625718397312
 31
0.0
  0
LINE
  5
8131
330
79CF
100
AcDbEntity
  8
D-STR-DIM
  6
Continuous
370
    -2
100
AcDbLine
 10
566.0622709670933
 20
792.6625718397312
 30
0.0
 11
611.0622709670933
 21
792.6625718397312
 31
0.0
  0
LINE
  5
8132
330
79CF
100
AcDbEntity
  8
D-STR-DIM
  6
Continuous
370
    -2
100
AcDbLine
 10
609.0622709670933
 20
851.6625718397312
 30
0.0
 11
609.0622709670933
 21
793.6625718397313
 31
0.0
  0
INSERT
  5
8133
330
79CF
100
AcDbEntity
  8
D-STR-DIM
  6
Continuous
370
    -2
100
AcDbBlockReference
  2
_Origin
 10
609.0622709670933
 20
852.6625718397312
 30
0.0
 50
90.0
  0
INSERT
  5
8134
330
79CF
100
AcDbEntity
  8
D-STR-DIM
  6
Continuous
370
    -2
100
AcDbBlockReference
  2
_Origin
 10
609.0622709670933
 20
792.6625718397312
 30
0.0
 50
270.0
  0
MTEXT
  5
8135
330
79CF
100
AcDbEntity
  8
D-STR-DIM
  6
Continuous
100
AcDbMText
 10
603.5622709670931
 20
822.6625718397313
 30
0.0
 40
7.0
 41
0.0
 71
     5
 72
     1
  1
\A1;60
 11
0.0000000000000001
 21
1.0
 31
0.0
 73
     1
 44
1.0
1001
ACAD
1000
MTEXTBEGIN
1070
    73
1070
     1
1070
    44
1040
1.0
1070
    74
1070
     0
1000
MTEXTEND
  0
POINT
  5
8136
330
79CF
100
AcDbEntity
  8
DEFPOINTS
  6
Continuous
 62
     0
100
AcDbPoint
 10
564.0622709670934
 20
852.6625718397312
 30
0.0
  0
POINT
  5
8137
330
79CF
100
AcDbEntity
  8
DEFPOINTS
  6
Continuous
 62
     0
100
AcDbPoint
 10
564.0622709670934
 20
792.6625718397312
 30
0.0
  0
POINT
  5
8138
330
79CF
100
AcDbEntity
  8
DEFPOINTS
  6
Continuous
 62
     0
100
AcDbPoint
 10
609.0622709670933
 20
792.6625718397312
 30
0.0
  0
ENDBLK
  5
79DA
330
79CF
100
AcDbEntity
  8
0
100
AcDbBlockEnd
  0
BLOCK
  5
79E8
330
79DC
100
AcDbEntity
  8
0
100
AcDbBlockBegin
  2
*D5
 70
     1
 10
0.0
 20
0.0
 30
0.0
  3
*D5
  1

  0
LINE
  5
8125
330
79DC
100
AcDbEntity
  8
D-STR-DIM
  6
Continuous
370
    -2
100
AcDbLine
 10
570.2622709670931
 20
797.6625718397313
 30
0.0
 11
570.2622709670931
 21
763.6625718397312
 31
0.0
  0
LINE
  5
8126
330
79DC
100
AcDbEntity
  8
D-STR-DIM
  6
Continuous
370
    -2
100
AcDbLine
 10
567.0622709670933
 20
793.6625718397313
 30
0.0
 11
567.0622709670933
 21
763.6625718397312
 31
0.0
  0
LINE
  5
8127
330
79DC
100
AcDbEntity
  8
D-STR-DIM
  6
Continuous
370
    -2
100
AcDbLine
 10
571.2622709670931
 20
765.6625718397313
 30
0.0
 11
572.2622709670932
 21
765.6625718397313
 31
0.0
  0
LINE
  5
8128
330
79DC
100
AcDbEntity
  8
D-STR-DIM
  6
Continuous
370
    -2
100
AcDbLine
 10
566.0622709670933
 20
765.6625718397313
 30
0.0
 11
565.0622709670933
 21
765.6625718397313
 31
0.0
  0
LINE
  5
8129
330
79DC
100
AcDbEntity
  8
D-STR-DIM
  6
Continuous
370
    -2
100
AcDbLine
 10
570.2622709670931
 20
765.6625718397313
 30
0.0
 11
567.0622709670933
 21
765.6625718397313
 31
0.0
  0
INSERT
  5
812A
330
79DC
100
AcDbEntity
  8
D-STR-DIM
  6
Continuous
370
    -2
100
AcDbBlockReference
  2
_Origin
 10
570.2622709670931
 20
765.6625718397313
 30
0.0
 50
180.0
  0
INSERT
  5
812B
330
79DC
100
AcDbEntity
  8
D-STR-DIM
  6
Continuous
370
    -2
100
AcDbBlockReference
  2
_Origin
 10
567.0622709670933
 20
765.6625718397313
 30
0.0
  0
MTEXT
  5
812C
330
79DC
100
AcDbEntity
  8
D-STR-DIM
  6
Continuous
100
AcDbMText
 10
568.6622709670932
 20
771.1625718397312
 30
0.0
 40
7.0
 41
0.0
 71
     5
 72
     1
  1
\A1;3.2
 73
     1
 44
1.0
1001
ACAD
1000
MTEXTBEGIN
1070
    73
1070
     1
1070
    44
1040
1.0
1070
    74
1070
     0
1000
MTEXTEND
  0
POINT
  5
812D
330
79DC
100
AcDbEntity
  8
DEFPOINTS
  6
Continuous
 62
     0
100
AcDbPoint
 10
570.2622709670931
 20
799.6625718397313
 30
0.0
  0
POINT
  5
812E
330
79DC
100
AcDbEntity
  8
DEFPOINTS
  6
Continuous
 62
     0
100
AcDbPoint
 10
567.0622709670933
 20
795.6625718397313
 30
0.0
  0
POINT
  5
812F
330
79DC
100
AcDbEntity
  8
DEFPOINTS
  6
Continuous
 62
     0
100
AcDbPoint
 10
567.0622709670933
 20
765.6625718397313
 30
0.0
  0
ENDBLK
  5
79E9
330
79DC
100
AcDbEntity
  8
0
100
AcDbBlockEnd
  0
BLOCK
  5
79F5
330
79EB
100
AcDbEntity
  8
0
100
AcDbBlockBegin
  2
*D6
 70
     1
 10
0.0
 20
0.0
 30
0.0
  3
*D6
  1

  0
LINE
  5
80F0
330
79EB
100
AcDbEntity
  8
D-STR-DIM
  6
Continuous
370
    -2
100
AcDbLine
 10
324.7622709670932
 20
782.6625718397313
 30
0.0
 11
324.7622709670932
 21
747.1625718397312
 31
0.0
  0
LINE
  5
80F1
330
79EB
100
AcDbEntity
  8
D-STR-DIM
  6
Continuous
370
    -2
100
AcDbLine
 10
309.7622709670932
 20
777.1625718397313
 30
0.0
 11
309.7622709670932
 21
747.1625718397312
 31
0.0
  0
LINE
  5
80F2
330
79EB
100
AcDbEntity
  8
D-STR-DIM
  6
Continuous
370
    -2
100
AcDbLine
 10
323.7622709670932
 20
749.1625718397313
 30
0.0
 11
310.7622709670932
 21
749.1625718397313
 31
0.0
  0
INSERT
  5
80F3
330
79EB
100
AcDbEntity
  8
D-STR-DIM
  6
Continuous
370
    -2
100
AcDbBlockReference
  2
_Origin
 10
324.7622709670932
 20
749.1625718397313
 30
0.0
  0
INSERT
  5
80F4
330
79EB
100
AcDbEntity
  8
D-STR-DIM
  6
Continuous
370
    -2
100
AcDbBlockReference
  2
_Origin
 10
309.7622709670932
 20
749.1625718397313
 30
0.0
 50
180.0
  0
MTEXT
  5
80F5
330
79EB
100
AcDbEntity
  8
D-STR-DIM
  6
Continuous
100
AcDbMText
 10
317.2622709670932
 20
754.6625718397312
 30
0.0
 40
7.0
 41
0.0
 71
     5
 72
     1
  1
\A1;15
 73
     1
 44
1.0
1001
ACAD
1000
MTEXTBEGIN
1070
    73
1070
     1
1070
    44
1040
1.0
1070
    74
1070
     0
1000
MTEXTEND
  0
POINT
  5
80F6
330
79EB
100
AcDbEntity
  8
DEFPOINTS
  6
Continuous
 62
     0
100
AcDbPoint
 10
324.7622709670932
 20
784.6625718397313
 30
0.0
  0
POINT
  5
80F7
330
79EB
100
AcDbEntity
  8
DEFPOINTS
  6
Continuous
 62
     0
100
AcDbPoint
 10
309.7622709670932
 20
779.1625718397312
 30
0.0
  0
POINT
  5
80F8
330
79EB
100
AcDbEntity
  8
DEFPOINTS
  6
Continuous
 62
     0
100
AcDbPoint
 10
309.7622709670932
 20
749.1625718397313
 30
0.0
  0
ENDBLK
  5
79F6
330
79EB
100
AcDbEntity
  8
0
100
AcDbBlockEnd
  0
BLOCK
  5
7A04
330
79F8
100
AcDbEntity
  8
0
100
AcDbBlockBegin
  2
*D7
 70
     1
 10
0.0
 20
0.0
 30
0.0
  3
*D7
  1

  0
LINE
  5
8104
330
79F8
100
AcDbEntity
  8
D-STR-DIM
  6
Continuous
370
    -2
100
AcDbLine
 10
314.7622709670932
 20
836.6625718397312
 30
0.0
 11
314.7622709670932
 21
845.6625718397313
 31
0.0
  0
LINE
  5
8105
330
79F8
100
AcDbEntity
  8
D-STR-DIM
  6
Continuous
370
    -2
100
AcDbLine
 10
320.2622709670932
 20
836.6625718397312
 30
0.0
 11
320.2622709670932
 21
845.6625718397313
 31
0.0
  0
LINE
  5
8106
330
79F8
100
AcDbEntity
  8
D-STR-DIM
  6
Continuous
370
    -2
100
AcDbLine
 10
313.7622709670932
 20
843.6625718397312
 30
0.0
 11
312.7622709670932
 21
843.6625718397312
 31
0.0
  0
LINE
  5
8107
330
79F8
100
AcDbEntity
  8
D-STR-DIM
  6
Continuous
370
    -2
100
AcDbLine
 10
321.2622709670932
 20
843.6625718397312
 30
0.0
 11
322.2622709670932
 21
843.6625718397312
 31
0.0
  0
LINE
  5
8108
330
79F8
100
AcDbEntity
  8
D-STR-DIM
  6
Continuous
370
    -2
100
AcDbLine
 10
293.7574760130619
 20
843.6625718397312
 30
0.0
 11
314.7622709670932
 21
843.6625718397312
 31
0.0
  0
MTEXT
  5
8109
330
79F8
100
AcDbEntity
  8
D-STR-DIM
  6
Continuous
100
AcDbMText
 10
302.7574760130619
 20
849.1625718397312
 30
0.0
 40
7.0
 41
0.0
 71
     5
 72
     1
  1
\A1;5.5
 73
     1
 44
1.0
1001
ACAD
1000
MTEXTBEGIN
1070
    73
1070
     1
1070
    44
1040
1.0
1070
    74
1070
     0
1000
MTEXTEND
  0
LINE
  5
810A
330
79F8
100
AcDbEntity
  8
D-STR-DIM
  6
Continuous
370
    -2
100
AcDbLine
 10
314.7622709670932
 20
843.6625718397312
 30
0.0
 11
320.2622709670932
 21
843.6625718397312
 31
0.0
  0
LINE
  5
810B
330
79F8
100
AcDbEntity
  8
D-STR-DIM
  6
Continuous
370
    -2
100
AcDbLine
 10
314.7622709670932
 20
843.6625718397312
 30
0.0
 11
320.2622709670932
 21
843.6625718397312
 31
0.0
  0
INSERT
  5
810C
330
79F8
100
AcDbEntity
  8
D-STR-DIM
  6
Continuous
370
    -2
100
AcDbBlockReference
  2
_Origin
 10
314.7622709670932
 20
843.6625718397312
 30
0.0
  0
INSERT
  5
810D
330
79F8
100
AcDbEntity
  8
D-STR-DIM
  6
Continuous
370
    -2
100
AcDbBlockReference
  2
_Origin
 10
320.2622709670932
 20
843.6625718397312
 30
0.0
 50
180.0
  0
POINT
  5
810E
330
79F8
100
AcDbEntity
  8
DEFPOINTS
  6
Continuous
 62
     0
100
AcDbPoint
 10
314.7622709670932
 20
834.6625718397312
 30
0.0
  0
POINT
  5
810F
330
79F8
100
AcDbEntity
  8
DEFPOINTS
  6
Continuous
 62
     0
100
AcDbPoint
 10
320.2622709670932
 20
834.6625718397312
 30
0.0
  0
POINT
  5
8110
330
79F8
100
AcDbEntity
  8
DEFPOINTS
  6
Continuous
 62
     0
100
AcDbPoint
 10
320.2622709670932
 20
843.6625718397312
 30
0.0
  0
ENDBLK
  5
7A05
330
79F8
100
AcDbEntity
  8
0
100
AcDbBlockEnd
  0
BLOCK
  5
7A13
330
7A07
100
AcDbEntity
  8
0
100
AcDbBlockBegin
  2
*D8
 70
     1
 10
0.0
 20
0.0
 30
0.0
  3
*D8
  1

  0
LINE
  5
8111
330
7A07
100
AcDbEntity
  8
D-STR-DIM
  6
Continuous
370
    -2
100
AcDbLine
 10
307.7622709670932
 20
866.1625718397313
 30
0.0
 11
277.7622709670932
 21
866.1625718397313
 31
0.0
  0
LINE
  5
8112
330
7A07
100
AcDbEntity
  8
D-STR-DIM
  6
Continuous
370
    -2
100
AcDbLine
 10
307.7622709670932
 20
861.6625718397314
 30
0.0
 11
277.7622709670932
 21
861.6625718397314
 31
0.0
  0
LINE
  5
8113
330
7A07
100
AcDbEntity
  8
D-STR-DIM
  6
Continuous
370
    -2
100
AcDbLine
 10
279.7622709670932
 20
867.1625718397313
 30
0.0
 11
279.7622709670932
 21
868.1625718397313
 31
0.0
  0
LINE
  5
8114
330
7A07
100
AcDbEntity
  8
D-STR-DIM
  6
Continuous
370
    -2
100
AcDbLine
 10
279.7622709670932
 20
860.6625718397312
 30
0.0
 11
279.7622709670932
 21
859.6625718397312
 31
0.0
  0
LINE
  5
8115
330
7A07
100
AcDbEntity
  8
D-STR-DIM
  6
Continuous
370
    -2
100
AcDbLine
 10
279.7622709670932
 20
866.1625718397313
 30
0.0
 11
279.7622709670932
 21
861.6625718397314
 31
0.0
  0
INSERT
  5
8116
330
7A07
100
AcDbEntity
  8
D-STR-DIM
  6
Continuous
370
    -2
100
AcDbBlockReference
  2
_Origin
 10
279.7622709670932
 20
866.1625718397313
 30
0.0
 50
270.0
  0
INSERT
  5
8117
330
7A07
100
AcDbEntity
  8
D-STR-DIM
  6
Continuous
370
    -2
100
AcDbBlockReference
  2
_Origin
 10
279.7622709670932
 20
861.6625718397314
 30
0.0
 50
90.0
  0
MTEXT
  5
8118
330
7A07
100
AcDbEntity
  8
D-STR-DIM
  6
Continuous
100
AcDbMText
 10
274.2622709670931
 20
863.9125718397314
 30
0.0
 40
7.0
 41
0.0
 71
     5
 72
     1
  1
\A1;4.5
 11
0.0000000000000001
 21
1.0
 31
0.0
 73
     1
 44
1.0
1001
ACAD
1000
MTEXTBEGIN
1070
    73
1070
     1
1070
    44
1040
1.0
1070
    74
1070
     0
1000
MTEXTEND
  0
POINT
  5
8119
330
7A07
100
AcDbEntity
  8
DEFPOINTS
  6
Continuous
 62
     0
100
AcDbPoint
 10
309.7622709670932
 20
866.1625718397313
 30
0.0
  0
POINT
  5
811A
330
7A07
100
AcDbEntity
  8
DEFPOINTS
  6
Continuous
 62
     0
100
AcDbPoint
 10
309.7622709670932
 20
861.6625718397314
 30
0.0
  0
POINT
  5
811B
330
7A07
100
AcDbEntity
  8
DEFPOINTS
  6
Continuous
 62
     0
100
AcDbPoint
 10
279.7622709670932
 20
861.6625718397314
 30
0.0
  0
ENDBLK
  5
7A14
330
7A07
100
AcDbEntity
  8
0
100
AcDbBlockEnd
  0
BLOCK
  5
7A57
330
7A53
100
AcDbEntity
  8
0
100
AcDbBlockBegin
  2
_Open
 70
     0
 10
0.0
 20
0.0
 30
0.0
  3
_Open
  1

  0
LINE
  5
7A54
330
7A53
100
AcDbEntity
  8
0
  6
ByBlock
 62
     0
370
    -2
100
AcDbLine
 10
-1.0
 20
0.1666666666666666
 30
0.0
 11
0.0
 21
0.0
 31
0.0
  0
LINE
  5
7A55
330
7A53
100
AcDbEntity
  8
0
  6
ByBlock
 62
     0
370
    -2
100
AcDbLine
 10
-1.0
 20
-0.1666666666666666
 30
0.0
 11
0.0
 21
0.0
 31
0.0
  0
LINE
  5
7A56
330
7A53
100
AcDbEntity
  8
0
  6
ByBlock
 62
     0
370
    -2
100
AcDbLine
 10
0.0
 20
0.0
 30
0.0
 11
-1.0
 21
0.0
 31
0.0
  0
ENDBLK
  5
7A58
330
7A53
100
AcDbEntity
  8
0
100
AcDbBlockEnd
  0
BLOCK
  5
7A72
330
7A68
100
AcDbEntity
  8
0
100
AcDbBlockBegin
  2
*D10
 70
     1
 10
0.0
 20
0.0
 30
0.0
  3
*D10
  1

  0
LINE
  5
811C
330
7A68
100
AcDbEntity
  8
D-STR-DIM
  6
Continuous
370
    -2
100
AcDbLine
 10
565.0622709670933
 20
650.4363679856743
 30
0.0
 11
532.2120835446276
 21
650.4363679856743
 31
0.0
  0
LINE
  5
811D
330
7A68
100
AcDbEntity
  8
D-STR-DIM
  6
Continuous
370
    -2
100
AcDbLine
 10
560.2622709670936
 20
625.0363687172015
 30
0.0
 11
532.2120835446276
 21
625.0363687172015
 31
0.0
  0
LINE
  5
811E
330
7A68
100
AcDbEntity
  8
D-STR-DIM
  6
Continuous
370
    -2
100
AcDbLine
 10
534.2120835446276
 20
649.4363679856743
 30
0.0
 11
534.2120835446276
 21
626.0363687172015
 31
0.0
  0
INSERT
  5
811F
330
7A68
100
AcDbEntity
  8
D-STR-DIM
  6
Continuous
370
    -2
100
AcDbBlockReference
  2
_Origin
 10
534.2120835446276
 20
650.4363679856743
 30
0.0
 50
90.0
  0
INSERT
  5
8120
330
7A68
100
AcDbEntity
  8
D-STR-DIM
  6
Continuous
370
    -2
100
AcDbBlockReference
  2
_Origin
 10
534.2120835446276
 20
625.0363687172015
 30
0.0
 50
270.0
  0
MTEXT
  5
8121
330
7A68
100
AcDbEntity
  8
D-STR-DIM
  6
Continuous
100
AcDbMText
 10
528.7120835446274
 20
637.736368351438
 30
0.0
 40
7.0
 41
0.0
 71
     5
 72
     1
  1
\A1;25
 11
0.0000000000000001
 21
1.0
 31
0.0
 73
     1
 44
1.0
1001
ACAD
1000
MTEXTBEGIN
1070
    73
1070
     1
1070
    44
1040
1.0
1070
    74
1070
     0
1000
MTEXTEND
  0
POINT
  5
8122
330
7A68
100
AcDbEntity
  8
DEFPOINTS
  6
Continuous
 62
     0
100
AcDbPoint
 10
567.0622709670933
 20
650.4363679856743
 30
0.0
  0
POINT
  5
8123
330
7A68
100
AcDbEntity
  8
DEFPOINTS
  6
Continuous
 62
     0
100
AcDbPoint
 10
562.2622709670936
 20
625.0363687172015
 30
0.0
  0
POINT
  5
8124
330
7A68
100
AcDbEntity
  8
DEFPOINTS
  6
Continuous
 62
     0
100
AcDbPoint
 10
534.2120835446276
 20
625.0363687172015
 30
0.0
  0
ENDBLK
  5
7A73
330
7A68
100
AcDbEntity
  8
0
100
AcDbBlockEnd
  0
BLOCK
  5
7A81
330
7A75
100
AcDbEntity
  8
0
100
AcDbBlockBegin
  2
*D11
 70
     1
 10
0.0
 20
0.0
 30
0.0
  3
*D11
  1

  0
LINE
  5
80E3
330
7A75
100
AcDbEntity
  8
D-STR-DIM
  6
Continuous
370
    -2
100
AcDbLine
 10
326.7622709670934
 20
618.9613904344126
 30
0.0
 11
416.7622709670931
 21
618.9613904344126
 31
0.0
  0
LINE
  5
80E4
330
7A75
100
AcDbEntity
  8
D-STR-DIM
  6
Continuous
370
    -2
100
AcDbLine
 10
326.7622709670934
 20
613.1613904344126
 30
0.0
 11
416.7622709670931
 21
613.1613904344126
 31
0.0
  0
LINE
  5
80E5
330
7A75
100
AcDbEntity
  8
D-STR-DIM
  6
Continuous
370
    -2
100
AcDbLine
 10
414.7622709670931
 20
619.9613904344126
 30
0.0
 11
414.7622709670931
 21
620.9613904344125
 31
0.0
  0
LINE
  5
80E6
330
7A75
100
AcDbEntity
  8
D-STR-DIM
  6
Continuous
370
    -2
100
AcDbLine
 10
414.7622709670931
 20
612.1613904344126
 30
0.0
 11
414.7622709670931
 21
611.1613904344125
 31
0.0
  0
LINE
  5
80E7
330
7A75
100
AcDbEntity
  8
D-STR-DIM
  6
Continuous
370
    -2
100
AcDbLine
 10
414.7622709670931
 20
639.1619932639099
 30
0.0
 11
414.7622709670931
 21
618.9613904344126
 31
0.0
  0
MTEXT
  5
80E8
330
7A75
100
AcDbEntity
  8
D-STR-DIM
  6
Continuous
100
AcDbMText
 10
409.2622709670931
 20
630.16199326391
 30
0.0
 40
7.0
 41
0.0
 71
     5
 72
     1
  1
\A1;5.8
 11
0.0000000000000001
 21
1.0
 31
0.0
 73
     1
 44
1.0
1001
ACAD
1000
MTEXTBEGIN
1070
    73
1070
     1
1070
    44
1040
1.0
1070
    74
1070
     0
1000
MTEXTEND
  0
LINE
  5
80E9
330
7A75
100
AcDbEntity
  8
D-STR-DIM
  6
Continuous
370
    -2
100
AcDbLine
 10
414.7622709670931
 20
618.9613904344126
 30
0.0
 11
414.7622709670931
 21
613.1613904344126
 31
0.0
  0
LINE
  5
80EA
330
7A75
100
AcDbEntity
  8
D-STR-DIM
  6
Continuous
370
    -2
100
AcDbLine
 10
414.7622709670931
 20
618.9613904344126
 30
0.0
 11
414.7622709670931
 21
613.1613904344126
 31
0.0
  0
INSERT
  5
80EB
330
7A75
100
AcDbEntity
  8
D-STR-DIM
  6
Continuous
370
    -2
100
AcDbBlockReference
  2
_Origin
 10
414.7622709670931
 20
618.9613904344126
 30
0.0
 50
270.0
  0
INSERT
  5
80EC
330
7A75
100
AcDbEntity
  8
D-STR-DIM
  6
Continuous
370
    -2
100
AcDbBlockReference
  2
_Origin
 10
414.7622709670931
 20
613.1613904344126
 30
0.0
 50
90.0
  0
POINT
  5
80ED
330
7A75
100
AcDbEntity
  8
DEFPOINTS
  6
Continuous
 62
     0
100
AcDbPoint
 10
324.7622709670934
 20
618.9613904344126
 30
0.0
  0
POINT
  5
80EE
330
7A75
100
AcDbEntity
  8
DEFPOINTS
  6
Continuous
 62
     0
100
AcDbPoint
 10
324.7622709670934
 20
613.1613904344126
 30
0.0
  0
POINT
  5
80EF
330
7A75
100
AcDbEntity
  8
DEFPOINTS
  6
Continuous
 62
     0
100
AcDbPoint
 10
414.7622709670931
 20
613.1613904344126
 30
0.0
  0
ENDBLK
  5
7A82
330
7A75
100
AcDbEntity
  8
0
100
AcDbBlockEnd
  0
BLOCK
  5
7A8E
330
7A84
100
AcDbEntity
  8
0
100
AcDbBlockBegin
  2
*D12
 70
     1
 10
0.0
 20
0.0
 30
0.0
  3
*D12
  1

  0
LINE
  5
80DA
330
7A84
100
AcDbEntity
  8
D-STR-DIM
  6
Continuous
370
    -2
100
AcDbLine
 10
326.7622709670934
 20
613.1613904344126
 30
0.0
 11
416.7622709670931
 21
613.1613904344126
 31
0.0
  0
LINE
  5
80DB
330
7A84
100
AcDbEntity
  8
D-STR-DIM
  6
Continuous
370
    -2
100
AcDbLine
 10
326.7622709670934
 20
569.6613904344125
 30
0.0
 11
416.7622709670931
 21
569.6613904344125
 31
0.0
  0
LINE
  5
80DC
330
7A84
100
AcDbEntity
  8
D-STR-DIM
  6
Continuous
370
    -2
100
AcDbLine
 10
414.7622709670931
 20
612.1613904344126
 30
0.0
 11
414.7622709670931
 21
570.6613904344126
 31
0.0
  0
INSERT
  5
80DD
330
7A84
100
AcDbEntity
  8
D-STR-DIM
  6
Continuous
370
    -2
100
AcDbBlockReference
  2
_Origin
 10
414.7622709670931
 20
613.1613904344126
 30
0.0
 50
90.0
  0
INSERT
  5
80DE
330
7A84
100
AcDbEntity
  8
D-STR-DIM
  6
Continuous
370
    -2
100
AcDbBlockReference
  2
_Origin
 10
414.7622709670931
 20
569.6613904344125
 30
0.0
 50
270.0
  0
MTEXT
  5
80DF
330
7A84
100
AcDbEntity
  8
D-STR-DIM
  6
Continuous
100
AcDbMText
 10
409.2622709670931
 20
591.4113904344127
 30
0.0
 40
7.0
 41
0.0
 71
     5
 72
     1
  1
\A1;43.5
 11
0.0000000000000001
 21
1.0
 31
0.0
 73
     1
 44
1.0
1001
ACAD
1000
MTEXTBEGIN
1070
    73
1070
     1
1070
    44
1040
1.0
1070
    74
1070
     0
1000
MTEXTEND
  0
POINT
  5
80E0
330
7A84
100
AcDbEntity
  8
DEFPOINTS
  6
Continuous
 62
     0
100
AcDbPoint
 10
324.7622709670934
 20
613.1613904344126
 30
0.0
  0
POINT
  5
80E1
330
7A84
100
AcDbEntity
  8
DEFPOINTS
  6
Continuous
 62
     0
100
AcDbPoint
 10
324.7622709670934
 20
569.6613904344125
 30
0.0
  0
POINT
  5
80E2
330
7A84
100
AcDbEntity
  8
DEFPOINTS
  6
Continuous
 62
     0
100
AcDbPoint
 10
414.7622709670931
 20
569.6613904344125
 30
0.0
  0
ENDBLK
  5
7A8F
330
7A84
100
AcDbEntity
  8
0
100
AcDbBlockEnd
  0
BLOCK
  5
7B55
330
7B4B
100
AcDbEntity
  8
0
100
AcDbBlockBegin
  2
*D13
 70
     1
 10
0.0
 20
0.0
 30
0.0
  3
*D13
  1

  0
LINE
  5
8243
330
7B4B
100
AcDbEntity
  8
D-STR-DIM
  6
Continuous
370
    -2
100
AcDbLine
 10
682.2420914082782
 20
642.4363679856743
 30
0.0
 11
682.2420914082782
 21
672.4363679856742
 31
0.0
  0
LINE
  5
8244
330
7B4B
100
AcDbEntity
  8
D-STR-DIM
  6
Continuous
370
    -2
100
AcDbLine
 10
728.2420914082782
 20
642.4363679856743
 30
0.0
 11
728.2420914082782
 21
672.4363679856742
 31
0.0
  0
LINE
  5
8245
330
7B4B
100
AcDbEntity
  8
D-STR-DIM
  6
Continuous
370
    -2
100
AcDbLine
 10
683.2420914082781
 20
670.4363679856742
 30
0.0
 11
727.2420914082781
 21
670.4363679856742
 31
0.0
  0
INSERT
  5
8246
330
7B4B
100
AcDbEntity
  8
D-STR-DIM
  6
Continuous
370
    -2
100
AcDbBlockReference
  2
_Origin
 10
682.2420914082782
 20
670.4363679856742
 30
0.0
 50
180.0
  0
INSERT
  5
8247
330
7B4B
100
AcDbEntity
  8
D-STR-DIM
  6
Continuous
370
    -2
100
AcDbBlockReference
  2
_Origin
 10
728.2420914082782
 20
670.4363679856742
 30
0.0
  0
MTEXT
  5
8248
330
7B4B
100
AcDbEntity
  8
D-STR-DIM
  6
Continuous
100
AcDbMText
 10
705.2420914082781
 20
675.9363679856742
 30
0.0
 40
7.0
 41
0.0
 71
     5
 72
     1
  1
\A1;46
 73
     1
 44
1.0
1001
ACAD
1000
MTEXTBEGIN
1070
    73
1070
     1
1070
    44
1040
1.0
1070
    74
1070
     0
1000
MTEXTEND
  0
POINT
  5
8249
330
7B4B
100
AcDbEntity
  8
DEFPOINTS
  6
Continuous
 62
     0
100
AcDbPoint
 10
682.2420914082782
 20
640.4363679856743
 30
0.0
  0
POINT
  5
824A
330
7B4B
100
AcDbEntity
  8
DEFPOINTS
  6
Continuous
 62
     0
100
AcDbPoint
 10
728.2420914082782
 20
640.4363679856743
 30
0.0
  0
POINT
  5
824B
330
7B4B
100
AcDbEntity
  8
DEFPOINTS
  6
Continuous
 62
     0
100
AcDbPoint
 10
728.2420914082782
 20
670.4363679856742
 30
0.0
  0
ENDBLK
  5
7B56
330
7B4B
100
AcDbEntity
  8
0
100
AcDbBlockEnd
  0
BLOCK
  5
7B6B
330
7B61
100
AcDbEntity
  8
0
100
AcDbBlockBegin
  2
*D14
 70
     1
 10
0.0
 20
0.0
 30
0.0
  3
*D14
  1

  0
LINE
  5
8228
330
7B61
100
AcDbEntity
  8
D-STR-DIM
  6
Continuous
370
    -2
100
AcDbLine
 10
718.2420914082785
 20
603.9613904344125
 30
0.0
 11
780.7420914082785
 21
603.9613904344125
 31
0.0
  0
LINE
  5
8229
330
7B61
100
AcDbEntity
  8
D-STR-DIM
  6
Continuous
370
    -2
100
AcDbLine
 10
718.9920914082786
 20
553.9613904344125
 30
0.0
 11
780.7420914082785
 21
553.9613904344125
 31
0.0
  0
LINE
  5
822A
330
7B61
100
AcDbEntity
  8
D-STR-DIM
  6
Continuous
370
    -2
100
AcDbLine
 10
778.7420914082786
 20
602.9613904344124
 30
0.0
 11
778.7420914082786
 21
554.9613904344124
 31
0.0
  0
INSERT
  5
822B
330
7B61
100
AcDbEntity
  8
D-STR-DIM
  6
Continuous
370
    -2
100
AcDbBlockReference
  2
_Origin
 10
778.7420914082786
 20
603.9613904344125
 30
0.0
 50
90.0
  0
INSERT
  5
822C
330
7B61
100
AcDbEntity
  8
D-STR-DIM
  6
Continuous
370
    -2
100
AcDbBlockReference
  2
_Origin
 10
778.7420914082786
 20
553.9613904344125
 30
0.0
 50
270.0
  0
MTEXT
  5
822D
330
7B61
100
AcDbEntity
  8
D-STR-DIM
  6
Continuous
100
AcDbMText
 10
773.2420914082784
 20
578.9613904344126
 30
0.0
 40
7.0
 41
0.0
 71
     5
 72
     1
  1
\A1;50
 11
0.0000000000000001
 21
1.0
 31
0.0
 73
     1
 44
1.0
1001
ACAD
1000
MTEXTBEGIN
1070
    73
1070
     1
1070
    44
1040
1.0
1070
    74
1070
     0
1000
MTEXTEND
  0
POINT
  5
822E
330
7B61
100
AcDbEntity
  8
DEFPOINTS
  6
Continuous
 62
     0
100
AcDbPoint
 10
716.2420914082786
 20
603.9613904344125
 30
0.0
  0
POINT
  5
822F
330
7B61
100
AcDbEntity
  8
DEFPOINTS
  6
Continuous
 62
     0
100
AcDbPoint
 10
716.9920914082786
 20
553.9613904344125
 30
0.0
  0
POINT
  5
8230
330
7B61
100
AcDbEntity
  8
DEFPOINTS
  6
Continuous
 62
     0
100
AcDbPoint
 10
778.7420914082786
 20
553.9613904344125
 30
0.0
  0
ENDBLK
  5
7B6C
330
7B61
100
AcDbEntity
  8
0
100
AcDbBlockEnd
  0
BLOCK
  5
7B78
330
7B6E
100
AcDbEntity
  8
0
100
AcDbBlockBegin
  2
*D15
 70
     1
 10
0.0
 20
0.0
 30
0.0
  3
*D15
  1

  0
LINE
  5
821F
330
7B6E
100
AcDbEntity
  8
D-STR-DIM
  6
Continuous
370
    -2
100
AcDbLine
 10
750.7420914082781
 20
618.9613904344126
 30
0.0
 11
810.7420914082782
 21
618.9613904344124
 31
0.0
  0
LINE
  5
8220
330
7B6E
100
AcDbEntity
  8
D-STR-DIM
  6
Continuous
370
    -2
100
AcDbLine
 10
750.7420914082781
 20
538.9613904344124
 30
0.0
 11
810.7420914082782
 21
538.9613904344123
 31
0.0
  0
LINE
  5
8221
330
7B6E
100
AcDbEntity
  8
D-STR-DIM
  6
Continuous
370
    -2
100
AcDbLine
 10
808.742091408278
 20
617.9613904344124
 30
0.0
 11
808.742091408278
 21
539.9613904344123
 31
0.0
  0
INSERT
  5
8222
330
7B6E
100
AcDbEntity
  8
D-STR-DIM
  6
Continuous
370
    -2
100
AcDbBlockReference
  2
_Origin
 10
808.742091408278
 20
618.9613904344124
 30
0.0
 50
90.0
  0
INSERT
  5
8223
330
7B6E
100
AcDbEntity
  8
D-STR-DIM
  6
Continuous
370
    -2
100
AcDbBlockReference
  2
_Origin
 10
808.742091408278
 20
538.9613904344123
 30
0.0
 50
270.0
  0
MTEXT
  5
8224
330
7B6E
100
AcDbEntity
  8
D-STR-DIM
  6
Continuous
100
AcDbMText
 10
803.2420914082781
 20
578.9613904344125
 30
0.0
 40
7.0
 41
0.0
 71
     5
 72
     1
  1
\A1;80
 11
0.0000000000000001
 21
1.0
 31
0.0
 73
     1
 44
1.0
1001
ACAD
1000
MTEXTBEGIN
1070
    73
1070
     1
1070
    44
1040
1.0
1070
    74
1070
     0
1000
MTEXTEND
  0
POINT
  5
8225
330
7B6E
100
AcDbEntity
  8
DEFPOINTS
  6
Continuous
 62
     0
100
AcDbPoint
 10
748.7420914082782
 20
618.9613904344126
 30
0.0
  0
POINT
  5
8226
330
7B6E
100
AcDbEntity
  8
DEFPOINTS
  6
Continuous
 62
     0
100
AcDbPoint
 10
748.7420914082782
 20
538.9613904344124
 30
0.0
  0
POINT
  5
8227
330
7B6E
100
AcDbEntity
  8
DEFPOINTS
  6
Continuous
 62
     0
100
AcDbPoint
 10
808.742091408278
 20
538.9613904344123
 30
0.0
  0
ENDBLK
  5
7B79
330
7B6E
100
AcDbEntity
  8
0
100
AcDbBlockEnd
  0
BLOCK
  5
7B85
330
7B7B
100
AcDbEntity
  8
0
100
AcDbBlockBegin
  2
*D16
 70
     1
 10
0.0
 20
0.0
 30
0.0
  3
*D16
  1

  0
LINE
  5
8231
330
7B7B
100
AcDbEntity
  8
D-STR-DIM
  6
Continuous
370
    -2
100
AcDbLine
 10
718.9920914082786
 20
553.9613904344125
 30
0.0
 11
780.7420914082785
 21
553.9613904344125
 31
0.0
  0
LINE
  5
8232
330
7B7B
100
AcDbEntity
  8
D-STR-DIM
  6
Continuous
370
    -2
100
AcDbLine
 10
750.7420914082781
 20
538.9613904344124
 30
0.0
 11
780.7420914082785
 21
538.9613904344123
 31
0.0
  0
LINE
  5
8233
330
7B7B
100
AcDbEntity
  8
D-STR-DIM
  6
Continuous
370
    -2
100
AcDbLine
 10
778.7420914082786
 20
552.9613904344124
 30
0.0
 11
778.7420914082786
 21
539.9613904344123
 31
0.0
  0
INSERT
  5
8234
330
7B7B
100
AcDbEntity
  8
D-STR-DIM
  6
Continuous
370
    -2
100
AcDbBlockReference
  2
_Origin
 10
778.7420914082786
 20
553.9613904344125
 30
0.0
 50
90.0
  0
INSERT
  5
8235
330
7B7B
100
AcDbEntity
  8
D-STR-DIM
  6
Continuous
370
    -2
100
AcDbBlockReference
  2
_Origin
 10
778.7420914082786
 20
538.9613904344123
 30
0.0
 50
270.0
  0
MTEXT
  5
8236
330
7B7B
100
AcDbEntity
  8
D-STR-DIM
  6
Continuous
100
AcDbMText
 10
773.2420914082784
 20
546.4613904344125
 30
0.0
 40
7.0
 41
0.0
 71
     5
 72
     1
  1
\A1;15
 11
0.0000000000000001
 21
1.0
 31
0.0
 73
     1
 44
1.0
1001
ACAD
1000
MTEXTBEGIN
1070
    73
1070
     1
1070
    44
1040
1.0
1070
    74
1070
     0
1000
MTEXTEND
  0
POINT
  5
8237
330
7B7B
100
AcDbEntity
  8
DEFPOINTS
  6
Continuous
 62
     0
100
AcDbPoint
 10
716.9920914082786
 20
553.9613904344125
 30
0.0
  0
POINT
  5
8238
330
7B7B
100
AcDbEntity
  8
DEFPOINTS
  6
Continuous
 62
     0
100
AcDbPoint
 10
748.7420914082782
 20
538.9613904344124
 30
0.0
  0
POINT
  5
8239
330
7B7B
100
AcDbEntity
  8
DEFPOINTS
  6
Continuous
 62
     0
100
AcDbPoint
 10
778.7420914082786
 20
538.9613904344123
 30
0.0
  0
ENDBLK
  5
7B86
330
7B7B
100
AcDbEntity
  8
0
100
AcDbBlockEnd
  0
BLOCK
  5
7B9B
330
7B91
100
AcDbEntity
  8
0
100
AcDbBlockBegin
  2
*D17
 70
     1
 10
0.0
 20
0.0
 30
0.0
  3
*D17
  1

  0
LINE
  5
823A
330
7B91
100
AcDbEntity
  8
D-STR-DIM
  6
Continuous
370
    -2
100
AcDbLine
 10
718.2420914082785
 20
603.9613904344125
 30
0.0
 11
780.7420914082781
 21
603.9613904344125
 31
0.0
  0
LINE
  5
823B
330
7B91
100
AcDbEntity
  8
D-STR-DIM
  6
Continuous
370
    -2
100
AcDbLine
 10
750.7420914082781
 20
618.9613904344126
 30
0.0
 11
780.7420914082781
 21
618.9613904344124
 31
0.0
  0
LINE
  5
823C
330
7B91
100
AcDbEntity
  8
D-STR-DIM
  6
Continuous
370
    -2
100
AcDbLine
 10
778.7420914082781
 20
604.9613904344124
 30
0.0
 11
778.7420914082781
 21
617.9613904344124
 31
0.0
  0
INSERT
  5
823D
330
7B91
100
AcDbEntity
  8
D-STR-DIM
  6
Continuous
370
    -2
100
AcDbBlockReference
  2
_Origin
 10
778.7420914082781
 20
603.9613904344125
 30
0.0
 50
270.0
  0
INSERT
  5
823E
330
7B91
100
AcDbEntity
  8
D-STR-DIM
  6
Continuous
370
    -2
100
AcDbBlockReference
  2
_Origin
 10
778.7420914082781
 20
618.9613904344124
 30
0.0
 50
90.0
  0
MTEXT
  5
823F
330
7B91
100
AcDbEntity
  8
D-STR-DIM
  6
Continuous
100
AcDbMText
 10
773.242091408278
 20
611.4613904344126
 30
0.0
 40
7.0
 41
0.0
 71
     5
 72
     1
  1
\A1;15
 11
0.0000000000000001
 21
1.0
 31
0.0
 73
     1
 44
1.0
1001
ACAD
1000
MTEXTBEGIN
1070
    73
1070
     1
1070
    44
1040
1.0
1070
    74
1070
     0
1000
MTEXTEND
  0
POINT
  5
8240
330
7B91
100
AcDbEntity
  8
DEFPOINTS
  6
Continuous
 62
     0
100
AcDbPoint
 10
716.2420914082786
 20
603.9613904344125
 30
0.0
  0
POINT
  5
8241
330
7B91
100
AcDbEntity
  8
DEFPOINTS
  6
Continuous
 62
     0
100
AcDbPoint
 10
748.7420914082782
 20
618.9613904344126
 30
0.0
  0
POINT
  5
8242
330
7B91
100
AcDbEntity
  8
DEFPOINTS
  6
Continuous
 62
     0
100
AcDbPoint
 10
778.7420914082781
 20
618.9613904344124
 30
0.0
  0
ENDBLK
  5
7B9C
330
7B91
100
AcDbEntity
  8
0
100
AcDbBlockEnd
  0
BLOCK
  5
7BA8
330
7B9E
100
AcDbEntity
  8
0
100
AcDbBlockBegin
  2
*D18
 70
     1
 10
0.0
 20
0.0
 30
0.0
  3
*D18
  1

  0
LINE
  5
8216
330
7B9E
100
AcDbEntity
  8
D-STR-DIM
  6
Continuous
370
    -2
100
AcDbLine
 10
661.7420914082781
 20
536.9613904344125
 30
0.0
 11
661.7420914082781
 21
506.9613904344124
 31
0.0
  0
LINE
  5
8217
330
7B9E
100
AcDbEntity
  8
D-STR-DIM
  6
Continuous
370
    -2
100
AcDbLine
 10
748.7420914082782
 20
536.9613904344125
 30
0.0
 11
748.7420914082782
 21
506.9613904344124
 31
0.0
  0
LINE
  5
8218
330
7B9E
100
AcDbEntity
  8
D-STR-DIM
  6
Continuous
370
    -2
100
AcDbLine
 10
662.7420914082781
 20
508.9613904344124
 30
0.0
 11
747.7420914082781
 21
508.9613904344124
 31
0.0
  0
INSERT
  5
8219
330
7B9E
100
AcDbEntity
  8
D-STR-DIM
  6
Continuous
370
    -2
100
AcDbBlockReference
  2
_Origin
 10
661.7420914082781
 20
508.9613904344124
 30
0.0
 50
180.0
  0
INSERT
  5
821A
330
7B9E
100
AcDbEntity
  8
D-STR-DIM
  6
Continuous
370
    -2
100
AcDbBlockReference
  2
_Origin
 10
748.7420914082782
 20
508.9613904344124
 30
0.0
  0
MTEXT
  5
821B
330
7B9E
100
AcDbEntity
  8
D-STR-DIM
  6
Continuous
100
AcDbMText
 10
705.2420914082781
 20
514.4613904344124
 30
0.0
 40
7.0
 41
0.0
 71
     5
 72
     1
  1
\A1;87
 73
     1
 44
1.0
1001
ACAD
1000
MTEXTBEGIN
1070
    73
1070
     1
1070
    44
1040
1.0
1070
    74
1070
     0
1000
MTEXTEND
  0
POINT
  5
821C
330
7B9E
100
AcDbEntity
  8
DEFPOINTS
  6
Continuous
 62
     0
100
AcDbPoint
 10
661.7420914082781
 20
538.9613904344125
 30
0.0
  0
POINT
  5
821D
330
7B9E
100
AcDbEntity
  8
DEFPOINTS
  6
Continuous
 62
     0
100
AcDbPoint
 10
748.7420914082782
 20
538.9613904344124
 30
0.0
  0
POINT
  5
821E
330
7B9E
100
AcDbEntity
  8
DEFPOINTS
  6
Continuous
 62
     0
100
AcDbPoint
 10
748.7420914082782
 20
508.9613904344124
 30
0.0
  0
ENDBLK
  5
7BA9
330
7B9E
100
AcDbEntity
  8
0
100
AcDbBlockEnd
  0
BLOCK
  5
7BCB
330
7BC1
100
AcDbEntity
  8
0
100
AcDbBlockBegin
  2
*D19
 70
     1
 10
0.0
 20
0.0
 30
0.0
  3
*D19
  1

  0
LINE
  5
8181
330
7BC1
100
AcDbEntity
  8
D-STR-DIM
  6
Continuous
370
    -2
100
AcDbLine
 10
988.5352705949767
 20
862.662571839731
 30
0.0
 11
988.5352705949767
 21
922.6625718397311
 31
0.0
  0
LINE
  5
8182
330
7BC1
100
AcDbEntity
  8
D-STR-DIM
  6
Continuous
370
    -2
100
AcDbLine
 10
1288.535270594977
 20
847.6625718397311
 30
0.0
 11
1288.535270594977
 21
922.6625718397311
 31
0.0
  0
LINE
  5
8183
330
7BC1
100
AcDbEntity
  8
D-STR-DIM
  6
Continuous
370
    -2
100
AcDbLine
 10
989.5352705949767
 20
920.662571839731
 30
0.0
 11
1287.535270594976
 21
920.662571839731
 31
0.0
  0
INSERT
  5
8184
330
7BC1
100
AcDbEntity
  8
D-STR-DIM
  6
Continuous
370
    -2
100
AcDbBlockReference
  2
_Origin
 10
988.5352705949767
 20
920.662571839731
 30
0.0
 50
180.0
  0
INSERT
  5
8185
330
7BC1
100
AcDbEntity
  8
D-STR-DIM
  6
Continuous
370
    -2
100
AcDbBlockReference
  2
_Origin
 10
1288.535270594977
 20
920.662571839731
 30
0.0
  0
MTEXT
  5
8186
330
7BC1
100
AcDbEntity
  8
D-STR-DIM
  6
Continuous
100
AcDbMText
 10
1138.535270594976
 20
926.162571839731
 30
0.0
 40
7.0
 41
0.0
 71
     5
 72
     1
  1
\A1;300
 73
     1
 44
1.0
1001
ACAD
1000
MTEXTBEGIN
1070
    73
1070
     1
1070
    44
1040
1.0
1070
    74
1070
     0
1000
MTEXTEND
  0
POINT
  5
8187
330
7BC1
100
AcDbEntity
  8
DEFPOINTS
  6
Continuous
 62
     0
100
AcDbPoint
 10
988.5352705949767
 20
860.662571839731
 30
0.0
  0
POINT
  5
8188
330
7BC1
100
AcDbEntity
  8
DEFPOINTS
  6
Continuous
 62
     0
100
AcDbPoint
 10
1288.535270594977
 20
845.662571839731
 30
0.0
  0
POINT
  5
8189
330
7BC1
100
AcDbEntity
  8
DEFPOINTS
  6
Continuous
 62
     0
100
AcDbPoint
 10
1288.535270594977
 20
920.662571839731
 30
0.0
  0
ENDBLK
  5
7BCC
330
7BC1
100
AcDbEntity
  8
0
100
AcDbBlockEnd
  0
BLOCK
  5
7BD7
330
7BCD
100
AcDbEntity
  8
0
100
AcDbBlockBegin
  2
*D20
 70
     1
 10
0.0
 20
0.0
 30
0.0
  3
*D20
  1

  0
LINE
  5
8202
330
7BCD
100
AcDbEntity
  8
D-STR-DIM
  6
Continuous
370
    -2
100
AcDbLine
 10
1284.335270594977
 20
852.662571839731
 30
0.0
 11
1329.335270594977
 21
852.662571839731
 31
0.0
  0
LINE
  5
8203
330
7BCD
100
AcDbEntity
  8
D-STR-DIM
  6
Continuous
370
    -2
100
AcDbLine
 10
1284.335270594977
 20
792.6625718397311
 30
0.0
 11
1329.335270594977
 21
792.6625718397311
 31
0.0
  0
LINE
  5
8204
330
7BCD
100
AcDbEntity
  8
D-STR-DIM
  6
Continuous
370
    -2
100
AcDbLine
 10
1327.335270594977
 20
851.662571839731
 30
0.0
 11
1327.335270594977
 21
793.662571839731
 31
0.0
  0
INSERT
  5
8205
330
7BCD
100
AcDbEntity
  8
D-STR-DIM
  6
Continuous
370
    -2
100
AcDbBlockReference
  2
_Origin
 10
1327.335270594977
 20
852.662571839731
 30
0.0
 50
90.0
  0
INSERT
  5
8206
330
7BCD
100
AcDbEntity
  8
D-STR-DIM
  6
Continuous
370
    -2
100
AcDbBlockReference
  2
_Origin
 10
1327.335270594977
 20
792.6625718397311
 30
0.0
 50
270.0
  0
MTEXT
  5
8207
330
7BCD
100
AcDbEntity
  8
D-STR-DIM
  6
Continuous
100
AcDbMText
 10
1321.835270594976
 20
822.6625718397313
 30
0.0
 40
7.0
 41
0.0
 71
     5
 72
     1
  1
\A1;60
 11
0.0000000000000001
 21
1.0
 31
0.0
 73
     1
 44
1.0
1001
ACAD
1000
MTEXTBEGIN
1070
    73
1070
     1
1070
    44
1040
1.0
1070
    74
1070
     0
1000
MTEXTEND
  0
POINT
  5
8208
330
7BCD
100
AcDbEntity
  8
DEFPOINTS
  6
Continuous
 62
     0
100
AcDbPoint
 10
1282.335270594977
 20
852.662571839731
 30
0.0
  0
POINT
  5
8209
330
7BCD
100
AcDbEntity
  8
DEFPOINTS
  6
Continuous
 62
     0
100
AcDbPoint
 10
1282.335270594977
 20
792.6625718397311
 30
0.0
  0
POINT
  5
820A
330
7BCD
100
AcDbEntity
  8
DEFPOINTS
  6
Continuous
 62
     0
100
AcDbPoint
 10
1327.335270594977
 20
792.6625718397311
 30
0.0
  0
ENDBLK
  5
7BD8
330
7BCD
100
AcDbEntity
  8
0
100
AcDbBlockEnd
  0
BLOCK
  5
7BE5
330
7BD9
100
AcDbEntity
  8
0
100
AcDbBlockBegin
  2
*D21
 70
     1
 10
0.0
 20
0.0
 30
0.0
  3
*D21
  1

  0
LINE
  5
820B
330
7BD9
100
AcDbEntity
  8
D-STR-DIM
  6
Continuous
370
    -2
100
AcDbLine
 10
1288.535270594977
 20
797.662571839731
 30
0.0
 11
1288.535270594977
 21
763.662571839731
 31
0.0
  0
LINE
  5
820C
330
7BD9
100
AcDbEntity
  8
D-STR-DIM
  6
Continuous
370
    -2
100
AcDbLine
 10
1285.335270594977
 20
793.662571839731
 30
0.0
 11
1285.335270594977
 21
763.662571839731
 31
0.0
  0
LINE
  5
820D
330
7BD9
100
AcDbEntity
  8
D-STR-DIM
  6
Continuous
370
    -2
100
AcDbLine
 10
1289.535270594976
 20
765.662571839731
 30
0.0
 11
1290.535270594977
 21
765.662571839731
 31
0.0
  0
LINE
  5
820E
330
7BD9
100
AcDbEntity
  8
D-STR-DIM
  6
Continuous
370
    -2
100
AcDbLine
 10
1284.335270594977
 20
765.662571839731
 30
0.0
 11
1283.335270594977
 21
765.662571839731
 31
0.0
  0
LINE
  5
820F
330
7BD9
100
AcDbEntity
  8
D-STR-DIM
  6
Continuous
370
    -2
100
AcDbLine
 10
1288.535270594977
 20
765.662571839731
 30
0.0
 11
1285.335270594977
 21
765.662571839731
 31
0.0
  0
INSERT
  5
8210
330
7BD9
100
AcDbEntity
  8
D-STR-DIM
  6
Continuous
370
    -2
100
AcDbBlockReference
  2
_Origin
 10
1288.535270594977
 20
765.662571839731
 30
0.0
 50
180.0
  0
INSERT
  5
8211
330
7BD9
100
AcDbEntity
  8
D-STR-DIM
  6
Continuous
370
    -2
100
AcDbBlockReference
  2
_Origin
 10
1285.335270594977
 20
765.662571839731
 30
0.0
  0
MTEXT
  5
8212
330
7BD9
100
AcDbEntity
  8
D-STR-DIM
  6
Continuous
100
AcDbMText
 10
1286.935270594977
 20
771.1625718397311
 30
0.0
 40
7.0
 41
0.0
 71
     5
 72
     1
  1
\A1;3.2
 73
     1
 44
1.0
1001
ACAD
1000
MTEXTBEGIN
1070
    73
1070
     1
1070
    44
1040
1.0
1070
    74
1070
     0
1000
MTEXTEND
  0
POINT
  5
8213
330
7BD9
100
AcDbEntity
  8
DEFPOINTS
  6
Continuous
 62
     0
100
AcDbPoint
 10
1288.535270594977
 20
799.6625718397311
 30
0.0
  0
POINT
  5
8214
330
7BD9
100
AcDbEntity
  8
DEFPOINTS
  6
Continuous
 62
     0
100
AcDbPoint
 10
1285.335270594977
 20
795.6625718397311
 30
0.0
  0
POINT
  5
8215
330
7BD9
100
AcDbEntity
  8
DEFPOINTS
  6
Continuous
 62
     0
100
AcDbPoint
 10
1285.335270594977
 20
765.662571839731
 30
0.0
  0
ENDBLK
  5
7BE6
330
7BD9
100
AcDbEntity
  8
0
100
AcDbBlockEnd
  0
BLOCK
  5
7BF1
330
7BE7
100
AcDbEntity
  8
0
100
AcDbBlockBegin
  2
*D22
 70
     1
 10
0.0
 20
0.0
 30
0.0
  3
*D22
  1

  0
LINE
  5
8178
330
7BE7
100
AcDbEntity
  8
D-STR-DIM
  6
Continuous
370
    -2
100
AcDbLine
 10
993.0352705949767
 20
862.662571839731
 30
0.0
 11
993.0352705949767
 21
892.6625718397311
 31
0.0
  0
LINE
  5
8179
330
7BE7
100
AcDbEntity
  8
D-STR-DIM
  6
Continuous
370
    -2
100
AcDbLine
 10
1288.535270594977
 20
847.6625718397311
 30
0.0
 11
1288.535270594977
 21
892.6625718397311
 31
0.0
  0
LINE
  5
817A
330
7BE7
100
AcDbEntity
  8
D-STR-DIM
  6
Continuous
370
    -2
100
AcDbLine
 10
994.0352705949766
 20
890.6625718397311
 30
0.0
 11
1287.535270594976
 21
890.6625718397311
 31
0.0
  0
INSERT
  5
817B
330
7BE7
100
AcDbEntity
  8
D-STR-DIM
  6
Continuous
370
    -2
100
AcDbBlockReference
  2
_Origin
 10
993.0352705949767
 20
890.6625718397311
 30
0.0
 50
180.0
  0
INSERT
  5
817C
330
7BE7
100
AcDbEntity
  8
D-STR-DIM
  6
Continuous
370
    -2
100
AcDbBlockReference
  2
_Origin
 10
1288.535270594977
 20
890.6625718397311
 30
0.0
  0
MTEXT
  5
817D
330
7BE7
100
AcDbEntity
  8
D-STR-DIM
  6
Continuous
100
AcDbMText
 10
1140.785270594977
 20
896.1625718397311
 30
0.0
 40
7.0
 41
0.0
 71
     5
 72
     1
  1
\A1;295.5
 73
     1
 44
1.0
1001
ACAD
1000
MTEXTBEGIN
1070
    73
1070
     1
1070
    44
1040
1.0
1070
    74
1070
     0
1000
MTEXTEND
  0
POINT
  5
817E
330
7BE7
100
AcDbEntity
  8
DEFPOINTS
  6
Continuous
 62
     0
100
AcDbPoint
 10
993.0352705949767
 20
860.662571839731
 30
0.0
  0
POINT
  5
817F
330
7BE7
100
AcDbEntity
  8
DEFPOINTS
  6
Continuous
 62
     0
100
AcDbPoint
 10
1288.535270594977
 20
845.662571839731
 30
0.0
  0
POINT
  5
8180
330
7BE7
100
AcDbEntity
  8
DEFPOINTS
  6
Continuous
 62
     0
100
AcDbPoint
 10
1288.535270594977
 20
890.6625718397311
 30
0.0
  0
ENDBLK
  5
7BF2
330
7BE7
100
AcDbEntity
  8
0
100
AcDbBlockEnd
  0
BLOCK
  5
7C26
330
7C1A
100
AcDbEntity
  8
0
100
AcDbBlockBegin
  2
*D23
 70
     1
 10
0.0
 20
0.0
 30
0.0
  3
*D23
  1

  0
LINE
  5
81A9
330
7C1A
100
AcDbEntity
  8
D-STR-DIM
  6
Continuous
370
    -2
100
AcDbLine
 10
988.5352705949767
 20
862.662571839731
 30
0.0
 11
988.5352705949767
 21
892.6625718397311
 31
0.0
  0
LINE
  5
81AA
330
7C1A
100
AcDbEntity
  8
D-STR-DIM
  6
Continuous
370
    -2
100
AcDbLine
 10
993.0352705949767
 20
862.662571839731
 30
0.0
 11
993.0352705949767
 21
892.6625718397311
 31
0.0
  0
LINE
  5
81AB
330
7C1A
100
AcDbEntity
  8
D-STR-DIM
  6
Continuous
370
    -2
100
AcDbLine
 10
987.5352705949767
 20
890.6625718397311
 30
0.0
 11
986.5352705949767
 21
890.6625718397311
 31
0.0
  0
LINE
  5
81AC
330
7C1A
100
AcDbEntity
  8
D-STR-DIM
  6
Continuous
370
    -2
100
AcDbLine
 10
994.0352705949766
 20
890.6625718397311
 30
0.0
 11
995.0352705949766
 21
890.6625718397311
 31
0.0
  0
LINE
  5
81AD
330
7C1A
100
AcDbEntity
  8
D-STR-DIM
  6
Continuous
370
    -2
100
AcDbLine
 10
988.5352705949767
 20
890.6625718397311
 30
0.0
 11
993.0352705949767
 21
890.6625718397311
 31
0.0
  0
INSERT
  5
81AE
330
7C1A
100
AcDbEntity
  8
D-STR-DIM
  6
Continuous
370
    -2
100
AcDbBlockReference
  2
_Origin
 10
988.5352705949767
 20
890.6625718397311
 30
0.0
  0
INSERT
  5
81AF
330
7C1A
100
AcDbEntity
  8
D-STR-DIM
  6
Continuous
370
    -2
100
AcDbBlockReference
  2
_Origin
 10
993.0352705949767
 20
890.6625718397311
 30
0.0
 50
180.0
  0
MTEXT
  5
81B0
330
7C1A
100
AcDbEntity
  8
D-STR-DIM
  6
Continuous
100
AcDbMText
 10
990.7852705949768
 20
896.1625718397311
 30
0.0
 40
7.0
 41
0.0
 71
     5
 72
     1
  1
\A1;4.5
 73
     1
 44
1.0
1001
ACAD
1000
MTEXTBEGIN
1070
    73
1070
     1
1070
    44
1040
1.0
1070
    74
1070
     0
1000
MTEXTEND
  0
POINT
  5
81B1
330
7C1A
100
AcDbEntity
  8
DEFPOINTS
  6
Continuous
 62
     0
100
AcDbPoint
 10
988.5352705949767
 20
860.662571839731
 30
0.0
  0
POINT
  5
81B2
330
7C1A
100
AcDbEntity
  8
DEFPOINTS
  6
Continuous
 62
     0
100
AcDbPoint
 10
993.0352705949767
 20
860.662571839731
 30
0.0
  0
POINT
  5
81B3
330
7C1A
100
AcDbEntity
  8
DEFPOINTS
  6
Continuous
 62
     0
100
AcDbPoint
 10
993.0352705949767
 20
890.6625718397311
 30
0.0
  0
ENDBLK
  5
7C27
330
7C1A
100
AcDbEntity
  8
0
100
AcDbBlockEnd
  0
BLOCK
  5
7C66
330
7C5C
100
AcDbEntity
  8
0
100
AcDbBlockBegin
  2
*D24
 70
     1
 10
0.0
 20
0.0
 30
0.0
  3
*D24
  1

  0
LINE
  5
81A0
330
7C5C
100
AcDbEntity
  8
D-STR-DIM
  6
Continuous
370
    -2
100
AcDbLine
 10
993.0352705949767
 20
782.662571839731
 30
0.0
 11
993.0352705949767
 21
747.162571839731
 31
0.0
  0
LINE
  5
81A1
330
7C5C
100
AcDbEntity
  8
D-STR-DIM
  6
Continuous
370
    -2
100
AcDbLine
 10
978.0352705949766
 20
777.162571839731
 30
0.0
 11
978.0352705949766
 21
747.162571839731
 31
0.0
  0
LINE
  5
81A2
330
7C5C
100
AcDbEntity
  8
D-STR-DIM
  6
Continuous
370
    -2
100
AcDbLine
 10
992.0352705949767
 20
749.162571839731
 30
0.0
 11
979.0352705949768
 21
749.162571839731
 31
0.0
  0
INSERT
  5
81A3
330
7C5C
100
AcDbEntity
  8
D-STR-DIM
  6
Continuous
370
    -2
100
AcDbBlockReference
  2
_Origin
 10
993.0352705949767
 20
749.162571839731
 30
0.0
  0
INSERT
  5
81A4
330
7C5C
100
AcDbEntity
  8
D-STR-DIM
  6
Continuous
370
    -2
100
AcDbBlockReference
  2
_Origin
 10
978.0352705949766
 20
749.162571839731
 30
0.0
 50
180.0
  0
MTEXT
  5
81A5
330
7C5C
100
AcDbEntity
  8
D-STR-DIM
  6
Continuous
100
AcDbMText
 10
985.5352705949767
 20
754.6625718397311
 30
0.0
 40
7.0
 41
0.0
 71
     5
 72
     1
  1
\A1;15
 73
     1
 44
1.0
1001
ACAD
1000
MTEXTBEGIN
1070
    73
1070
     1
1070
    44
1040
1.0
1070
    74
1070
     0
1000
MTEXTEND
  0
POINT
  5
81A6
330
7C5C
100
AcDbEntity
  8
DEFPOINTS
  6
Continuous
 62
     0
100
AcDbPoint
 10
993.0352705949767
 20
784.662571839731
 30
0.0
  0
POINT
  5
81A7
330
7C5C
100
AcDbEntity
  8
DEFPOINTS
  6
Continuous
 62
     0
100
AcDbPoint
 10
978.0352705949766
 20
779.1625718397311
 30
0.0
  0
POINT
  5
81A8
330
7C5C
100
AcDbEntity
  8
DEFPOINTS
  6
Continuous
 62
     0
100
AcDbPoint
 10
978.0352705949766
 20
749.162571839731
 30
0.0
  0
ENDBLK
  5
7C67
330
7C5C
100
AcDbEntity
  8
0
100
AcDbBlockEnd
  0
BLOCK
  5
7C76
330
7C68
100
AcDbEntity
  8
0
100
AcDbBlockBegin
  2
*D25
 70
     1
 10
0.0
 20
0.0
 30
0.0
  3
*D25
  1

  0
LINE
  5
81BF
330
7C68
100
AcDbEntity
  8
D-STR-DIM
  6
Continuous
370
    -2
100
AcDbLine
 10
983.0352705949767
 20
836.662571839731
 30
0.0
 11
983.0352705949767
 21
845.662571839731
 31
0.0
  0
LINE
  5
81C0
330
7C68
100
AcDbEntity
  8
D-STR-DIM
  6
Continuous
370
    -2
100
AcDbLine
 10
988.5352705949767
 20
836.662571839731
 30
0.0
 11
988.5352705949767
 21
845.662571839731
 31
0.0
  0
LINE
  5
81C1
330
7C68
100
AcDbEntity
  8
D-STR-DIM
  6
Continuous
370
    -2
100
AcDbLine
 10
982.0352705949767
 20
843.662571839731
 30
0.0
 11
981.0352705949767
 21
843.662571839731
 31
0.0
  0
LINE
  5
81C2
330
7C68
100
AcDbEntity
  8
D-STR-DIM
  6
Continuous
370
    -2
100
AcDbLine
 10
989.5352705949767
 20
843.662571839731
 30
0.0
 11
990.5352705949766
 21
843.662571839731
 31
0.0
  0
LINE
  5
81C3
330
7C68
100
AcDbEntity
  8
D-STR-DIM
  6
Continuous
370
    -2
100
AcDbLine
 10
962.0304756409455
 20
843.662571839731
 30
0.0
 11
983.0352705949767
 21
843.662571839731
 31
0.0
  0
MTEXT
  5
81C4
330
7C68
100
AcDbEntity
  8
D-STR-DIM
  6
Continuous
100
AcDbMText
 10
971.0304756409454
 20
849.162571839731
 30
0.0
 40
7.0
 41
0.0
 71
     5
 72
     1
  1
\A1;5.5
 73
     1
 44
1.0
1001
ACAD
1000
MTEXTBEGIN
1070
    73
1070
     1
1070
    44
1040
1.0
1070
    74
1070
     0
1000
MTEXTEND
  0
LINE
  5
81C5
330
7C68
100
AcDbEntity
  8
D-STR-DIM
  6
Continuous
370
    -2
100
AcDbLine
 10
983.0352705949767
 20
843.662571839731
 30
0.0
 11
988.5352705949767
 21
843.662571839731
 31
0.0
  0
LINE
  5
81C6
330
7C68
100
AcDbEntity
  8
D-STR-DIM
  6
Continuous
370
    -2
100
AcDbLine
 10
983.0352705949767
 20
843.662571839731
 30
0.0
 11
988.5352705949767
 21
843.662571839731
 31
0.0
  0
INSERT
  5
81C7
330
7C68
100
AcDbEntity
  8
D-STR-DIM
  6
Continuous
370
    -2
100
AcDbBlockReference
  2
_Origin
 10
983.0352705949767
 20
843.662571839731
 30
0.0
  0
INSERT
  5
81C8
330
7C68
100
AcDbEntity
  8
D-STR-DIM
  6
Continuous
370
    -2
100
AcDbBlockReference
  2
_Origin
 10
988.5352705949767
 20
843.662571839731
 30
0.0
 50
180.0
  0
POINT
  5
81C9
330
7C68
100
AcDbEntity
  8
DEFPOINTS
  6
Continuous
 62
     0
100
AcDbPoint
 10
983.0352705949767
 20
834.662571839731
 30
0.0
  0
POINT
  5
81CA
330
7C68
100
AcDbEntity
  8
DEFPOINTS
  6
Continuous
 62
     0
100
AcDbPoint
 10
988.5352705949767
 20
834.662571839731
 30
0.0
  0
POINT
  5
81CB
330
7C68
100
AcDbEntity
  8
DEFPOINTS
  6
Continuous
 62
     0
100
AcDbPoint
 10
988.5352705949767
 20
843.662571839731
 30
0.0
  0
ENDBLK
  5
7C77
330
7C68
100
AcDbEntity
  8
0
100
AcDbBlockEnd
  0
BLOCK
  5
7C84
330
7C78
100
AcDbEntity
  8
0
100
AcDbBlockBegin
  2
*D26
 70
     1
 10
0.0
 20
0.0
 30
0.0
  3
*D26
  1

  0
LINE
  5
81B4
330
7C78
100
AcDbEntity
  8
D-STR-DIM
  6
Continuous
370
    -2
100
AcDbLine
 10
976.0352705949767
 20
866.162571839731
 30
0.0
 11
946.0352705949768
 21
866.162571839731
 31
0.0
  0
LINE
  5
81B5
330
7C78
100
AcDbEntity
  8
D-STR-DIM
  6
Continuous
370
    -2
100
AcDbLine
 10
976.0352705949767
 20
861.662571839731
 30
0.0
 11
946.0352705949768
 21
861.662571839731
 31
0.0
  0
LINE
  5
81B6
330
7C78
100
AcDbEntity
  8
D-STR-DIM
  6
Continuous
370
    -2
100
AcDbLine
 10
948.0352705949767
 20
867.162571839731
 30
0.0
 11
948.0352705949767
 21
868.1625718397311
 31
0.0
  0
LINE
  5
81B7
330
7C78
100
AcDbEntity
  8
D-STR-DIM
  6
Continuous
370
    -2
100
AcDbLine
 10
948.0352705949767
 20
860.662571839731
 30
0.0
 11
948.0352705949767
 21
859.662571839731
 31
0.0
  0
LINE
  5
81B8
330
7C78
100
AcDbEntity
  8
D-STR-DIM
  6
Continuous
370
    -2
100
AcDbLine
 10
948.0352705949767
 20
866.162571839731
 30
0.0
 11
948.0352705949767
 21
861.662571839731
 31
0.0
  0
INSERT
  5
81B9
330
7C78
100
AcDbEntity
  8
D-STR-DIM
  6
Continuous
370
    -2
100
AcDbBlockReference
  2
_Origin
 10
948.0352705949767
 20
866.162571839731
 30
0.0
 50
270.0
  0
INSERT
  5
81BA
330
7C78
100
AcDbEntity
  8
D-STR-DIM
  6
Continuous
370
    -2
100
AcDbBlockReference
  2
_Origin
 10
948.0352705949767
 20
861.662571839731
 30
0.0
 50
90.0
  0
MTEXT
  5
81BB
330
7C78
100
AcDbEntity
  8
D-STR-DIM
  6
Continuous
100
AcDbMText
 10
942.5352705949764
 20
863.9125718397311
 30
0.0
 40
7.0
 41
0.0
 71
     5
 72
     1
  1
\A1;4.5
 11
0.0000000000000001
 21
1.0
 31
0.0
 73
     1
 44
1.0
1001
ACAD
1000
MTEXTBEGIN
1070
    73
1070
     1
1070
    44
1040
1.0
1070
    74
1070
     0
1000
MTEXTEND
  0
POINT
  5
81BC
330
7C78
100
AcDbEntity
  8
DEFPOINTS
  6
Continuous
 62
     0
100
AcDbPoint
 10
978.0352705949766
 20
866.162571839731
 30
0.0
  0
POINT
  5
81BD
330
7C78
100
AcDbEntity
  8
DEFPOINTS
  6
Continuous
 62
     0
100
AcDbPoint
 10
978.0352705949766
 20
861.662571839731
 30
0.0
  0
POINT
  5
81BE
330
7C78
100
AcDbEntity
  8
DEFPOINTS
  6
Continuous
 62
     0
100
AcDbPoint
 10
948.0352705949767
 20
861.662571839731
 30
0.0
  0
ENDBLK
  5
7C85
330
7C78
100
AcDbEntity
  8
0
100
AcDbBlockEnd
  0
BLOCK
  5
7CBE
330
7CB4
100
AcDbEntity
  8
0
100
AcDbBlockBegin
  2
*D27
 70
     1
 10
0.0
 20
0.0
 30
0.0
  3
*D27
  1

  0
LINE
  5
81D5
330
7CB4
100
AcDbEntity
  8
D-STR-DIM
  6
Continuous
370
    -2
100
AcDbLine
 10
1283.335270594977
 20
652.9363634136297
 30
0.0
 11
1250.485083172511
 21
652.9363634136298
 31
0.0
  0
LINE
  5
81D6
330
7CB4
100
AcDbEntity
  8
D-STR-DIM
  6
Continuous
370
    -2
100
AcDbLine
 10
1278.535270594977
 20
627.5363641451569
 30
0.0
 11
1250.485083172511
 21
627.5363641451569
 31
0.0
  0
LINE
  5
81D7
330
7CB4
100
AcDbEntity
  8
D-STR-DIM
  6
Continuous
370
    -2
100
AcDbLine
 10
1252.485083172511
 20
651.9363634136298
 30
0.0
 11
1252.485083172511
 21
628.536364145157
 31
0.0
  0
INSERT
  5
81D8
330
7CB4
100
AcDbEntity
  8
D-STR-DIM
  6
Continuous
370
    -2
100
AcDbBlockReference
  2
_Origin
 10
1252.485083172511
 20
652.9363634136298
 30
0.0
 50
90.0
  0
INSERT
  5
81D9
330
7CB4
100
AcDbEntity
  8
D-STR-DIM
  6
Continuous
370
    -2
100
AcDbBlockReference
  2
_Origin
 10
1252.485083172511
 20
627.5363641451569
 30
0.0
 50
270.0
  0
MTEXT
  5
81DA
330
7CB4
100
AcDbEntity
  8
D-STR-DIM
  6
Continuous
100
AcDbMText
 10
1246.985083172511
 20
640.2363637793935
 30
0.0
 40
7.0
 41
0.0
 71
     5
 72
     1
  1
\A1;25
 11
0.0000000000000001
 21
1.0
 31
0.0
 73
     1
 44
1.0
1001
ACAD
1000
MTEXTBEGIN
1070
    73
1070
     1
1070
    44
1040
1.0
1070
    74
1070
     0
1000
MTEXTEND
  0
POINT
  5
81DB
330
7CB4
100
AcDbEntity
  8
DEFPOINTS
  6
Continuous
 62
     0
100
AcDbPoint
 10
1285.335270594977
 20
652.9363634136297
 30
0.0
  0
POINT
  5
81DC
330
7CB4
100
AcDbEntity
  8
DEFPOINTS
  6
Continuous
 62
     0
100
AcDbPoint
 10
1280.535270594977
 20
627.5363641451568
 30
0.0
  0
POINT
  5
81DD
330
7CB4
100
AcDbEntity
  8
DEFPOINTS
  6
Continuous
 62
     0
100
AcDbPoint
 10
1252.485083172511
 20
627.5363641451569
 30
0.0
  0
ENDBLK
  5
7CBF
330
7CB4
100
AcDbEntity
  8
0
100
AcDbBlockEnd
  0
BLOCK
  5
7CD9
330
7CCB
100
AcDbEntity
  8
0
100
AcDbBlockBegin
  2
*D28
 70
     1
 10
0.0
 20
0.0
 30
0.0
  3
*D28
  1

  0
LINE
  5
818A
330
7CCB
100
AcDbEntity
  8
D-STR-DIM
  6
Continuous
370
    -2
100
AcDbLine
 10
995.035270594977
 20
618.9613904344123
 30
0.0
 11
1085.035270594977
 21
618.9613904344123
 31
0.0
  0
LINE
  5
818B
330
7CCB
100
AcDbEntity
  8
D-STR-DIM
  6
Continuous
370
    -2
100
AcDbLine
 10
995.035270594977
 20
613.1613904344123
 30
0.0
 11
1085.035270594977
 21
613.1613904344123
 31
0.0
  0
LINE
  5
818C
330
7CCB
100
AcDbEntity
  8
D-STR-DIM
  6
Continuous
370
    -2
100
AcDbLine
 10
1083.035270594977
 20
619.9613904344123
 30
0.0
 11
1083.035270594977
 21
620.9613904344124
 31
0.0
  0
LINE
  5
818D
330
7CCB
100
AcDbEntity
  8
D-STR-DIM
  6
Continuous
370
    -2
100
AcDbLine
 10
1083.035270594977
 20
612.1613904344124
 30
0.0
 11
1083.035270594977
 21
611.1613904344124
 31
0.0
  0
LINE
  5
818E
330
7CCB
100
AcDbEntity
  8
D-STR-DIM
  6
Continuous
370
    -2
100
AcDbLine
 10
1083.035270594977
 20
639.1619932639097
 30
0.0
 11
1083.035270594977
 21
618.9613904344123
 31
0.0
  0
MTEXT
  5
818F
330
7CCB
100
AcDbEntity
  8
D-STR-DIM
  6
Continuous
100
AcDbMText
 10
1077.535270594976
 20
630.1619932639098
 30
0.0
 40
7.0
 41
0.0
 71
     5
 72
     1
  1
\A1;5.8
 11
0.0000000000000001
 21
1.0
 31
0.0
 73
     1
 44
1.0
1001
ACAD
1000
MTEXTBEGIN
1070
    73
1070
     1
1070
    44
1040
1.0
1070
    74
1070
     0
1000
MTEXTEND
  0
LINE
  5
8190
330
7CCB
100
AcDbEntity
  8
D-STR-DIM
  6
Continuous
370
    -2
100
AcDbLine
 10
1083.035270594977
 20
618.9613904344123
 30
0.0
 11
1083.035270594977
 21
613.1613904344123
 31
0.0
  0
LINE
  5
8191
330
7CCB
100
AcDbEntity
  8
D-STR-DIM
  6
Continuous
370
    -2
100
AcDbLine
 10
1083.035270594977
 20
618.9613904344123
 30
0.0
 11
1083.035270594977
 21
613.1613904344123
 31
0.0
  0
INSERT
  5
8192
330
7CCB
100
AcDbEntity
  8
D-STR-DIM
  6
Continuous
370
    -2
100
AcDbBlockReference
  2
_Origin
 10
1083.035270594977
 20
618.9613904344123
 30
0.0
 50
270.0
  0
INSERT
  5
8193
330
7CCB
100
AcDbEntity
  8
D-STR-DIM
  6
Continuous
370
    -2
100
AcDbBlockReference
  2
_Origin
 10
1083.035270594977
 20
613.1613904344123
 30
0.0
 50
90.0
  0
POINT
  5
8194
330
7CCB
100
AcDbEntity
  8
DEFPOINTS
  6
Continuous
 62
     0
100
AcDbPoint
 10
993.035270594977
 20
618.9613904344123
 30
0.0
  0
POINT
  5
8195
330
7CCB
100
AcDbEntity
  8
DEFPOINTS
  6
Continuous
 62
     0
100
AcDbPoint
 10
993.035270594977
 20
613.1613904344123
 30
0.0
  0
POINT
  5
8196
330
7CCB
100
AcDbEntity
  8
DEFPOINTS
  6
Continuous
 62
     0
100
AcDbPoint
 10
1083.035270594977
 20
613.1613904344123
 30
0.0
  0
ENDBLK
  5
7CDA
330
7CCB
100
AcDbEntity
  8
0
100
AcDbBlockEnd
  0
BLOCK
  5
7CE5
330
7CDB
100
AcDbEntity
  8
0
100
AcDbBlockBegin
  2
*D29
 70
     1
 10
0.0
 20
0.0
 30
0.0
  3
*D29
  1

  0
LINE
  5
8197
330
7CDB
100
AcDbEntity
  8
D-STR-DIM
  6
Continuous
370
    -2
100
AcDbLine
 10
995.035270594977
 20
613.1613904344123
 30
0.0
 11
1085.035270594977
 21
613.1613904344123
 31
0.0
  0
LINE
  5
8198
330
7CDB
100
AcDbEntity
  8
D-STR-DIM
  6
Continuous
370
    -2
100
AcDbLine
 10
995.035270594977
 20
563.1613904344123
 30
0.0
 11
1085.035270594977
 21
563.1613904344123
 31
0.0
  0
LINE
  5
8199
330
7CDB
100
AcDbEntity
  8
D-STR-DIM
  6
Continuous
370
    -2
100
AcDbLine
 10
1083.035270594977
 20
612.1613904344124
 30
0.0
 11
1083.035270594977
 21
564.1613904344124
 31
0.0
  0
INSERT
  5
819A
330
7CDB
100
AcDbEntity
  8
D-STR-DIM
  6
Continuous
370
    -2
100
AcDbBlockReference
  2
_Origin
 10
1083.035270594977
 20
613.1613904344123
 30
0.0
 50
90.0
  0
INSERT
  5
819B
330
7CDB
100
AcDbEntity
  8
D-STR-DIM
  6
Continuous
370
    -2
100
AcDbBlockReference
  2
_Origin
 10
1083.035270594977
 20
563.1613904344123
 30
0.0
 50
270.0
  0
MTEXT
  5
819C
330
7CDB
100
AcDbEntity
  8
D-STR-DIM
  6
Continuous
100
AcDbMText
 10
1077.535270594976
 20
588.1613904344125
 30
0.0
 40
7.0
 41
0.0
 71
     5
 72
     1
  1
\A1;50
 11
0.0000000000000001
 21
1.0
 31
0.0
 73
     1
 44
1.0
1001
ACAD
1000
MTEXTBEGIN
1070
    73
1070
     1
1070
    44
1040
1.0
1070
    74
1070
     0
1000
MTEXTEND
  0
POINT
  5
819D
330
7CDB
100
AcDbEntity
  8
DEFPOINTS
  6
Continuous
 62
     0
100
AcDbPoint
 10
993.035270594977
 20
613.1613904344123
 30
0.0
  0
POINT
  5
819E
330
7CDB
100
AcDbEntity
  8
DEFPOINTS
  6
Continuous
 62
     0
100
AcDbPoint
 10
993.035270594977
 20
563.1613904344123
 30
0.0
  0
POINT
  5
819F
330
7CDB
100
AcDbEntity
  8
DEFPOINTS
  6
Continuous
 62
     0
100
AcDbPoint
 10
1083.035270594977
 20
563.1613904344123
 30
0.0
  0
ENDBLK
  5
7CE6
330
7CDB
100
AcDbEntity
  8
0
100
AcDbBlockEnd
  0
BLOCK
  5
7D49
330
7D3F
100
AcDbEntity
  8
0
100
AcDbBlockBegin
  2
*D30
 70
     1
 10
0.0
 20
0.0
 30
0.0
  3
*D30
  1

  0
LINE
  5
81CC
330
7D3F
100
AcDbEntity
  8
D-STR-DIM
  6
Continuous
370
    -2
100
AcDbLine
 10
1416.891535877577
 20
642.436367985674
 30
0.0
 11
1416.891535877577
 21
672.436367985674
 31
0.0
  0
LINE
  5
81CD
330
7D3F
100
AcDbEntity
  8
D-STR-DIM
  6
Continuous
370
    -2
100
AcDbLine
 10
1462.891535877577
 20
642.436367985674
 30
0.0
 11
1462.891535877577
 21
672.436367985674
 31
0.0
  0
LINE
  5
81CE
330
7D3F
100
AcDbEntity
  8
D-STR-DIM
  6
Continuous
370
    -2
100
AcDbLine
 10
1417.891535877577
 20
670.436367985674
 30
0.0
 11
1461.891535877577
 21
670.436367985674
 31
0.0
  0
INSERT
  5
81CF
330
7D3F
100
AcDbEntity
  8
D-STR-DIM
  6
Continuous
370
    -2
100
AcDbBlockReference
  2
_Origin
 10
1416.891535877577
 20
670.436367985674
 30
0.0
 50
180.0
  0
INSERT
  5
81D0
330
7D3F
100
AcDbEntity
  8
D-STR-DIM
  6
Continuous
370
    -2
100
AcDbBlockReference
  2
_Origin
 10
1462.891535877577
 20
670.436367985674
 30
0.0
  0
MTEXT
  5
81D1
330
7D3F
100
AcDbEntity
  8
D-STR-DIM
  6
Continuous
100
AcDbMText
 10
1439.891535877577
 20
675.936367985674
 30
0.0
 40
7.0
 41
0.0
 71
     5
 72
     1
  1
\A1;46
 73
     1
 44
1.0
1001
ACAD
1000
MTEXTBEGIN
1070
    73
1070
     1
1070
    44
1040
1.0
1070
    74
1070
     0
1000
MTEXTEND
  0
POINT
  5
81D2
330
7D3F
100
AcDbEntity
  8
DEFPOINTS
  6
Continuous
 62
     0
100
AcDbPoint
 10
1416.891535877577
 20
640.4363679856739
 30
0.0
  0
POINT
  5
81D3
330
7D3F
100
AcDbEntity
  8
DEFPOINTS
  6
Continuous
 62
     0
100
AcDbPoint
 10
1462.891535877577
 20
640.4363679856739
 30
0.0
  0
POINT
  5
81D4
330
7D3F
100
AcDbEntity
  8
DEFPOINTS
  6
Continuous
 62
     0
100
AcDbPoint
 10
1462.891535877577
 20
670.436367985674
 30
0.0
  0
ENDBLK
  5
7D4A
330
7D3F
100
AcDbEntity
  8
0
100
AcDbBlockEnd
  0
BLOCK
  5
7D55
330
7D4B
100
AcDbEntity
  8
0
100
AcDbBlockBegin
  2
*D31
 70
     1
 10
0.0
 20
0.0
 30
0.0
  3
*D31
  1

  0
LINE
  5
81E7
330
7D4B
100
AcDbEntity
  8
D-STR-DIM
  6
Continuous
370
    -2
100
AcDbLine
 10
1452.891535877578
 20
603.9613904344123
 30
0.0
 11
1515.391535877578
 21
603.9613904344123
 31
0.0
  0
LINE
  5
81E8
330
7D4B
100
AcDbEntity
  8
D-STR-DIM
  6
Continuous
370
    -2
100
AcDbLine
 10
1453.641535877578
 20
553.9613904344123
 30
0.0
 11
1515.391535877578
 21
553.9613904344123
 31
0.0
  0
LINE
  5
81E9
330
7D4B
100
AcDbEntity
  8
D-STR-DIM
  6
Continuous
370
    -2
100
AcDbLine
 10
1513.391535877578
 20
602.9613904344123
 30
0.0
 11
1513.391535877578
 21
554.9613904344123
 31
0.0
  0
INSERT
  5
81EA
330
7D4B
100
AcDbEntity
  8
D-STR-DIM
  6
Continuous
370
    -2
100
AcDbBlockReference
  2
_Origin
 10
1513.391535877578
 20
603.9613904344123
 30
0.0
 50
90.0
  0
INSERT
  5
81EB
330
7D4B
100
AcDbEntity
  8
D-STR-DIM
  6
Continuous
370
    -2
100
AcDbBlockReference
  2
_Origin
 10
1513.391535877578
 20
553.9613904344123
 30
0.0
 50
270.0
  0
MTEXT
  5
81EC
330
7D4B
100
AcDbEntity
  8
D-STR-DIM
  6
Continuous
100
AcDbMText
 10
1507.891535877577
 20
578.9613904344125
 30
0.0
 40
7.0
 41
0.0
 71
     5
 72
     1
  1
\A1;50
 11
0.0000000000000001
 21
1.0
 31
0.0
 73
     1
 44
1.0
1001
ACAD
1000
MTEXTBEGIN
1070
    73
1070
     1
1070
    44
1040
1.0
1070
    74
1070
     0
1000
MTEXTEND
  0
POINT
  5
81ED
330
7D4B
100
AcDbEntity
  8
DEFPOINTS
  6
Continuous
 62
     0
100
AcDbPoint
 10
1450.891535877578
 20
603.9613904344123
 30
0.0
  0
POINT
  5
81EE
330
7D4B
100
AcDbEntity
  8
DEFPOINTS
  6
Continuous
 62
     0
100
AcDbPoint
 10
1451.641535877578
 20
553.9613904344123
 30
0.0
  0
POINT
  5
81EF
330
7D4B
100
AcDbEntity
  8
DEFPOINTS
  6
Continuous
 62
     0
100
AcDbPoint
 10
1513.391535877578
 20
553.9613904344123
 30
0.0
  0
ENDBLK
  5
7D56
330
7D4B
100
AcDbEntity
  8
0
100
AcDbBlockEnd
  0
BLOCK
  5
7D61
330
7D57
100
AcDbEntity
  8
0
100
AcDbBlockBegin
  2
*D32
 70
     1
 10
0.0
 20
0.0
 30
0.0
  3
*D32
  1

  0
LINE
  5
81DE
330
7D57
100
AcDbEntity
  8
D-STR-DIM
  6
Continuous
370
    -2
100
AcDbLine
 10
1485.391535877577
 20
618.9613904344123
 30
0.0
 11
1545.391535877577
 21
618.9613904344123
 31
0.0
  0
LINE
  5
81DF
330
7D57
100
AcDbEntity
  8
D-STR-DIM
  6
Continuous
370
    -2
100
AcDbLine
 10
1485.391535877577
 20
538.9613904344121
 30
0.0
 11
1545.391535877577
 21
538.9613904344121
 31
0.0
  0
LINE
  5
81E0
330
7D57
100
AcDbEntity
  8
D-STR-DIM
  6
Continuous
370
    -2
100
AcDbLine
 10
1543.391535877577
 20
617.9613904344123
 30
0.0
 11
1543.391535877577
 21
539.961390434412
 31
0.0
  0
INSERT
  5
81E1
330
7D57
100
AcDbEntity
  8
D-STR-DIM
  6
Continuous
370
    -2
100
AcDbBlockReference
  2
_Origin
 10
1543.391535877577
 20
618.9613904344123
 30
0.0
 50
90.0
  0
INSERT
  5
81E2
330
7D57
100
AcDbEntity
  8
D-STR-DIM
  6
Continuous
370
    -2
100
AcDbBlockReference
  2
_Origin
 10
1543.391535877577
 20
538.9613904344121
 30
0.0
 50
270.0
  0
MTEXT
  5
81E3
330
7D57
100
AcDbEntity
  8
D-STR-DIM
  6
Continuous
100
AcDbMText
 10
1537.891535877577
 20
578.9613904344125
 30
0.0
 40
7.0
 41
0.0
 71
     5
 72
     1
  1
\A1;80
 11
0.0000000000000001
 21
1.0
 31
0.0
 73
     1
 44
1.0
1001
ACAD
1000
MTEXTBEGIN
1070
    73
1070
     1
1070
    44
1040
1.0
1070
    74
1070
     0
1000
MTEXTEND
  0
POINT
  5
81E4
330
7D57
100
AcDbEntity
  8
DEFPOINTS
  6
Continuous
 62
     0
100
AcDbPoint
 10
1483.391535877577
 20
618.9613904344123
 30
0.0
  0
POINT
  5
81E5
330
7D57
100
AcDbEntity
  8
DEFPOINTS
  6
Continuous
 62
     0
100
AcDbPoint
 10
1483.391535877577
 20
538.9613904344121
 30
0.0
  0
POINT
  5
81E6
330
7D57
100
AcDbEntity
  8
DEFPOINTS
  6
Continuous
 62
     0
100
AcDbPoint
 10
1543.391535877577
 20
538.9613904344121
 30
0.0
  0
ENDBLK
  5
7D62
330
7D57
100
AcDbEntity
  8
0
100
AcDbBlockEnd
  0
BLOCK
  5
7D6D
330
7D63
100
AcDbEntity
  8
0
100
AcDbBlockBegin
  2
*D33
 70
     1
 10
0.0
 20
0.0
 30
0.0
  3
*D33
  1

  0
LINE
  5
81F0
330
7D63
100
AcDbEntity
  8
D-STR-DIM
  6
Continuous
370
    -2
100
AcDbLine
 10
1453.641535877578
 20
553.9613904344123
 30
0.0
 11
1515.391535877578
 21
553.9613904344123
 31
0.0
  0
LINE
  5
81F1
330
7D63
100
AcDbEntity
  8
D-STR-DIM
  6
Continuous
370
    -2
100
AcDbLine
 10
1485.391535877577
 20
538.9613904344121
 30
0.0
 11
1515.391535877578
 21
538.9613904344121
 31
0.0
  0
LINE
  5
81F2
330
7D63
100
AcDbEntity
  8
D-STR-DIM
  6
Continuous
370
    -2
100
AcDbLine
 10
1513.391535877578
 20
552.9613904344123
 30
0.0
 11
1513.391535877578
 21
539.961390434412
 31
0.0
  0
INSERT
  5
81F3
330
7D63
100
AcDbEntity
  8
D-STR-DIM
  6
Continuous
370
    -2
100
AcDbBlockReference
  2
_Origin
 10
1513.391535877578
 20
553.9613904344123
 30
0.0
 50
90.0
  0
INSERT
  5
81F4
330
7D63
100
AcDbEntity
  8
D-STR-DIM
  6
Continuous
370
    -2
100
AcDbBlockReference
  2
_Origin
 10
1513.391535877578
 20
538.9613904344121
 30
0.0
 50
270.0
  0
MTEXT
  5
81F5
330
7D63
100
AcDbEntity
  8
D-STR-DIM
  6
Continuous
100
AcDbMText
 10
1507.891535877577
 20
546.4613904344124
 30
0.0
 40
7.0
 41
0.0
 71
     5
 72
     1
  1
\A1;15
 11
0.0000000000000001
 21
1.0
 31
0.0
 73
     1
 44
1.0
1001
ACAD
1000
MTEXTBEGIN
1070
    73
1070
     1
1070
    44
1040
1.0
1070
    74
1070
     0
1000
MTEXTEND
  0
POINT
  5
81F6
330
7D63
100
AcDbEntity
  8
DEFPOINTS
  6
Continuous
 62
     0
100
AcDbPoint
 10
1451.641535877578
 20
553.9613904344123
 30
0.0
  0
POINT
  5
81F7
330
7D63
100
AcDbEntity
  8
DEFPOINTS
  6
Continuous
 62
     0
100
AcDbPoint
 10
1483.391535877577
 20
538.9613904344121
 30
0.0
  0
POINT
  5
81F8
330
7D63
100
AcDbEntity
  8
DEFPOINTS
  6
Continuous
 62
     0
100
AcDbPoint
 10
1513.391535877578
 20
538.9613904344121
 30
0.0
  0
ENDBLK
  5
7D6E
330
7D63
100
AcDbEntity
  8
0
100
AcDbBlockEnd
  0
BLOCK
  5
7D79
330
7D6F
100
AcDbEntity
  8
0
100
AcDbBlockBegin
  2
*D34
 70
     1
 10
0.0
 20
0.0
 30
0.0
  3
*D34
  1

  0
LINE
  5
81F9
330
7D6F
100
AcDbEntity
  8
D-STR-DIM
  6
Continuous
370
    -2
100
AcDbLine
 10
1452.891535877578
 20
603.9613904344123
 30
0.0
 11
1515.391535877578
 21
603.9613904344123
 31
0.0
  0
LINE
  5
81FA
330
7D6F
100
AcDbEntity
  8
D-STR-DIM
  6
Continuous
370
    -2
100
AcDbLine
 10
1485.391535877577
 20
618.9613904344123
 30
0.0
 11
1515.391535877578
 21
618.9613904344123
 31
0.0
  0
LINE
  5
81FB
330
7D6F
100
AcDbEntity
  8
D-STR-DIM
  6
Continuous
370
    -2
100
AcDbLine
 10
1513.391535877577
 20
604.9613904344123
 30
0.0
 11
1513.391535877577
 21
617.9613904344123
 31
0.0
  0
INSERT
  5
81FC
330
7D6F
100
AcDbEntity
  8
D-STR-DIM
  6
Continuous
370
    -2
100
AcDbBlockReference
  2
_Origin
 10
1513.391535877577
 20
603.9613904344123
 30
0.0
 50
270.0
  0
INSERT
  5
81FD
330
7D6F
100
AcDbEntity
  8
D-STR-DIM
  6
Continuous
370
    -2
100
AcDbBlockReference
  2
_Origin
 10
1513.391535877577
 20
618.9613904344123
 30
0.0
 50
90.0
  0
MTEXT
  5
81FE
330
7D6F
100
AcDbEntity
  8
D-STR-DIM
  6
Continuous
100
AcDbMText
 10
1507.891535877577
 20
611.4613904344126
 30
0.0
 40
7.0
 41
0.0
 71
     5
 72
     1
  1
\A1;15
 11
0.0000000000000001
 21
1.0
 31
0.0
 73
     1
 44
1.0
1001
ACAD
1000
MTEXTBEGIN
1070
    73
1070
     1
1070
    44
1040
1.0
1070
    74
1070
     0
1000
MTEXTEND
  0
POINT
  5
81FF
330
7D6F
100
AcDbEntity
  8
DEFPOINTS
  6
Continuous
 62
     0
100
AcDbPoint
 10
1450.891535877578
 20
603.9613904344123
 30
0.0
  0
POINT
  5
8200
330
7D6F
100
AcDbEntity
  8
DEFPOINTS
  6
Continuous
 62
     0
100
AcDbPoint
 10
1483.391535877577
 20
618.9613904344123
 30
0.0
  0
POINT
  5
8201
330
7D6F
100
AcDbEntity
  8
DEFPOINTS
  6
Continuous
 62
     0
100
AcDbPoint
 10
1513.391535877577
 20
618.9613904344123
 30
0.0
  0
ENDBLK
  5
7D7A
330
7D6F
100
AcDbEntity
  8
0
100
AcDbBlockEnd
  0
BLOCK
  5
7D85
330
7D7B
100
AcDbEntity
  8
0
100
AcDbBlockBegin
  2
*D35
 70
     1
 10
0.0
 20
0.0
 30
0.0
  3
*D35
  1

  0
LINE
  5
816F
330
7D7B
100
AcDbEntity
  8
D-STR-DIM
  6
Continuous
370
    -2
100
AcDbLine
 10
1396.391535877577
 20
536.9613904344123
 30
0.0
 11
1396.391535877577
 21
506.9613904344121
 31
0.0
  0
LINE
  5
8170
330
7D7B
100
AcDbEntity
  8
D-STR-DIM
  6
Continuous
370
    -2
100
AcDbLine
 10
1483.391535877577
 20
536.9613904344121
 30
0.0
 11
1483.391535877577
 21
506.9613904344121
 31
0.0
  0
LINE
  5
8171
330
7D7B
100
AcDbEntity
  8
D-STR-DIM
  6
Continuous
370
    -2
100
AcDbLine
 10
1397.391535877577
 20
508.9613904344122
 30
0.0
 11
1482.391535877577
 21
508.9613904344122
 31
0.0
  0
INSERT
  5
8172
330
7D7B
100
AcDbEntity
  8
D-STR-DIM
  6
Continuous
370
    -2
100
AcDbBlockReference
  2
_Origin
 10
1396.391535877577
 20
508.9613904344122
 30
0.0
 50
180.0
  0
INSERT
  5
8173
330
7D7B
100
AcDbEntity
  8
D-STR-DIM
  6
Continuous
370
    -2
100
AcDbBlockReference
  2
_Origin
 10
1483.391535877577
 20
508.9613904344122
 30
0.0
  0
MTEXT
  5
8174
330
7D7B
100
AcDbEntity
  8
D-STR-DIM
  6
Continuous
100
AcDbMText
 10
1439.891535877577
 20
514.4613904344121
 30
0.0
 40
7.0
 41
0.0
 71
     5
 72
     1
  1
\A1;87
 73
     1
 44
1.0
1001
ACAD
1000
MTEXTBEGIN
1070
    73
1070
     1
1070
    44
1040
1.0
1070
    74
1070
     0
1000
MTEXTEND
  0
POINT
  5
8175
330
7D7B
100
AcDbEntity
  8
DEFPOINTS
  6
Continuous
 62
     0
100
AcDbPoint
 10
1396.391535877577
 20
538.9613904344123
 30
0.0
  0
POINT
  5
8176
330
7D7B
100
AcDbEntity
  8
DEFPOINTS
  6
Continuous
 62
     0
100
AcDbPoint
 10
1483.391535877577
 20
538.9613904344121
 30
0.0
  0
POINT
  5
8177
330
7D7B
100
AcDbEntity
  8
DEFPOINTS
  6
Continuous
 62
     0
100
AcDbPoint
 10
1483.391535877577
 20
508.9613904344122
 30
0.0
  0
ENDBLK
  5
7D86
330
7D7B
100
AcDbEntity
  8
0
100
AcDbBlockEnd
  0
ENDSEC
  0
SECTION
  2
ENTITIES
  0
TEXT
  5
652E
330
46
100
AcDbEntity
  8
D-TTL-TXT
100
AcDbText
 10
617.0434428708813
 20
1103.569016893227
 30
0.0
 40
19.99999999999998
  1
電力用受金物詳細図
100
AcDbText
  0
TEXT
  5
652F
330
46
100
AcDbEntity
  8
D-TTL-TXT
100
AcDbText
 10
896.7522046012446
 20
1102.768936973234
 30
0.0
 40
9.999999000000094
  1
S = 1/2
100
AcDbText
  0
LWPOLYLINE
  5
6530
330
46
100
AcDbEntity
  8
D-TTL
 48
20.0
100
AcDbPolyline
 90
        4
 70
     1
 43
0.0
 10
0.0
 20
0.0
 10
1681.999993260642
 20
0.0
 10
1681.999993260642
 20
1187.999995240002
 10
0.0
 20
1187.999995240002
  0
LWPOLYLINE
  5
6531
330
46
100
AcDbEntity
  8
D-TTL
 48
20.0
100
AcDbPolyline
 90
        4
 70
     1
 43
0.0
 10
79.99999967942676
 20
39.99999983973101
 10
1641.999993420917
 20
39.99999983973101
 10
1641.999993420917
 20
1147.999995400271
 10
79.99999967942676
 20
1147.999995400271
  0
TEXT
  5
6532
330
46
100
AcDbEntity
  8
D-TTL-TXT
  6
Continuous
100
AcDbText
 10
1600.56336615838
 20
1136.178187022014
 30
0.0
 40
6.999999971952856
  1
A4A27
 72
     4
 11
1616.896699426269
 21
1139.67818700799
 31
0.0
100
AcDbText
  0
LINE
  5
6533
330
46
100
AcDbEntity
  8
D-TTL-TXT
  6
Continuous
100
AcDbLine
 10
1567.999993717411
 20
1147.999995400271
 30
0.0
 11
1641.999993420915
 21
1147.999995400271
 31
0.0
  0
LINE
  5
6534
330
46
100
AcDbEntity
  8
D-TTL-TXT
  6
Continuous
100
AcDbLine
 10
1567.999993717411
 20
1131.999995464379
 30
0.0
 11
1641.999993420915
 21
1131.999995464379
 31
0.0
  0
LINE
  5
6535
330
46
100
AcDbEntity
  8
D-TTL-TXT
  6
Continuous
100
AcDbLine
 10
1591.999993621251
 20
1147.999995400271
 30
0.0
 11
1591.999993621251
 21
1131.999995464379
 31
0.0
  0
LINE
  5
6536
330
46
100
AcDbEntity
  8
D-TTL-TXT
  6
Continuous
100
AcDbLine
 10
1567.999993717411
 20
1147.999995400271
 30
0.0
 11
1567.999993717411
 21
1131.999995464379
 31
0.0
  0
TEXT
  5
6537
330
46
100
AcDbEntity
  8
D-TTL-TXT
  6
Continuous
100
AcDbText
 10
1573.142849696825
 20
1135.99999544835
 30
0.0
 40
6.999999971952856
  1
図番
100
AcDbText
  0
LINE
  5
6538
330
46
100
AcDbEntity
  8
D-TTL-TXT
  6
Continuous
100
AcDbLine
 10
1641.999993420915
 20
1147.999995400271
 30
0.0
 11
1641.999993420915
 21
1131.999995464379
 31
0.0
  0
LINE
  5
653C
330
46
100
AcDbEntity
  8
D-TTL-FRAM
 48
20.0
100
AcDbLine
 10
1641.999993420926
 20
159.9999993589317
 30
0.0
 11
1441.999994222274
 21
159.9999993589317
 31
0.0
  0
LINE
  5
6542
330
46
100
AcDbEntity
  8
D-TTL-FRAM
 48
20.0
100
AcDbLine
 10
1441.999994222274
 20
159.9999993589317
 30
0.0
 11
1441.999994222274
 21
39.99999983973976
 31
0.0
  0
TEXT
  5
6F23
330
46
100
AcDbEntity
  8
D-TTL-TXT
100
AcDbText
 10
394.6046404628881
 20
952.9588655802843
 30
0.0
 40
14.0
  1
受金物　L=250
 72
     1
 11
459.7046404628882
 21
952.9588655802843
 31
0.0
100
AcDbText
  0
TEXT
  5
6F25
330
46
100
AcDbEntity
  8
D-TTL-TXT
100
AcDbText
 10
1070.771307129554
 20
952.9588655802843
 30
0.0
 40
14.0
  1
受金物　L=300
 72
     1
 11
1134.704640462887
 21
952.9588655802843
 31
0.0
100
AcDbText
  0
LINE
  5
7554
330
46
100
AcDbEntity
  8
D-BMK
  6
CENTER
100
AcDbLine
 10
300.2622709670932
 20
822.6625718397313
 30
0.0
 11
640.2622709670931
 21
822.6625718397313
 31
0.0
  0
LINE
  5
755B
330
46
100
AcDbEntity
  8
D-STR
  6
Continuous
100
AcDbLine
 10
558.0835699804079
 20
614.3405245436967
 30
0.0
 11
324.7622709670934
 21
569.6613904344125
 31
0.0
  0
LINE
  5
755C
330
46
100
AcDbEntity
  8
D-STR
  6
DASHED
100
AcDbLine
 10
324.9220710497969
 20
609.9653829354276
 30
0.0
 11
562.2622709670936
 21
621.8323712286936
 31
0.0
  0
LINE
  5
755D
330
46
100
AcDbEntity
  8
D-STR
  6
Continuous
100
AcDbLine
 10
324.7622709670934
 20
613.1613904344126
 30
0.0
 11
564.212083544628
 21
625.1338591677856
 31
0.0
  0
ARC
  5
755F
330
46
100
AcDbEntity
  8
D-STR
  6
Continuous
100
AcDbCircle
 10
314.7622709670934
 20
613.9613904344125
 30
0.0
 40
4.999999999999999
100
AcDbArc
 50
90.0
 51
180.0
  0
LINE
  5
7561
330
46
100
AcDbEntity
  8
D-STR
  6
Continuous
100
AcDbLine
 10
309.7622709670934
 20
613.9613904344125
 30
0.0
 11
309.7622709670934
 21
543.9613904344126
 31
0.0
  0
LINE
  5
7562
330
46
100
AcDbEntity
  8
D-STR
  6
DASHED
100
AcDbLine
 10
320.2622709670934
 20
618.9613904344126
 30
0.0
 11
320.2622709670934
 21
538.9613904344125
 31
0.0
  0
LINE
  5
7563
330
46
100
AcDbEntity
  8
D-STR
  6
Continuous
100
AcDbLine
 10
324.7622709670934
 20
618.9613904344126
 30
0.0
 11
324.7622709670934
 21
538.9613904344125
 31
0.0
  0
LINE
  5
7564
330
46
100
AcDbEntity
  8
D-BMK
  6
CENTER
100
AcDbLine
 10
299.7622709670934
 20
553.9613904344125
 30
0.0
 11
334.7622709670932
 21
553.9613904344125
 31
0.0
  0
LINE
  5
7565
330
46
100
AcDbEntity
  8
D-STR
  6
Continuous
100
AcDbLine
 10
314.7622709670934
 20
538.9613904344125
 30
0.0
 11
324.7622709670934
 21
538.9613904344125
 31
0.0
  0
ARC
  5
7566
330
46
100
AcDbEntity
  8
D-STR
  6
Continuous
100
AcDbCircle
 10
314.7622709670934
 20
543.9613904344126
 30
0.0
 40
4.999999999999999
100
AcDbArc
 50
180.0
 51
270.0
  0
LINE
  5
7567
330
46
100
AcDbEntity
  8
D-STR-STR2
  6
DASHED
100
AcDbLine
 10
326.7622709670934
 20
597.9613904344126
 30
0.0
 11
314.7622709670934
 21
597.9613904344126
 31
0.0
  0
LINE
  5
7568
330
46
100
AcDbEntity
  8
D-STR-STR2
  6
DASHED
100
AcDbLine
 10
314.7622709670934
 20
609.9613904344124
 30
0.0
 11
326.7622709670934
 21
609.9613904344124
 31
0.0
  0
LINE
  5
7569
330
46
100
AcDbEntity
  8
D-BMK
  6
CENTER
100
AcDbLine
 10
300.2622709670934
 20
603.9613904344125
 30
0.0
 11
334.7622709670932
 21
603.9613904344125
 31
0.0
  0
ARC
  5
756A
330
46
100
AcDbEntity
  8
D-STR-STR2
  6
Continuous
100
AcDbCircle
 10
321.7622709670934
 20
603.9613904344125
 30
0.0
 40
14.9999999999999
100
AcDbArc
 50
143.1301023541533
 51
216.8698976458466
  0
LINE
  5
756B
330
46
100
AcDbEntity
  8
D-STR-STR2
  6
DASHED
100
AcDbLine
 10
312.7622709670934
 20
615.9613904344125
 30
0.0
 11
312.7622709670934
 21
591.9613904344125
 31
0.0
  0
LINE
  5
756C
330
46
100
AcDbEntity
  8
D-STR-STR2
  6
DASHED
100
AcDbLine
 10
314.7622709670934
 20
615.9613904344125
 30
0.0
 11
314.7622709670934
 21
591.9613904344125
 31
0.0
  0
ARC
  5
756D
330
46
100
AcDbEntity
  8
D-STR-STR2
  6
DASHED
100
AcDbCircle
 10
321.7622709670934
 20
603.9613904344125
 30
0.0
 40
14.9999999999999
100
AcDbArc
 50
216.8698976458466
 51
233.1301023541586
  0
LINE
  5
756E
330
46
100
AcDbEntity
  8
D-STR-STR2
  6
DASHED
100
AcDbLine
 10
312.7622709670934
 20
591.9613904344125
 30
0.0
 11
314.7622709670934
 21
591.9613904344125
 31
0.0
  0
LINE
  5
7571
330
46
100
AcDbEntity
  8
D-STR
  6
Continuous
100
AcDbLine
 10
314.7622709670934
 20
618.9613904344126
 30
0.0
 11
324.7622709670934
 21
618.9613904344126
 31
0.0
  0
ARC
  5
7572
330
46
100
AcDbEntity
  8
D-STR-STR2
  6
DASHED
100
AcDbCircle
 10
321.7622709670934
 20
603.9613904344125
 30
0.0
 40
14.9999999999999
100
AcDbArc
 50
126.8698976458414
 51
143.1301023541533
  0
LINE
  5
7573
330
46
100
AcDbEntity
  8
D-STR-STR2
  6
DASHED
100
AcDbLine
 10
312.7622709670934
 20
615.9613904344125
 30
0.0
 11
314.7622709670934
 21
615.9613904344125
 31
0.0
  0
LINE
  5
7574
330
46
100
AcDbEntity
  8
D-STR-STR2
  6
DASHED
100
AcDbLine
 10
326.7622709670934
 20
609.9613904344124
 30
0.0
 11
326.7622709670934
 21
597.9613904344126
 31
0.0
  0
ARC
  5
757F
330
46
100
AcDbEntity
  8
D-STR
  6
Continuous
100
AcDbCircle
 10
557.2622709670931
 20
619.2726100995978
 30
0.0
 40
4.999999999999999
100
AcDbArc
 50
279.4542376095175
 51
0.0
  0
LINE
  5
7586
330
46
100
AcDbEntity
  8
D-STR
  6
Continuous
100
AcDbLine
 10
567.0622709670933
 20
650.4363679856743
 30
0.0
 11
567.0622709670933
 21
628.130116198084
 31
0.0
  0
LINE
  5
7587
330
46
100
AcDbEntity
  8
D-STR
  6
Continuous
100
AcDbLine
 10
570.2622709670936
 20
650.4363679856743
 30
0.0
 11
570.2622709670936
 21
628.130116198084
 31
0.0
  0
ARC
  5
7588
330
46
100
AcDbEntity
  8
D-STR
  6
Continuous
100
AcDbCircle
 10
564.0622709670934
 20
628.130116198084
 30
0.0
 40
6.2
100
AcDbArc
 50
272.8623999999994
 51
0.0
  0
LINE
  5
7589
330
46
100
AcDbEntity
  8
D-STR
  6
Continuous
100
AcDbLine
 10
562.2622709670936
 20
621.8323712286936
 30
0.0
 11
564.3718836273315
 21
621.9378516688006
 31
0.0
  0
LINE
  5
758A
330
46
100
AcDbEntity
  8
D-STR
  6
Continuous
100
AcDbLine
 10
562.2622709670936
 20
621.8323712286936
 30
0.0
 11
562.2622709670936
 21
619.2726100995978
 31
0.0
  0
ARC
  5
758B
330
46
100
AcDbEntity
  8
D-STR
  6
Continuous
100
AcDbCircle
 10
564.0622709670934
 20
628.130116198084
 30
0.0
 40
3.0
100
AcDbArc
 50
272.8623999999994
 51
0.0
  0
LINE
  5
758C
330
46
100
AcDbEntity
  8
D-STR
  6
Continuous
100
AcDbLine
 10
562.2622709670936
 20
625.0363687172015
 30
0.0
 11
562.2622709670936
 21
621.8323712286936
 31
0.0
  0
LINE
  5
758D
330
46
100
AcDbEntity
  8
D-STR
  6
Continuous
100
AcDbLine
 10
570.2622709670936
 20
650.4363679856743
 30
0.0
 11
567.0622709670933
 21
650.4363679856743
 31
0.0
  0
LINE
  5
7594
330
46
100
AcDbEntity
  8
D-STR
  6
DASHED
100
AcDbLine
 10
324.7622709670932
 20
795.8625718397312
 30
0.0
 11
562.2622709670936
 21
795.8625718397312
 31
0.0
  0
LINE
  5
7595
330
46
100
AcDbEntity
  8
D-STR
  6
DASHED
100
AcDbLine
 10
324.7622709670932
 20
849.4625718397312
 30
0.0
 11
562.2622709670936
 21
849.4625718397312
 31
0.0
  0
LINE
  5
7596
330
46
100
AcDbEntity
  8
D-STR
  6
Continuous
100
AcDbLine
 10
324.7622709670932
 20
792.6625718397312
 30
0.0
 11
564.0622709670934
 21
792.6625718397312
 31
0.0
  0
LINE
  5
7597
330
46
100
AcDbEntity
  8
D-STR
  6
Continuous
100
AcDbLine
 10
324.7622709670932
 20
852.6625718397312
 30
0.0
 11
564.0622709670934
 21
852.6625718397312
 31
0.0
  0
ARC
  5
759C
330
46
100
AcDbEntity
  8
D-STR
  6
Continuous
100
AcDbCircle
 10
326.7622709670932
 20
815.1625718397312
 30
0.0
 40
4.999999999999999
100
AcDbArc
 50
270.0
 51
0.0
  0
LINE
  5
759D
330
46
100
AcDbEntity
  8
D-STR
  6
Continuous
100
AcDbLine
 10
324.7622709670932
 20
860.6625718397312
 30
0.0
 11
324.7622709670932
 21
784.6625718397313
 31
0.0
  0
LINE
  5
759E
330
46
100
AcDbEntity
  8
D-STR
  6
Continuous
100
AcDbLine
 10
320.2622709670932
 20
860.6625718397312
 30
0.0
 11
320.2622709670932
 21
784.6625718397313
 31
0.0
  0
ARC
  5
75A8
330
46
100
AcDbEntity
  8
D-STR
  6
Continuous
100
AcDbCircle
 10
319.2622709670932
 20
784.6625718397313
 30
0.0
 40
5.5
100
AcDbArc
 50
270.0
 51
0.0
  0
LINE
  5
75A9
330
46
100
AcDbEntity
  8
D-STR
  6
Continuous
100
AcDbLine
 10
309.7622709670932
 20
783.6625718397312
 30
0.0
 11
319.2622709670932
 21
783.6625718397312
 31
0.0
  0
LINE
  5
75AA
330
46
100
AcDbEntity
  8
D-STR
  6
Continuous
100
AcDbLine
 10
309.7622709670932
 20
779.1625718397312
 30
0.0
 11
319.2622709670932
 21
779.1625718397312
 31
0.0
  0
LINE
  5
75AB
330
46
100
AcDbEntity
  8
D-STR
  6
Continuous
100
AcDbLine
 10
309.7622709670932
 20
779.1625718397312
 30
0.0
 11
309.7622709670932
 21
783.6625718397312
 31
0.0
  0
ARC
  5
75AC
330
46
100
AcDbEntity
  8
D-STR
  6
Continuous
100
AcDbCircle
 10
319.2622709670932
 20
784.6625718397313
 30
0.0
 40
0.9999999999999998
100
AcDbArc
 50
270.0
 51
0.0
  0
LINE
  5
75BA
330
46
100
AcDbEntity
  8
D-STR-STR2
  6
Continuous
100
AcDbLine
 10
326.7622709670932
 20
816.6625718397312
 30
0.0
 11
324.7622709670932
 21
816.6625718397312
 31
0.0
  0
LINE
  5
75BB
330
46
100
AcDbEntity
  8
D-STR-STR2
  6
Continuous
100
AcDbLine
 10
324.7622709670932
 20
828.6625718397313
 30
0.0
 11
326.7622709670932
 21
828.6625718397313
 31
0.0
  0
LINE
  5
75BC
330
46
100
AcDbEntity
  8
D-STR
  6
Continuous
100
AcDbLine
 10
324.7622709670932
 20
810.1625718397313
 30
0.0
 11
326.7622709670932
 21
810.1625718397313
 31
0.0
  0
LINE
  5
75BD
330
46
100
AcDbEntity
  8
D-STR
  6
Continuous
100
AcDbLine
 10
324.7622709670932
 20
835.1625718397311
 30
0.0
 11
326.7622709670932
 21
835.1625718397311
 31
0.0
  0
ARC
  5
75BE
330
46
100
AcDbEntity
  8
D-STR-STR2
  6
Continuous
100
AcDbCircle
 10
321.7622709670932
 20
822.6625718397313
 30
0.0
 40
14.9999999999999
100
AcDbArc
 50
126.8698976458414
 51
233.1301023541586
  0
LINE
  5
75BF
330
46
100
AcDbEntity
  8
D-STR-STR2
  6
Continuous
100
AcDbLine
 10
312.7622709670932
 20
834.6625718397312
 30
0.0
 11
312.7622709670932
 21
810.6625718397312
 31
0.0
  0
LINE
  5
75C0
330
46
100
AcDbEntity
  8
D-STR-STR2
  6
Continuous
100
AcDbLine
 10
314.7622709670932
 20
834.6625718397312
 30
0.0
 11
314.7622709670932
 21
810.6625718397312
 31
0.0
  0
LINE
  5
75C2
330
46
100
AcDbEntity
  8
D-STR-STR2
  6
Continuous
100
AcDbLine
 10
314.7622709670932
 20
816.6625718397312
 30
0.0
 11
320.2622709670932
 21
816.6625718397312
 31
0.0
  0
LINE
  5
75C3
330
46
100
AcDbEntity
  8
D-STR-STR2
  6
Continuous
100
AcDbLine
 10
312.7622709670932
 20
810.6625718397312
 30
0.0
 11
314.7622709670932
 21
810.6625718397312
 31
0.0
  0
LINE
  5
75C4
330
46
100
AcDbEntity
  8
D-STR-STR2
  6
DASHED
100
AcDbLine
 10
324.7622709670932
 20
816.6625718397312
 30
0.0
 11
320.2622709670932
 21
816.6625718397312
 31
0.0
  0
LINE
  5
75C5
330
46
100
AcDbEntity
  8
D-STR-STR2
  6
Continuous
100
AcDbLine
 10
314.7622709670932
 20
828.6625718397313
 30
0.0
 11
320.2622709670932
 21
828.6625718397313
 31
0.0
  0
LINE
  5
75C6
330
46
100
AcDbEntity
  8
D-STR-STR2
  6
DASHED
100
AcDbLine
 10
320.2622709670932
 20
828.6625718397313
 30
0.0
 11
324.7622709670932
 21
828.6625718397313
 31
0.0
  0
LINE
  5
75C9
330
46
100
AcDbEntity
  8
D-STR
  6
Continuous
100
AcDbLine
 10
320.2622709670932
 20
835.4194544977172
 30
0.0
 11
320.2622709670932
 21
846.6625718397313
 31
0.0
  0
LINE
  5
75CC
330
46
100
AcDbEntity
  8
D-STR-STR2
  6
Continuous
100
AcDbLine
 10
312.7622709670932
 20
834.6625718397312
 30
0.0
 11
314.7622709670932
 21
834.6625718397312
 31
0.0
  0
ARC
  5
75CD
330
46
100
AcDbEntity
  8
D-STR
  6
Continuous
100
AcDbCircle
 10
326.7622709670932
 20
830.1625718397312
 30
0.0
 40
4.999999999999999
100
AcDbArc
 50
0.0
 51
90.0
  0
LINE
  5
75CE
330
46
100
AcDbEntity
  8
D-STR
  6
Continuous
100
AcDbLine
 10
331.7622709670932
 20
830.1625718397312
 30
0.0
 11
331.7622709670932
 21
815.1625718397312
 31
0.0
  0
LINE
  5
75CF
330
46
100
AcDbEntity
  8
D-STR-STR2
  6
Continuous
100
AcDbLine
 10
326.7622709670932
 20
828.6625718397313
 30
0.0
 11
326.7622709670932
 21
816.6625718397312
 31
0.0
  0
ARC
  5
75D3
330
46
100
AcDbEntity
  8
D-STR
  6
Continuous
100
AcDbCircle
 10
319.2622709670932
 20
860.6625718397312
 30
0.0
 40
5.5
100
AcDbArc
 50
0.0
 51
90.0
  0
LINE
  5
75D7
330
46
100
AcDbEntity
  8
D-STR
  6
Continuous
100
AcDbLine
 10
309.7622709670932
 20
861.6625718397314
 30
0.0
 11
319.2622709670932
 21
861.6625718397314
 31
0.0
  0
LINE
  5
75D8
330
46
100
AcDbEntity
  8
D-STR
  6
Continuous
100
AcDbLine
 10
309.7622709670932
 20
866.1625718397313
 30
0.0
 11
319.2622709670932
 21
866.1625718397313
 31
0.0
  0
LINE
  5
75D9
330
46
100
AcDbEntity
  8
D-STR
  6
Continuous
100
AcDbLine
 10
309.7622709670932
 20
866.1625718397313
 30
0.0
 11
309.7622709670932
 21
861.6625718397314
 31
0.0
  0
ARC
  5
75DA
330
46
100
AcDbEntity
  8
D-STR
  6
Continuous
100
AcDbCircle
 10
319.2622709670932
 20
860.6625718397312
 30
0.0
 40
0.9999999999999998
100
AcDbArc
 50
0.0
 51
90.0
  0
LINE
  5
75EB
330
46
100
AcDbEntity
  8
D-STR
  6
Continuous
100
AcDbLine
 10
567.0622709670933
 20
849.6625718397313
 30
0.0
 11
567.0622709670933
 21
795.6625718397313
 31
0.0
  0
LINE
  5
75EC
330
46
100
AcDbEntity
  8
D-STR
  6
Continuous
100
AcDbLine
 10
570.2622709670931
 20
845.6625718397313
 30
0.0
 11
570.2622709670931
 21
799.6625718397313
 31
0.0
  0
LINE
  5
75F5
330
46
100
AcDbEntity
  8
D-STR
  6
DASHED
100
AcDbLine
 10
562.2622709670936
 20
792.6625718397312
 30
0.0
 11
562.2622709670936
 21
795.8625718397312
 31
0.0
  0
ARC
  5
75F6
330
46
100
AcDbEntity
  8
D-STR
  6
Continuous
100
AcDbCircle
 10
564.0622709670934
 20
795.6625718397313
 30
0.0
 40
3.0
100
AcDbArc
 50
270.0
 51
0.0
  0
LINE
  5
75F7
330
46
100
AcDbEntity
  8
D-STR
  6
Continuous
100
AcDbLine
 10
567.0622709670933
 20
799.6625718397313
 30
0.0
 11
570.2622709670931
 21
799.6625718397313
 31
0.0
  0
LINE
  5
75FD
330
46
100
AcDbEntity
  8
D-STR
  6
Continuous
100
AcDbLine
 10
567.0622709670933
 20
845.6625718397313
 30
0.0
 11
570.2622709670931
 21
845.6625718397313
 31
0.0
  0
LINE
  5
75FE
330
46
100
AcDbEntity
  8
D-STR
  6
DASHED
100
AcDbLine
 10
562.2622709670936
 20
849.4625718397312
 30
0.0
 11
562.2622709670936
 21
852.6625718397312
 31
0.0
  0
ARC
  5
75FF
330
46
100
AcDbEntity
  8
D-STR
  6
Continuous
100
AcDbCircle
 10
564.0622709670934
 20
849.6625718397313
 30
0.0
 40
3.0
100
AcDbArc
 50
0.0
 51
90.0
  0
LINE
  5
761D
330
46
100
AcDbEntity
  8
D-STR
  6
Continuous
100
AcDbLine
 10
678.4420914082784
 20
620.9378516688006
 30
0.0
 11
678.4420914082784
 21
569.6613904344125
 31
0.0
  0
LINE
  5
761E
330
46
100
AcDbEntity
  8
D-STR
  6
Continuous
100
AcDbLine
 10
732.0420914082783
 20
620.9378516688006
 30
0.0
 11
732.0420914082783
 21
569.6613904344125
 31
0.0
  0
LINE
  5
761F
330
46
100
AcDbEntity
  8
D-STR
  6
Continuous
100
AcDbLine
 10
735.2420914082781
 20
620.9378516688006
 30
0.0
 11
735.2420914082781
 21
569.6613904344125
 31
0.0
  0
LINE
  5
7620
330
46
100
AcDbEntity
  8
D-STR
  6
Continuous
100
AcDbLine
 10
675.2420914082781
 20
620.9378516688006
 30
0.0
 11
675.2420914082781
 21
569.6613904344125
 31
0.0
  0
LINE
  5
7621
330
46
100
AcDbEntity
  8
D-BMK
  6
CENTER
100
AcDbLine
 10
705.2420914082781
 20
656.150375006163
 30
0.0
 11
705.2420914082786
 21
533.9613904344124
 31
0.0
  0
LINE
  5
7622
330
46
100
AcDbEntity
  8
D-STR
  6
DASHED
100
AcDbLine
 10
732.0420914082783
 20
613.1613904344126
 30
0.0
 11
678.4420914082784
 21
613.1613904344126
 31
0.0
  0
LINE
  5
7625
330
46
100
AcDbEntity
  8
D-STR
  6
Continuous
100
AcDbLine
 10
732.0420914082783
 20
609.9613904344125
 30
0.0
 11
678.4420914082784
 21
609.9613904344125
 31
0.0
  0
LINE
  5
7626
330
46
100
AcDbEntity
  8
D-STR
  6
Continuous
100
AcDbLine
 10
748.7420914082782
 20
538.9613904344124
 30
0.0
 11
661.7420914082781
 21
538.9613904344125
 31
0.0
  0
LINE
  5
7627
330
46
100
AcDbEntity
  8
D-STR
  6
DASHED
100
AcDbLine
 10
664.9420914082784
 20
618.9613904344126
 30
0.0
 11
664.9420914082784
 21
538.9613904344125
 31
0.0
  0
LINE
  5
7628
330
46
100
AcDbEntity
  8
D-STR
  6
Continuous
100
AcDbLine
 10
661.7420914082781
 20
618.9613904344126
 30
0.0
 11
661.7420914082781
 21
538.9613904344125
 31
0.0
  0
LINE
  5
7629
330
46
100
AcDbEntity
  8
D-STR
  6
Continuous
100
AcDbLine
 10
678.4420914082784
 20
569.6613904344125
 30
0.0
 11
675.2420914082781
 21
569.6613904344125
 31
0.0
  0
LINE
  5
762A
330
46
100
AcDbEntity
  8
D-STR-STR2
  6
Continuous
100
AcDbLine
 10
698.4920914082781
 20
560.7113904344125
 30
0.0
 11
698.4920914082781
 21
547.2113904344126
 31
0.0
  0
LINE
  5
762B
330
46
100
AcDbEntity
  8
D-STR-STR2
  6
Continuous
100
AcDbLine
 10
711.9920914082781
 20
560.7113904344125
 30
0.0
 11
711.9920914082781
 21
547.2113904344126
 31
0.0
  0
LINE
  5
762C
330
46
100
AcDbEntity
  8
D-STR-STR2
  6
Continuous
100
AcDbLine
 10
698.4920914082781
 20
547.2113904344126
 30
0.0
 11
711.9920914082781
 21
547.2113904344126
 31
0.0
  0
LINE
  5
762E
330
46
100
AcDbEntity
  8
D-BMK
  6
CENTER
100
AcDbLine
 10
693.4920914082781
 20
553.9613904344125
 30
0.0
 11
716.9920914082786
 21
553.9613904344125
 31
0.0
  0
LINE
  5
762F
330
46
100
AcDbEntity
  8
D-STR-STR2
  6
Continuous
100
AcDbLine
 10
698.4920914082781
 20
560.7113904344125
 30
0.0
 11
711.9920914082781
 21
560.7113904344125
 31
0.0
  0
LINE
  5
7631
330
46
100
AcDbEntity
  8
D-STR
  6
Continuous
100
AcDbLine
 10
675.4242620329755
 20
618.9613904344126
 30
0.0
 11
661.7420914082781
 21
618.9613904344126
 31
0.0
  0
LINE
  5
7632
330
46
100
AcDbEntity
  8
D-BMK
  6
CENTER
100
AcDbLine
 10
694.2420914082781
 20
603.9613904344125
 30
0.0
 11
716.2420914082786
 21
603.9613904344125
 31
0.0
  0
LINE
  5
7633
330
46
100
AcDbEntity
  8
D-STR-STR2
  6
Continuous
100
AcDbLine
 10
699.2420914082781
 20
609.9613904344124
 30
0.0
 11
711.2420914082782
 21
609.9613904344124
 31
0.0
  0
LINE
  5
7634
330
46
100
AcDbEntity
  8
D-STR-STR2
  6
Continuous
100
AcDbLine
 10
699.2420914082781
 20
597.9613904344126
 30
0.0
 11
711.2420914082782
 21
597.9613904344126
 31
0.0
  0
LINE
  5
7635
330
46
100
AcDbEntity
  8
D-STR-STR2
  6
Continuous
100
AcDbLine
 10
699.2420914082781
 20
609.9613904344124
 30
0.0
 11
699.2420914082781
 21
597.9613904344126
 31
0.0
  0
LINE
  5
7637
330
46
100
AcDbEntity
  8
D-STR-STR2
  6
Continuous
100
AcDbLine
 10
711.2420914082782
 20
609.9613904344124
 30
0.0
 11
711.2420914082782
 21
597.9613904344126
 31
0.0
  0
LINE
  5
763A
330
46
100
AcDbEntity
  8
D-STR
  6
DASHED
100
AcDbLine
 10
745.5420914082783
 20
618.9613904344126
 30
0.0
 11
745.5420914082783
 21
538.9613904344124
 31
0.0
  0
LINE
  5
763B
330
46
100
AcDbEntity
  8
D-STR
  6
Continuous
100
AcDbLine
 10
748.7420914082782
 20
618.9613904344126
 30
0.0
 11
748.7420914082782
 21
538.9613904344124
 31
0.0
  0
LINE
  5
763D
330
46
100
AcDbEntity
  8
D-STR
  6
Continuous
100
AcDbLine
 10
735.2420914082781
 20
569.6613904344125
 30
0.0
 11
732.0420914082783
 21
569.6613904344125
 31
0.0
  0
LINE
  5
7644
330
46
100
AcDbEntity
  8
D-STR
  6
Continuous
100
AcDbLine
 10
748.7420914082782
 20
618.9613904344126
 30
0.0
 11
735.0599207835812
 21
618.9613904344126
 31
0.0
  0
LINE
  5
764B
330
46
100
AcDbEntity
  8
D-STR
  6
DASHED
100
AcDbLine
 10
682.2420914082786
 20
625.1378516688006
 30
0.0
 11
728.2420914082782
 21
625.1378516688006
 31
0.0
  0
LINE
  5
764C
330
46
100
AcDbEntity
  8
D-STR
  6
Continuous
100
AcDbLine
 10
731.0420914082783
 20
621.9378516688006
 30
0.0
 11
679.4420914082779
 21
621.9378516688006
 31
0.0
  0
ARC
  5
764D
330
46
100
AcDbEntity
  8
D-STR
  6
Continuous
100
AcDbCircle
 10
718.2420914082785
 20
640.4363679856743
 30
0.0
 40
9.999999999999998
100
AcDbArc
 50
0.0
 51
90.0
  0
ARC
  5
764F
330
46
100
AcDbEntity
  8
D-STR
  6
Continuous
100
AcDbCircle
 10
692.2420914082781
 20
640.4363679856743
 30
0.0
 40
9.999999999999998
100
AcDbArc
 50
90.0
 51
180.0
  0
LINE
  5
7650
330
46
100
AcDbEntity
  8
D-STR
  6
Continuous
100
AcDbLine
 10
682.2420914082782
 20
640.4363679856743
 30
0.0
 11
682.2420914082782
 21
621.9378516688006
 31
0.0
  0
LINE
  5
7651
330
46
100
AcDbEntity
  8
D-STR
  6
Continuous
100
AcDbLine
 10
682.2420914082786
 20
625.1378516688006
 30
0.0
 11
679.4420914082779
 21
625.1378516688006
 31
0.0
  0
ARC
  5
7652
330
46
100
AcDbEntity
  8
D-STR
  6
Continuous
100
AcDbCircle
 10
679.4420914082779
 20
620.9378516688006
 30
0.0
 40
4.2
100
AcDbArc
 50
90.0
 51
180.0
  0
ARC
  5
7653
330
46
100
AcDbEntity
  8
D-STR
  6
Continuous
100
AcDbCircle
 10
679.4420914082779
 20
620.9378516688006
 30
0.0
 40
0.9999999999999998
100
AcDbArc
 50
90.0
 51
180.0
  0
LINE
  5
7654
330
46
100
AcDbEntity
  8
D-STR
  6
Continuous
100
AcDbLine
 10
718.2420914082785
 20
650.4363679856742
 30
0.0
 11
692.2420914082781
 21
650.4363679856742
 31
0.0
  0
LINE
  5
765E
330
46
100
AcDbEntity
  8
D-STR
  6
Continuous
100
AcDbLine
 10
728.2420914082782
 20
640.4363679856743
 30
0.0
 11
728.2420914082782
 21
621.9378516688006
 31
0.0
  0
ARC
  5
765F
330
46
100
AcDbEntity
  8
D-STR
  6
Continuous
100
AcDbCircle
 10
731.0420914082783
 20
620.9378516688006
 30
0.0
 40
4.2
100
AcDbArc
 50
0.0
 51
90.0
  0
LINE
  5
7660
330
46
100
AcDbEntity
  8
D-STR
  6
Continuous
100
AcDbLine
 10
731.0420914082783
 20
625.1378516688006
 30
0.0
 11
728.2420914082782
 21
625.1378516688006
 31
0.0
  0
ARC
  5
7661
330
46
100
AcDbEntity
  8
D-STR
  6
Continuous
100
AcDbCircle
 10
731.0420914082783
 20
620.9378516688006
 30
0.0
 40
0.9999999999999998
100
AcDbArc
 50
0.0
 51
90.0
  0
LINE
  5
782A
330
46
100
AcDbEntity
  8
D-BMK
  6
CENTER
100
AcDbLine
 10
968.5352705949767
 20
822.6625718397311
 30
0.0
 11
1308.535270594977
 21
822.6625718397311
 31
0.0
  0
LINE
  5
7831
330
46
100
AcDbEntity
  8
D-STR
  6
Continuous
100
AcDbLine
 10
1276.356569608291
 20
616.840519971652
 30
0.0
 11
993.035270594977
 21
563.1613904344123
 31
0.0
  0
LINE
  5
7832
330
46
100
AcDbEntity
  8
D-STR
  6
DASHED
100
AcDbLine
 10
993.1950706776804
 20
609.9653829354274
 30
0.0
 11
1280.535270594977
 21
624.3323666566489
 31
0.0
  0
LINE
  5
7833
330
46
100
AcDbEntity
  8
D-STR
  6
Continuous
100
AcDbLine
 10
993.035270594977
 20
613.1613904344123
 30
0.0
 11
1282.485083172512
 21
627.6338545957409
 31
0.0
  0
ARC
  5
7835
330
46
100
AcDbEntity
  8
D-STR
  6
Continuous
100
AcDbCircle
 10
983.0352705949769
 20
613.9613904344123
 30
0.0
 40
4.999999999999999
100
AcDbArc
 50
90.0
 51
180.0
  0
LINE
  5
7837
330
46
100
AcDbEntity
  8
D-STR
  6
Continuous
100
AcDbLine
 10
978.035270594977
 20
613.9613904344123
 30
0.0
 11
978.035270594977
 21
543.9613904344123
 31
0.0
  0
LINE
  5
7838
330
46
100
AcDbEntity
  8
D-STR
  6
DASHED
100
AcDbLine
 10
988.5352705949769
 20
618.9613904344123
 30
0.0
 11
988.5352705949769
 21
538.9613904344123
 31
0.0
  0
LINE
  5
7839
330
46
100
AcDbEntity
  8
D-STR
  6
Continuous
100
AcDbLine
 10
993.035270594977
 20
618.9613904344123
 30
0.0
 11
993.035270594977
 21
538.9613904344123
 31
0.0
  0
LINE
  5
783A
330
46
100
AcDbEntity
  8
D-BMK
  6
CENTER
100
AcDbLine
 10
968.035270594977
 20
553.9613904344123
 30
0.0
 11
1003.035270594977
 21
553.9613904344123
 31
0.0
  0
ARC
  5
783B
330
46
100
AcDbEntity
  8
D-STR
  6
Continuous
100
AcDbCircle
 10
983.0352705949769
 20
543.9613904344123
 30
0.0
 40
4.999999999999999
100
AcDbArc
 50
180.0
 51
270.0
  0
LINE
  5
783C
330
46
100
AcDbEntity
  8
D-STR
  6
Continuous
100
AcDbLine
 10
983.0352705949769
 20
538.9613904344123
 30
0.0
 11
993.035270594977
 21
538.9613904344123
 31
0.0
  0
LINE
  5
783D
330
46
100
AcDbEntity
  8
D-STR-STR2
  6
DASHED
100
AcDbLine
 10
995.035270594977
 20
597.9613904344123
 30
0.0
 11
983.0352705949769
 21
597.9613904344123
 31
0.0
  0
LINE
  5
783E
330
46
100
AcDbEntity
  8
D-STR-STR2
  6
DASHED
100
AcDbLine
 10
983.0352705949769
 20
609.9613904344122
 30
0.0
 11
995.035270594977
 21
609.9613904344122
 31
0.0
  0
LINE
  5
783F
330
46
100
AcDbEntity
  8
D-BMK
  6
CENTER
100
AcDbLine
 10
968.5352705949769
 20
603.9613904344123
 30
0.0
 11
1003.035270594977
 21
603.9613904344123
 31
0.0
  0
ARC
  5
7840
330
46
100
AcDbEntity
  8
D-STR-STR2
  6
Continuous
100
AcDbCircle
 10
990.0352705949769
 20
603.9613904344123
 30
0.0
 40
14.9999999999999
100
AcDbArc
 50
143.1301023541546
 51
216.8698976458453
  0
LINE
  5
7841
330
46
100
AcDbEntity
  8
D-STR-STR2
  6
DASHED
100
AcDbLine
 10
981.0352705949769
 20
615.9613904344122
 30
0.0
 11
981.0352705949769
 21
591.9613904344124
 31
0.0
  0
LINE
  5
7842
330
46
100
AcDbEntity
  8
D-STR-STR2
  6
DASHED
100
AcDbLine
 10
983.0352705949769
 20
615.9613904344122
 30
0.0
 11
983.0352705949769
 21
591.9613904344124
 31
0.0
  0
ARC
  5
7843
330
46
100
AcDbEntity
  8
D-STR-STR2
  6
DASHED
100
AcDbCircle
 10
990.0352705949769
 20
603.9613904344123
 30
0.0
 40
14.9999999999999
100
AcDbArc
 50
216.8698976458453
 51
233.1301023541605
  0
LINE
  5
7844
330
46
100
AcDbEntity
  8
D-STR-STR2
  6
DASHED
100
AcDbLine
 10
981.0352705949769
 20
591.9613904344124
 30
0.0
 11
983.0352705949769
 21
591.9613904344124
 31
0.0
  0
LINE
  5
7847
330
46
100
AcDbEntity
  8
D-STR
  6
Continuous
100
AcDbLine
 10
983.0352705949769
 20
618.9613904344123
 30
0.0
 11
993.035270594977
 21
618.9613904344123
 31
0.0
  0
ARC
  5
7848
330
46
100
AcDbEntity
  8
D-STR-STR2
  6
DASHED
100
AcDbCircle
 10
990.0352705949769
 20
603.9613904344123
 30
0.0
 40
14.9999999999999
100
AcDbArc
 50
126.8698976458394
 51
143.1301023541546
  0
LINE
  5
7849
330
46
100
AcDbEntity
  8
D-STR-STR2
  6
DASHED
100
AcDbLine
 10
981.0352705949769
 20
615.9613904344122
 30
0.0
 11
983.0352705949769
 21
615.9613904344122
 31
0.0
  0
LINE
  5
784A
330
46
100
AcDbEntity
  8
D-STR-STR2
  6
DASHED
100
AcDbLine
 10
995.035270594977
 20
609.9613904344122
 30
0.0
 11
995.035270594977
 21
597.9613904344123
 31
0.0
  0
ARC
  5
7855
330
46
100
AcDbEntity
  8
D-STR
  6
Continuous
100
AcDbCircle
 10
1275.535270594977
 20
621.772605527553
 30
0.0
 40
4.999999999999999
100
AcDbArc
 50
279.4542376095175
 51
0.0
  0
LINE
  5
785C
330
46
100
AcDbEntity
  8
D-STR
  6
Continuous
100
AcDbLine
 10
1285.335270594977
 20
652.9363634136297
 30
0.0
 11
1285.335270594977
 21
630.6301116260392
 31
0.0
  0
LINE
  5
785D
330
46
100
AcDbEntity
  8
D-STR
  6
Continuous
100
AcDbLine
 10
1288.535270594977
 20
652.9363634136297
 30
0.0
 11
1288.535270594977
 21
630.6301116260392
 31
0.0
  0
ARC
  5
785E
330
46
100
AcDbEntity
  8
D-STR
  6
Continuous
100
AcDbCircle
 10
1282.335270594977
 20
630.6301116260392
 30
0.0
 40
6.2
100
AcDbArc
 50
272.8623999999994
 51
0.0
  0
ARC
  5
785F
330
46
100
AcDbEntity
  8
D-STR
  6
Continuous
100
AcDbCircle
 10
1282.335270594977
 20
630.6301116260392
 30
0.0
 40
3.0
100
AcDbArc
 50
272.8623999999994
 51
0.0
  0
LINE
  5
7860
330
46
100
AcDbEntity
  8
D-STR
  6
Continuous
100
AcDbLine
 10
1280.535270594977
 20
624.3323666566489
 30
0.0
 11
1282.644883255215
 21
624.4378470967561
 31
0.0
  0
LINE
  5
7861
330
46
100
AcDbEntity
  8
D-STR
  6
Continuous
100
AcDbLine
 10
1280.535270594977
 20
624.3323666566489
 30
0.0
 11
1280.535270594977
 21
621.772605527553
 31
0.0
  0
LINE
  5
7862
330
46
100
AcDbEntity
  8
D-STR
  6
Continuous
100
AcDbLine
 10
1280.535270594977
 20
627.5363641451567
 30
0.0
 11
1280.535270594977
 21
624.3323666566489
 31
0.0
  0
LINE
  5
7863
330
46
100
AcDbEntity
  8
D-STR
  6
Continuous
100
AcDbLine
 10
1288.535270594977
 20
652.9363634136297
 30
0.0
 11
1285.335270594977
 21
652.9363634136297
 31
0.0
  0
LINE
  5
786A
330
46
100
AcDbEntity
  8
D-STR
  6
DASHED
100
AcDbLine
 10
993.0352705949767
 20
795.862571839731
 30
0.0
 11
1280.535270594977
 21
795.862571839731
 31
0.0
  0
LINE
  5
786B
330
46
100
AcDbEntity
  8
D-STR
  6
DASHED
100
AcDbLine
 10
993.0352705949767
 20
849.462571839731
 30
0.0
 11
1280.535270594977
 21
849.462571839731
 31
0.0
  0
LINE
  5
786C
330
46
100
AcDbEntity
  8
D-STR
  6
Continuous
100
AcDbLine
 10
993.0352705949767
 20
792.6625718397311
 30
0.0
 11
1282.335270594977
 21
792.6625718397311
 31
0.0
  0
LINE
  5
786D
330
46
100
AcDbEntity
  8
D-STR
  6
Continuous
100
AcDbLine
 10
993.0352705949767
 20
852.662571839731
 30
0.0
 11
1282.335270594977
 21
852.662571839731
 31
0.0
  0
ARC
  5
7872
330
46
100
AcDbEntity
  8
D-STR
  6
Continuous
100
AcDbCircle
 10
995.0352705949766
 20
815.162571839731
 30
0.0
 40
4.999999999999999
100
AcDbArc
 50
270.0
 51
0.0
  0
ARC
  5
7873
330
46
100
AcDbEntity
  8
D-STR-STR2
  6
Continuous
100
AcDbCircle
 10
990.0352705949767
 20
822.6625718397311
 30
0.0
 40
14.9999999999999
100
AcDbArc
 50
126.8698976458394
 51
233.1301023541605
  0
LINE
  5
7874
330
46
100
AcDbEntity
  8
D-STR-STR2
  6
Continuous
100
AcDbLine
 10
981.0352705949767
 20
834.662571839731
 30
0.0
 11
981.0352705949767
 21
810.662571839731
 31
0.0
  0
LINE
  5
7875
330
46
100
AcDbEntity
  8
D-STR-STR2
  6
Continuous
100
AcDbLine
 10
983.0352705949767
 20
834.662571839731
 30
0.0
 11
983.0352705949767
 21
810.662571839731
 31
0.0
  0
LINE
  5
7876
330
46
100
AcDbEntity
  8
D-STR
  6
Continuous
100
AcDbLine
 10
993.0352705949767
 20
860.662571839731
 30
0.0
 11
993.0352705949767
 21
784.662571839731
 31
0.0
  0
LINE
  5
7877
330
46
100
AcDbEntity
  8
D-STR
  6
Continuous
100
AcDbLine
 10
988.5352705949767
 20
860.662571839731
 30
0.0
 11
988.5352705949767
 21
784.662571839731
 31
0.0
  0
LINE
  5
7881
330
46
100
AcDbEntity
  8
D-STR
  6
Continuous
100
AcDbLine
 10
993.0352705949767
 20
810.1625718397311
 30
0.0
 11
995.0352705949766
 21
810.1625718397311
 31
0.0
  0
ARC
  5
7882
330
46
100
AcDbEntity
  8
D-STR
  6
Continuous
100
AcDbCircle
 10
987.5352705949767
 20
784.662571839731
 30
0.0
 40
5.5
100
AcDbArc
 50
270.0
 51
0.0
  0
LINE
  5
7883
330
46
100
AcDbEntity
  8
D-STR
  6
Continuous
100
AcDbLine
 10
978.0352705949766
 20
783.6625718397309
 30
0.0
 11
987.5352705949767
 21
783.6625718397309
 31
0.0
  0
LINE
  5
7884
330
46
100
AcDbEntity
  8
D-STR
  6
Continuous
100
AcDbLine
 10
978.0352705949766
 20
779.1625718397311
 30
0.0
 11
987.5352705949767
 21
779.1625718397311
 31
0.0
  0
LINE
  5
7885
330
46
100
AcDbEntity
  8
D-STR
  6
Continuous
100
AcDbLine
 10
978.0352705949766
 20
779.1625718397311
 30
0.0
 11
978.0352705949766
 21
783.6625718397309
 31
0.0
  0
ARC
  5
7886
330
46
100
AcDbEntity
  8
D-STR
  6
Continuous
100
AcDbCircle
 10
987.5352705949767
 20
784.662571839731
 30
0.0
 40
0.9999999999999998
100
AcDbArc
 50
270.0
 51
0.0
  0
LINE
  5
7887
330
46
100
AcDbEntity
  8
D-STR-STR2
  6
Continuous
100
AcDbLine
 10
981.0352705949767
 20
810.662571839731
 30
0.0
 11
983.0352705949767
 21
810.662571839731
 31
0.0
  0
LINE
  5
7896
330
46
100
AcDbEntity
  8
D-STR-STR2
  6
Continuous
100
AcDbLine
 10
995.0352705949766
 20
816.6625718397311
 30
0.0
 11
993.0352705949767
 21
816.6625718397311
 31
0.0
  0
LINE
  5
7897
330
46
100
AcDbEntity
  8
D-STR-STR2
  6
Continuous
100
AcDbLine
 10
993.0352705949767
 20
828.662571839731
 30
0.0
 11
995.0352705949766
 21
828.662571839731
 31
0.0
  0
LINE
  5
7898
330
46
100
AcDbEntity
  8
D-STR
  6
Continuous
100
AcDbLine
 10
993.0352705949767
 20
835.1625718397309
 30
0.0
 11
995.0352705949766
 21
835.1625718397309
 31
0.0
  0
LINE
  5
789A
330
46
100
AcDbEntity
  8
D-STR-STR2
  6
Continuous
100
AcDbLine
 10
983.0352705949767
 20
816.6625718397311
 30
0.0
 11
988.5352705949767
 21
816.6625718397311
 31
0.0
  0
LINE
  5
789B
330
46
100
AcDbEntity
  8
D-STR-STR2
  6
DASHED
100
AcDbLine
 10
993.0352705949767
 20
816.6625718397311
 30
0.0
 11
988.5352705949767
 21
816.6625718397311
 31
0.0
  0
LINE
  5
789C
330
46
100
AcDbEntity
  8
D-STR-STR2
  6
Continuous
100
AcDbLine
 10
983.0352705949767
 20
828.662571839731
 30
0.0
 11
988.5352705949767
 21
828.662571839731
 31
0.0
  0
LINE
  5
789D
330
46
100
AcDbEntity
  8
D-STR-STR2
  6
DASHED
100
AcDbLine
 10
988.5352705949767
 20
828.662571839731
 30
0.0
 11
993.0352705949767
 21
828.662571839731
 31
0.0
  0
LINE
  5
78A1
330
46
100
AcDbEntity
  8
D-STR
  6
Continuous
100
AcDbLine
 10
988.5352705949767
 20
835.419454497717
 30
0.0
 11
988.5352705949767
 21
846.662571839731
 31
0.0
  0
LINE
  5
78A3
330
46
100
AcDbEntity
  8
D-STR-STR2
  6
Continuous
100
AcDbLine
 10
981.0352705949767
 20
834.662571839731
 30
0.0
 11
983.0352705949767
 21
834.662571839731
 31
0.0
  0
ARC
  5
78A4
330
46
100
AcDbEntity
  8
D-STR
  6
Continuous
100
AcDbCircle
 10
995.0352705949766
 20
830.1625718397309
 30
0.0
 40
4.999999999999999
100
AcDbArc
 50
0.0
 51
90.0
  0
LINE
  5
78A5
330
46
100
AcDbEntity
  8
D-STR
  6
Continuous
100
AcDbLine
 10
1000.035270594977
 20
830.1625718397309
 30
0.0
 11
1000.035270594977
 21
815.162571839731
 31
0.0
  0
LINE
  5
78A6
330
46
100
AcDbEntity
  8
D-STR-STR2
  6
Continuous
100
AcDbLine
 10
995.0352705949766
 20
828.662571839731
 30
0.0
 11
995.0352705949766
 21
816.6625718397311
 31
0.0
  0
ARC
  5
78AA
330
46
100
AcDbEntity
  8
D-STR
  6
Continuous
100
AcDbCircle
 10
987.5352705949767
 20
860.662571839731
 30
0.0
 40
5.5
100
AcDbArc
 50
0.0
 51
90.0
  0
LINE
  5
78AE
330
46
100
AcDbEntity
  8
D-STR
  6
Continuous
100
AcDbLine
 10
978.0352705949766
 20
861.662571839731
 30
0.0
 11
987.5352705949767
 21
861.662571839731
 31
0.0
  0
LINE
  5
78AF
330
46
100
AcDbEntity
  8
D-STR
  6
Continuous
100
AcDbLine
 10
978.0352705949766
 20
866.162571839731
 30
0.0
 11
987.5352705949767
 21
866.162571839731
 31
0.0
  0
LINE
  5
78B0
330
46
100
AcDbEntity
  8
D-STR
  6
Continuous
100
AcDbLine
 10
978.0352705949766
 20
866.162571839731
 30
0.0
 11
978.0352705949766
 21
861.662571839731
 31
0.0
  0
ARC
  5
78B1
330
46
100
AcDbEntity
  8
D-STR
  6
Continuous
100
AcDbCircle
 10
987.5352705949767
 20
860.662571839731
 30
0.0
 40
0.9999999999999998
100
AcDbArc
 50
0.0
 51
90.0
  0
LINE
  5
78C0
330
46
100
AcDbEntity
  8
D-STR
  6
Continuous
100
AcDbLine
 10
1285.335270594977
 20
849.6625718397311
 30
0.0
 11
1285.335270594977
 21
795.6625718397311
 31
0.0
  0
LINE
  5
78C1
330
46
100
AcDbEntity
  8
D-STR
  6
Continuous
100
AcDbLine
 10
1288.535270594977
 20
845.662571839731
 30
0.0
 11
1288.535270594977
 21
799.6625718397311
 31
0.0
  0
ARC
  5
78C8
330
46
100
AcDbEntity
  8
D-STR
  6
Continuous
100
AcDbCircle
 10
1282.335270594977
 20
795.6625718397311
 30
0.0
 40
3.0
100
AcDbArc
 50
270.0
 51
0.0
  0
LINE
  5
78C9
330
46
100
AcDbEntity
  8
D-STR
  6
DASHED
100
AcDbLine
 10
1280.535270594977
 20
792.6625718397311
 30
0.0
 11
1280.535270594977
 21
795.862571839731
 31
0.0
  0
LINE
  5
78CA
330
46
100
AcDbEntity
  8
D-STR
  6
Continuous
100
AcDbLine
 10
1285.335270594977
 20
799.6625718397311
 30
0.0
 11
1288.535270594977
 21
799.6625718397311
 31
0.0
  0
ARC
  5
78CD
330
46
100
AcDbEntity
  8
D-STR
  6
Continuous
100
AcDbCircle
 10
1282.335270594977
 20
849.6625718397311
 30
0.0
 40
3.0
100
AcDbArc
 50
0.0
 51
90.0
  0
LINE
  5
78CE
330
46
100
AcDbEntity
  8
D-STR
  6
DASHED
100
AcDbLine
 10
1280.535270594977
 20
849.462571839731
 30
0.0
 11
1280.535270594977
 21
852.662571839731
 31
0.0
  0
LINE
  5
78CF
330
46
100
AcDbEntity
  8
D-STR
  6
Continuous
100
AcDbLine
 10
1285.335270594977
 20
845.662571839731
 30
0.0
 11
1288.535270594977
 21
845.662571839731
 31
0.0
  0
DIMENSION
  5
798F
330
46
100
AcDbEntity
  8
D-STR-DIM
  6
Continuous
100
AcDbDimension
  2
*D1
 10
324.7622709670932
 20
890.6625718397313
 30
0.0
 11
322.5122709670932
 21
896.1625718397312
 31
0.0
 70
    32
 71
     5
 42
4.5
  3
2
100
AcDbAlignedDimension
 13
320.2622709670932
 23
860.6625718397312
 33
0.0
 14
324.7622709670932
 24
860.6625718397312
 34
0.0
100
AcDbRotatedDimension
1001
ACAD
1000
DSTYLE
1002
{
1070
   271
1070
     1
1002
}
  0
DIMENSION
  5
79A9
330
46
100
AcDbEntity
  8
D-STR-DIM
  6
Continuous
100
AcDbDimension
  2
*D2
 10
570.2622709670931
 20
890.6625718397313
 30
0.0
 11
447.5122709670931
 21
896.1625718397312
 31
0.0
 70
    32
 71
     5
 42
245.5
  3
2
100
AcDbAlignedDimension
 13
324.7622709670932
 23
860.6625718397312
 33
0.0
 14
570.2622709670931
 24
845.6625718397313
 34
0.0
100
AcDbRotatedDimension
1001
ACAD
1000
DSTYLE
1002
{
1070
   271
1070
     1
1002
}
  0
DIMENSION
  5
79C1
330
46
100
AcDbEntity
  8
D-STR-DIM
  6
Continuous
100
AcDbDimension
  2
*D3
 10
570.2622709670931
 20
920.6625718397313
 30
0.0
 11
445.2622709670931
 21
926.1625718397313
 31
0.0
 70
    32
 71
     5
 42
250.0
  3
2
100
AcDbAlignedDimension
 13
320.2622709670932
 23
860.6625718397312
 33
0.0
 14
570.2622709670931
 24
845.6625718397313
 34
0.0
100
AcDbRotatedDimension
  0
DIMENSION
  5
79CE
330
46
100
AcDbEntity
  8
D-STR-DIM
  6
Continuous
100
AcDbDimension
  2
*D4
 10
609.0622709670933
 20
792.6625718397312
 30
0.0
 11
603.5622709670931
 21
822.6625718397313
 31
0.0
 70
    32
 71
     5
 42
60.0
  3
2
100
AcDbAlignedDimension
 13
564.0622709670934
 23
852.6625718397312
 33
0.0
 14
564.0622709670934
 24
792.6625718397312
 34
0.0
 50
90.0
100
AcDbRotatedDimension
  0
DIMENSION
  5
79DB
330
46
100
AcDbEntity
  8
D-STR-DIM
  6
Continuous
100
AcDbDimension
  2
*D5
 10
567.0622709670933
 20
765.6625718397313
 30
0.0
 11
568.6622709670932
 21
771.1625718397312
 31
0.0
 70
    32
 71
     5
 42
3.199999999999818
  3
2
100
AcDbAlignedDimension
 13
570.2622709670931
 23
799.6625718397313
 33
0.0
 14
567.0622709670933
 24
795.6625718397313
 34
0.0
100
AcDbRotatedDimension
1001
ACAD
1000
DSTYLE
1002
{
1070
   271
1070
     1
1002
}
  0
DIMENSION
  5
79EA
330
46
100
AcDbEntity
  8
D-STR-DIM
  6
Continuous
100
AcDbDimension
  2
*D6
 10
309.7622709670932
 20
749.1625718397313
 30
0.0
 11
317.2622709670932
 21
754.6625718397312
 31
0.0
 70
    32
 71
     5
 42
15.0
  3
2
100
AcDbAlignedDimension
 13
324.7622709670932
 23
784.6625718397313
 33
0.0
 14
309.7622709670932
 24
779.1625718397312
 34
0.0
100
AcDbRotatedDimension
  0
DIMENSION
  5
79F7
330
46
100
AcDbEntity
  8
D-STR-DIM
  6
Continuous
100
AcDbDimension
  2
*D7
 10
320.2622709670932
 20
843.6625718397312
 30
0.0
 11
302.7574760130619
 21
843.6625718397312
 31
0.0
 70
   160
 71
     5
 42
5.5
  3
2
100
AcDbAlignedDimension
 13
314.7622709670932
 23
834.6625718397312
 33
0.0
 14
320.2622709670932
 24
834.6625718397312
 34
0.0
100
AcDbRotatedDimension
1001
ACAD
1000
DSTYLE
1002
{
1070
   271
1070
     1
1002
}
  0
DIMENSION
  5
7A06
330
46
100
AcDbEntity
  8
D-STR-DIM
  6
Continuous
100
AcDbDimension
  2
*D8
 10
279.7622709670932
 20
861.6625718397314
 30
0.0
 11
274.2622709670931
 21
863.9125718397314
 31
0.0
 70
    32
 71
     5
 42
4.5
  3
2
100
AcDbAlignedDimension
 13
309.7622709670932
 23
866.1625718397313
 33
0.0
 14
309.7622709670932
 24
861.6625718397314
 34
0.0
 50
90.0
100
AcDbRotatedDimension
1001
ACAD
1000
DSTYLE
1002
{
1070
   271
1070
     1
1002
}
  0
CIRCLE
  5
7A51
330
46
100
AcDbEntity
  8
D-STR-HTXT
  6
Continuous
100
AcDbCircle
 10
266.4111177659547
 20
908.677302638654
 30
0.0
 40
9.0
  0
MTEXT
  5
7A52
330
46
100
AcDbEntity
  8
D-STR-HTXT
  6
Continuous
100
AcDbMText
 10
266.4111177659547
 20
908.677302638654
 30
0.0
 40
10.5
 41
22.89912
 71
     5
 72
     5
  1
2
 73
     1
 44
1.0
1001
ACAD
1000
MTEXTBEGIN
1070
    73
1070
     1
1070
    44
1040
1.0
1070
    74
1070
     0
1000
MTEXTEND
  0
LINE
  5
7A5F
330
46
100
AcDbEntity
  8
D-STR-HTXT
  6
Continuous
100
AcDbLine
 10
311.5364380781268
 20
870.2410074911318
 30
0.0
 11
274.8860418171028
 21
904.2073089033358
 31
0.0
1001
ACAD
1000
DSTYLE
1002
{
1070
    41
1040
6.0
1070
   341
1005
7A53
1070
   147
1040
5.0
1070
    77
1070
     0
1002
}
  0
INSERT
  5
7A60
330
46
100
AcDbEntity
  8
D-STR-HTXT
  6
Continuous
100
AcDbBlockReference
  2
_Open
 10
315.9371610457088
 20
866.1625718397313
 30
0.0
 41
-5.999999999999311
 42
6.0
 43
6.0
 50
137.1767275510333
1001
ACAD
1000
DSTYLE
1002
{
1070
    41
1040
6.0
1070
   341
1005
7A53
1070
   147
1040
5.0
1070
    77
1070
     0
1002
}
  0
MTEXT
  5
7A61
330
46
100
AcDbEntity
  8
D-STR-HTXT
  6
Continuous
100
AcDbMText
 10
266.4111177659547
 20
795.1584285167059
 30
0.0
 40
10.5
 41
22.8991
 71
     5
 72
     5
  1
3
 73
     1
 44
1.0
1001
ACAD
1000
MTEXTBEGIN
1070
    73
1070
     1
1070
    44
1040
1.0
1070
    74
1070
     0
1000
MTEXTEND
  0
CIRCLE
  5
7A62
330
46
100
AcDbEntity
  8
D-STR-HTXT
  6
Continuous
100
AcDbCircle
 10
266.4111177659547
 20
795.1584285167059
 30
0.0
 40
9.0
  0
LINE
  5
7A63
330
46
100
AcDbEntity
  8
D-STR-HTXT
  6
Continuous
100
AcDbLine
 10
303.8695418080645
 20
814.2698728028909
 30
0.0
 11
278.862699945295
 21
799.8321659218299
 31
0.0
1001
ACAD
1000
DSTYLE
1002
{
1070
    41
1040
6.0
1070
   341
1005
7A53
1070
   147
1040
5.0
1070
    77
1070
     0
1002
}
  0
INSERT
  5
7A64
330
46
100
AcDbEntity
  8
D-STR-HTXT
  6
Continuous
100
AcDbBlockReference
  2
_Open
 10
309.065694230776
 20
817.2698728028851
 30
0.0
 41
-5.999999999999311
 42
6.0
 43
6.0
 50
210.0000000000096
1001
ACAD
1000
DSTYLE
1002
{
1070
    41
1040
6.0
1070
   341
1005
7A53
1070
   147
1040
5.0
1070
    77
1070
     0
1002
}
  0
MTEXT
  5
7A65
330
46
100
AcDbEntity
  8
D-STR-HTXT
  6
Continuous
100
AcDbMText
 10
446.4987264877931
 20
865.3860704824833
 30
0.0
 40
10.5
 41
22.8991
 71
     5
 72
     5
  1
1
 73
     1
 44
1.0
1001
ACAD
1000
MTEXTBEGIN
1070
    73
1070
     1
1070
    44
1040
1.0
1070
    74
1070
     0
1000
MTEXTEND
  0
CIRCLE
  5
7A66
330
46
100
AcDbEntity
  8
D-STR-HTXT
  6
Continuous
100
AcDbCircle
 10
446.4987264877931
 20
865.3860704824833
 30
0.0
 40
9.0
  0
DIMENSION
  5
7A67
330
46
100
AcDbEntity
  8
D-STR-DIM
  6
Continuous
100
AcDbDimension
  2
*D10
 10
534.2120835446276
 20
625.0363687172015
 30
0.0
 11
528.7120835446274
 21
637.736368351438
 31
0.0
 70
    32
 71
     5
 42
25.39999926847281
  3
2
100
AcDbAlignedDimension
 13
567.0622709670933
 23
650.4363679856743
 33
0.0
 14
562.2622709670936
 24
625.0363687172015
 34
0.0
 50
90.0
100
AcDbRotatedDimension
  0
DIMENSION
  5
7A74
330
46
100
AcDbEntity
  8
D-STR-DIM
  6
Continuous
100
AcDbDimension
  2
*D11
 10
414.7622709670931
 20
613.1613904344126
 30
0.0
 11
414.7622709670931
 21
630.16199326391
 31
0.0
 70
   160
 71
     5
 42
5.799999999999954
  3
2
100
AcDbAlignedDimension
 13
324.7622709670934
 23
618.9613904344126
 33
0.0
 14
324.7622709670934
 24
613.1613904344126
 34
0.0
 50
90.0
100
AcDbRotatedDimension
1001
ACAD
1000
DSTYLE
1002
{
1070
   271
1070
     1
1002
}
  0
DIMENSION
  5
7A83
330
46
100
AcDbEntity
  8
D-STR-DIM
  6
Continuous
100
AcDbDimension
  2
*D12
 10
414.7622709670931
 20
569.6613904344125
 30
0.0
 11
409.2622709670931
 21
591.4113904344127
 31
0.0
 70
    32
 71
     5
 42
43.5
  3
2
100
AcDbAlignedDimension
 13
324.7622709670934
 23
613.1613904344126
 33
0.0
 14
324.7622709670934
 24
569.6613904344125
 34
0.0
 50
90.0
100
AcDbRotatedDimension
1001
ACAD
1000
DSTYLE
1002
{
1070
   271
1070
     1
1002
}
  0
MTEXT
  5
7AFD
330
46
100
AcDbEntity
  8
D-STR-HTXT
  6
Continuous
100
AcDbMText
 10
288.036032210312
 20
624.8108871864055
 30
0.0
 40
10.5
 41
22.8991
 71
     5
 72
     5
  1
3
 73
     1
 44
1.0
1001
ACAD
1000
MTEXTBEGIN
1070
    73
1070
     1
1070
    44
1040
1.0
1070
    74
1070
     0
1000
MTEXTEND
  0
CIRCLE
  5
7AFE
330
46
100
AcDbEntity
  8
D-STR-HTXT
  6
Continuous
100
AcDbCircle
 10
288.036032210312
 20
624.8108871864055
 30
0.0
 40
9.0
  0
CIRCLE
  5
7AFF
330
46
100
AcDbEntity
  8
D-STR-HTXT
  6
Continuous
100
AcDbCircle
 10
297.9918945333943
 20
571.9463383084644
 30
0.0
 40
9.0
  0
MTEXT
  5
7B00
330
46
100
AcDbEntity
  8
D-STR-HTXT
  6
Continuous
100
AcDbMText
 10
297.9918945333943
 20
571.9463383084644
 30
0.0
 40
10.5
 41
22.8991
 71
     5
 72
     5
  1
2
 73
     1
 44
1.0
1001
ACAD
1000
MTEXTBEGIN
1070
    73
1070
     1
1070
    44
1040
1.0
1070
    74
1070
     0
1000
MTEXTEND
  0
MTEXT
  5
7B01
330
46
100
AcDbEntity
  8
D-STR-HTXT
  6
Continuous
100
AcDbMText
 10
489.7853915536366
 20
634.9823902857465
 30
0.0
 40
10.5
 41
22.8991
 71
     5
 72
     5
  1
1
 73
     1
 44
1.0
1001
ACAD
1000
MTEXTBEGIN
1070
    73
1070
     1
1070
    44
1040
1.0
1070
    74
1070
     0
1000
MTEXTEND
  0
CIRCLE
  5
7B02
330
46
100
AcDbEntity
  8
D-STR-HTXT
  6
Continuous
100
AcDbCircle
 10
489.7853915536366
 20
634.9823902857465
 30
0.0
 40
9.0
  0
INSERT
  5
7B03
330
46
100
AcDbEntity
  8
D-STR-HTXT
  6
Continuous
100
AcDbBlockReference
  2
_Open
 10
308.6790908089906
 20
610.2105578541049
 30
0.0
 41
-5.999999999999311
 42
6.0
 43
6.0
 50
142.7335980990324
1001
ACAD
1000
DSTYLE
1002
{
1070
    41
1040
6.0
1070
   341
1005
7A53
1070
   147
1040
5.0
1070
    77
1070
     0
1002
}
  0
LINE
  5
7B04
330
46
100
AcDbEntity
  8
D-STR-HTXT
  6
Continuous
100
AcDbLine
 10
303.9041186442687
 20
613.8436888490113
 30
0.0
 11
297.1462999051482
 21
618.9855074548545
 31
0.0
1001
ACAD
1000
DSTYLE
1002
{
1070
    41
1040
6.0
1070
   341
1005
7A53
1070
   147
1040
5.0
1070
    77
1070
     0
1002
}
  0
DIMENSION
  5
7B4A
330
46
100
AcDbEntity
  8
D-STR-DIM
  6
Continuous
100
AcDbDimension
  2
*D13
 10
728.2420914082782
 20
670.4363679856742
 30
0.0
 11
705.2420914082781
 21
675.9363679856742
 31
0.0
 70
    32
 71
     5
 42
46.0
  3
2
100
AcDbAlignedDimension
 13
682.2420914082782
 23
640.4363679856743
 33
0.0
 14
728.2420914082782
 24
640.4363679856743
 34
0.0
100
AcDbRotatedDimension
  0
DIMENSION
  5
7B60
330
46
100
AcDbEntity
  8
D-STR-DIM
  6
Continuous
100
AcDbDimension
  2
*D14
 10
778.7420914082786
 20
553.9613904344125
 30
0.0
 11
773.2420914082784
 21
578.9613904344126
 31
0.0
 70
    32
 71
     5
 42
50.0
  3
2
100
AcDbAlignedDimension
 13
716.2420914082786
 23
603.9613904344125
 33
0.0
 14
716.9920914082786
 24
553.9613904344125
 34
0.0
 50
90.0
100
AcDbRotatedDimension
  0
DIMENSION
  5
7B6D
330
46
100
AcDbEntity
  8
D-STR-DIM
  6
Continuous
100
AcDbDimension
  2
*D15
 10
808.742091408278
 20
538.9613904344123
 30
0.0
 11
803.2420914082781
 21
578.9613904344125
 31
0.0
 70
    32
 71
     5
 42
80.00000000000012
  3
2
100
AcDbAlignedDimension
 13
748.7420914082782
 23
618.9613904344126
 33
0.0
 14
748.7420914082782
 24
538.9613904344124
 34
0.0
 50
90.0
100
AcDbRotatedDimension
  0
DIMENSION
  5
7B7A
330
46
100
AcDbEntity
  8
D-STR-DIM
  6
Continuous
100
AcDbDimension
  2
*D16
 10
778.7420914082786
 20
538.9613904344123
 30
0.0
 11
773.2420914082784
 21
546.4613904344125
 31
0.0
 70
    32
 71
     5
 42
15.00000000000011
  3
2
100
AcDbAlignedDimension
 13
716.9920914082786
 23
553.9613904344125
 33
0.0
 14
748.7420914082782
 24
538.9613904344124
 34
0.0
 50
90.0
100
AcDbRotatedDimension
  0
DIMENSION
  5
7B90
330
46
100
AcDbEntity
  8
D-STR-DIM
  6
Continuous
100
AcDbDimension
  2
*D17
 10
778.7420914082781
 20
618.9613904344124
 30
0.0
 11
773.242091408278
 21
611.4613904344126
 31
0.0
 70
    32
 71
     5
 42
15.0
  3
2
100
AcDbAlignedDimension
 13
716.2420914082786
 23
603.9613904344125
 33
0.0
 14
748.7420914082782
 24
618.9613904344126
 34
0.0
 50
90.0
100
AcDbRotatedDimension
  0
DIMENSION
  5
7B9D
330
46
100
AcDbEntity
  8
D-STR-DIM
  6
Continuous
100
AcDbDimension
  2
*D18
 10
748.7420914082782
 20
508.9613904344124
 30
0.0
 11
705.2420914082781
 21
514.4613904344124
 31
0.0
 70
    32
 71
     5
 42
87.0
  3
2
100
AcDbAlignedDimension
 13
661.7420914082781
 23
538.9613904344125
 33
0.0
 14
748.7420914082782
 24
538.9613904344124
 34
0.0
100
AcDbRotatedDimension
  0
LEADER
  5
7BAF
330
46
100
AcDbEntity
  8
D-STR-HTXT
  6
Continuous
100
AcDbLeader
  3
2
 73
     0
 74
     0
 40
7.000000000000002
 41
37.8
 76
     3
 10
711.9920914082781
 20
547.2113904344126
 30
0.0
 10
745.4178459814738
 20
489.3162852323097
 30
0.0
 10
750.4178459814738
 20
489.3162852323097
 30
0.0
340
7BB0
1001
ACAD
1000
DSTYLE
1002
{
1070
    41
1040
3.0
1070
   341
1005
7A53
1070
   147
1040
2.0
1070
    77
1070
     1
1002
}
  0
MTEXT
  5
7BB0
102
{ACAD_REACTORS
330
7BAF
102
}
330
46
100
AcDbEntity
  8
D-STR-HTXT
  6
Continuous
100
AcDbMText
 10
752.4178459814739
 20
491.3162852323097
 30
0.0
 40
7.0
 41
0.0
 71
     7
 72
     1
  1
13.5角穴
 73
     1
 44
1.0
1001
ACAD
1000
MTEXTBEGIN
1070
    73
1070
     1
1070
    44
1040
1.0
1070
    74
1070
     0
1000
MTEXTEND
  0
MTEXT
  5
7BB1
330
46
100
AcDbEntity
  8
D-STR-HTXT
  6
Continuous
100
AcDbMText
 10
647.1388292033257
 20
638.6903529508349
 30
0.0
 40
10.5
 41
22.8991
 71
     5
 72
     5
  1
3
 73
     1
 44
1.0
1001
ACAD
1000
MTEXTBEGIN
1070
    73
1070
     1
1070
    44
1040
1.0
1070
    74
1070
     0
1000
MTEXTEND
  0
CIRCLE
  5
7BB2
330
46
100
AcDbEntity
  8
D-STR-HTXT
  6
Continuous
100
AcDbCircle
 10
647.1388292033257
 20
638.6903529508349
 30
0.0
 40
9.0
  0
MTEXT
  5
7BB3
330
46
100
AcDbEntity
  8
D-STR-HTXT
  6
Continuous
100
AcDbMText
 10
649.4203800414302
 20
588.9354842265033
 30
0.0
 40
10.5
 41
22.8991
 71
     5
 72
     5
  1
2
 73
     1
 44
1.0
1001
ACAD
1000
MTEXTBEGIN
1070
    73
1070
     1
1070
    44
1040
1.0
1070
    74
1070
     0
1000
MTEXTEND
  0
CIRCLE
  5
7BB4
330
46
100
AcDbEntity
  8
D-STR-HTXT
  6
Continuous
100
AcDbCircle
 10
649.4203800414302
 20
588.9354842265033
 30
0.0
 40
9.0
  0
MTEXT
  5
7BB5
330
46
100
AcDbEntity
  8
D-STR-HTXT
  6
Continuous
100
AcDbMText
 10
763.9778541465179
 20
645.6266067011306
 30
0.0
 40
10.5
 41
22.8991
 71
     5
 72
     5
  1
1
 73
     1
 44
1.0
1001
ACAD
1000
MTEXTBEGIN
1070
    73
1070
     1
1070
    44
1040
1.0
1070
    74
1070
     0
1000
MTEXTEND
  0
CIRCLE
  5
7BB6
330
46
100
AcDbEntity
  8
D-STR-HTXT
  6
Continuous
100
AcDbCircle
 10
763.9778541465179
 20
645.6266067011306
 30
0.0
 40
9.0
  0
INSERT
  5
7BB8
330
46
100
AcDbEntity
  8
D-STR-HTXT
  6
Continuous
100
AcDbBlockReference
  2
_Open
 10
703.3596420776039
 20
608.2743804992217
 30
0.0
 41
-5.999999999999311
 42
6.0
 43
6.0
 50
152.1985412200752
1001
ACAD
1000
DSTYLE
1002
{
1070
    41
1040
6.0
1070
   341
1005
7A53
1070
   147
1040
5.0
1070
    77
1070
     0
1002
}
  0
LINE
  5
7BB9
330
46
100
AcDbEntity
  8
D-STR-HTXT
  6
Continuous
100
AcDbLine
 10
698.0522274746945
 20
611.0728354716735
 30
0.0
 11
656.270923537098
 21
633.1029775478523
 31
0.0
1001
ACAD
1000
DSTYLE
1002
{
1070
    41
1040
6.0
1070
   341
1005
7A53
1070
   147
1040
5.0
1070
    77
1070
     0
1002
}
  0
INSERT
  5
7BBB
330
46
100
AcDbEntity
  8
D-STR-HTXT
  6
Continuous
100
AcDbBlockReference
  2
_Open
 10
737.0373298010104
 20
625.5524985486212
 30
0.0
 41
-5.999999999999311
 42
6.0
 43
6.0
 50
39.80557109227079
1001
ACAD
1000
DSTYLE
1002
{
1070
    41
1040
6.0
1070
   341
1005
7A53
1070
   147
1040
5.0
1070
    77
1070
     0
1002
}
  0
LINE
  5
7BBC
330
46
100
AcDbEntity
  8
D-STR-HTXT
  6
Continuous
100
AcDbLine
 10
741.6466574785935
 20
629.3936049466083
 30
0.0
 11
754.6079616115625
 21
640.1946917240617
 31
0.0
1001
ACAD
1000
DSTYLE
1002
{
1070
    41
1040
6.0
1070
   341
1005
7A53
1070
   147
1040
5.0
1070
    77
1070
     0
1002
}
  0
DIMENSION
  5
7BBD
330
46
100
AcDbEntity
  8
D-STR-DIM
  6
Continuous
100
AcDbDimension
  2
*D20
 10
1327.335270594977
 20
792.6625718397311
 30
0.0
 11
1321.835270594976
 21
822.6625718397313
 31
0.0
 70
    32
 71
     5
 42
60.0
  3
2
100
AcDbAlignedDimension
 13
1282.335270594977
 23
852.662571839731
 33
0.0
 14
1282.335270594977
 24
792.6625718397311
 34
0.0
 50
90.0
100
AcDbRotatedDimension
  0
DIMENSION
  5
7BBE
330
46
100
AcDbEntity
  8
D-STR-DIM
  6
Continuous
100
AcDbDimension
  2
*D22
 10
1288.535270594977
 20
890.6625718397311
 30
0.0
 11
1140.785270594977
 21
896.1625718397311
 31
0.0
 70
    32
 71
     5
 42
295.5
  3
2
100
AcDbAlignedDimension
 13
993.0352705949767
 23
860.662571839731
 33
0.0
 14
1288.535270594977
 24
845.662571839731
 34
0.0
100
AcDbRotatedDimension
1001
ACAD
1000
DSTYLE
1002
{
1070
   271
1070
     1
1002
}
  0
DIMENSION
  5
7BBF
330
46
100
AcDbEntity
  8
D-STR-DIM
  6
Continuous
100
AcDbDimension
  2
*D19
 10
1288.535270594977
 20
920.662571839731
 30
0.0
 11
1138.535270594976
 21
926.162571839731
 31
0.0
 70
    32
 71
     5
 42
300.0
  3
2
100
AcDbAlignedDimension
 13
988.5352705949767
 23
860.662571839731
 33
0.0
 14
1288.535270594977
 24
845.662571839731
 34
0.0
100
AcDbRotatedDimension
  0
DIMENSION
  5
7BC0
330
46
100
AcDbEntity
  8
D-STR-DIM
  6
Continuous
100
AcDbDimension
  2
*D21
 10
1285.335270594977
 20
765.662571839731
 30
0.0
 11
1286.935270594977
 21
771.1625718397311
 31
0.0
 70
    32
 71
     5
 42
3.199999999999818
  3
2
100
AcDbAlignedDimension
 13
1288.535270594977
 23
799.6625718397311
 33
0.0
 14
1285.335270594977
 24
795.6625718397311
 34
0.0
100
AcDbRotatedDimension
1001
ACAD
1000
DSTYLE
1002
{
1070
   271
1070
     1
1002
}
  0
DIMENSION
  5
7C19
330
46
100
AcDbEntity
  8
D-STR-DIM
  6
Continuous
100
AcDbDimension
  2
*D23
 10
993.0352705949767
 20
890.6625718397311
 30
0.0
 11
990.7852705949768
 21
896.1625718397311
 31
0.0
 70
    32
 71
     5
 42
4.5
  3
2
100
AcDbAlignedDimension
 13
988.5352705949767
 23
860.662571839731
 33
0.0
 14
993.0352705949767
 24
860.662571839731
 34
0.0
100
AcDbRotatedDimension
1001
ACAD
1000
DSTYLE
1002
{
1070
   271
1070
     1
1002
}
  0
DIMENSION
  5
7C59
330
46
100
AcDbEntity
  8
D-STR-DIM
  6
Continuous
100
AcDbDimension
  2
*D24
 10
978.0352705949766
 20
749.162571839731
 30
0.0
 11
985.5352705949767
 21
754.6625718397311
 31
0.0
 70
    32
 71
     5
 42
15.0
  3
2
100
AcDbAlignedDimension
 13
993.0352705949767
 23
784.662571839731
 33
0.0
 14
978.0352705949766
 24
779.1625718397311
 34
0.0
100
AcDbRotatedDimension
  0
DIMENSION
  5
7C5A
330
46
100
AcDbEntity
  8
D-STR-DIM
  6
Continuous
100
AcDbDimension
  2
*D25
 10
988.5352705949767
 20
843.662571839731
 30
0.0
 11
971.0304756409454
 21
843.662571839731
 31
0.0
 70
   160
 71
     5
 42
5.5
  3
2
100
AcDbAlignedDimension
 13
983.0352705949767
 23
834.662571839731
 33
0.0
 14
988.5352705949767
 24
834.662571839731
 34
0.0
100
AcDbRotatedDimension
1001
ACAD
1000
DSTYLE
1002
{
1070
   271
1070
     1
1002
}
  0
DIMENSION
  5
7C5B
330
46
100
AcDbEntity
  8
D-STR-DIM
  6
Continuous
100
AcDbDimension
  2
*D26
 10
948.0352705949767
 20
861.662571839731
 30
0.0
 11
942.5352705949764
 21
863.9125718397311
 31
0.0
 70
    32
 71
     5
 42
4.5
  3
2
100
AcDbAlignedDimension
 13
978.0352705949766
 23
866.162571839731
 33
0.0
 14
978.0352705949766
 24
861.662571839731
 34
0.0
 50
90.0
100
AcDbRotatedDimension
1001
ACAD
1000
DSTYLE
1002
{
1070
   271
1070
     1
1002
}
  0
LINE
  5
7CA7
330
46
100
AcDbEntity
  8
D-STR-HTXT
  6
Continuous
100
AcDbLine
 10
975.8094049856312
 20
870.3847846665583
 30
0.0
 11
939.1590087246072
 21
904.3510860787625
 31
0.0
1001
ACAD
1000
DSTYLE
1002
{
1070
    41
1040
6.0
1070
   341
1005
7A53
1070
   147
1040
5.0
1070
    77
1070
     0
1002
}
  0
MTEXT
  5
7CA8
330
46
100
AcDbEntity
  8
D-STR-HTXT
  6
Continuous
100
AcDbMText
 10
930.6840846734592
 20
908.8210798140806
 30
0.0
 40
10.5
 41
22.89912
 71
     5
 72
     5
  1
2
 73
     1
 44
1.0
1001
ACAD
1000
MTEXTBEGIN
1070
    73
1070
     1
1070
    44
1040
1.0
1070
    74
1070
     0
1000
MTEXTEND
  0
CIRCLE
  5
7CA9
330
46
100
AcDbEntity
  8
D-STR-HTXT
  6
Continuous
100
AcDbCircle
 10
930.6840846734592
 20
908.8210798140806
 30
0.0
 40
9.0
  0
INSERT
  5
7CAA
330
46
100
AcDbEntity
  8
D-STR-HTXT
  6
Continuous
100
AcDbBlockReference
  2
_Open
 10
980.2101279532132
 20
866.3063490151579
 30
0.0
 41
-5.999999999999311
 42
6.0
 43
6.0
 50
137.1767275510333
1001
ACAD
1000
DSTYLE
1002
{
1070
    41
1040
6.0
1070
   341
1005
7A53
1070
   147
1040
5.0
1070
    77
1070
     0
1002
}
  0
CIRCLE
  5
7CAB
330
46
100
AcDbEntity
  8
D-STR-HTXT
  6
Continuous
100
AcDbCircle
 10
935.8139880578388
 20
795.3836648713932
 30
0.0
 40
9.0
  0
MTEXT
  5
7CAC
330
46
100
AcDbEntity
  8
D-STR-HTXT
  6
Continuous
100
AcDbMText
 10
935.8139880578388
 20
795.3836648713932
 30
0.0
 40
10.5
 41
22.8991
 71
     5
 72
     5
  1
3
 73
     1
 44
1.0
1001
ACAD
1000
MTEXTBEGIN
1070
    73
1070
     1
1070
    44
1040
1.0
1070
    74
1070
     0
1000
MTEXTEND
  0
LINE
  5
7CAD
330
46
100
AcDbEntity
  8
D-STR-HTXT
  6
Continuous
100
AcDbLine
 10
973.2724120999485
 20
814.495109157578
 30
0.0
 11
948.265570237179
 21
800.0574022765171
 31
0.0
1001
ACAD
1000
DSTYLE
1002
{
1070
    41
1040
6.0
1070
   341
1005
7A53
1070
   147
1040
5.0
1070
    77
1070
     0
1002
}
  0
INSERT
  5
7CAE
330
46
100
AcDbEntity
  8
D-STR-HTXT
  6
Continuous
100
AcDbBlockReference
  2
_Open
 10
978.46856452266
 20
817.4951091575724
 30
0.0
 41
-5.999999999999311
 42
6.0
 43
6.0
 50
210.0000000000096
1001
ACAD
1000
DSTYLE
1002
{
1070
    41
1040
6.0
1070
   341
1005
7A53
1070
   147
1040
5.0
1070
    77
1070
     0
1002
}
  0
CIRCLE
  5
7CAF
330
46
100
AcDbEntity
  8
D-STR-HTXT
  6
Continuous
100
AcDbCircle
 10
1142.155164229217
 20
865.6175099111125
 30
0.0
 40
9.0
  0
MTEXT
  5
7CB0
330
46
100
AcDbEntity
  8
D-STR-HTXT
  6
Continuous
100
AcDbMText
 10
1142.155164229217
 20
865.6175099111125
 30
0.0
 40
10.5
 41
22.8991
 71
     5
 72
     5
  1
1
 73
     1
 44
1.0
1001
ACAD
1000
MTEXTBEGIN
1070
    73
1070
     1
1070
    44
1040
1.0
1070
    74
1070
     0
1000
MTEXTEND
  0
DIMENSION
  5
7CB1
330
46
100
AcDbEntity
  8
D-STR-DIM
  6
Continuous
100
AcDbDimension
  2
*D27
 10
1252.485083172511
 20
627.5363641451569
 30
0.0
 11
1246.985083172511
 21
640.2363637793935
 31
0.0
 70
    32
 71
     5
 42
25.39999926847281
  3
2
100
AcDbAlignedDimension
 13
1285.335270594977
 23
652.9363634136297
 33
0.0
 14
1280.535270594977
 24
627.5363641451568
 34
0.0
 50
90.0
100
AcDbRotatedDimension
  0
MTEXT
  5
7CB2
330
46
100
AcDbEntity
  8
D-STR-HTXT
  6
Continuous
100
AcDbMText
 10
1154.116928249609
 20
633.3350819321578
 30
0.0
 40
10.5
 41
22.8991
 71
     5
 72
     5
  1
1
 73
     1
 44
1.0
1001
ACAD
1000
MTEXTBEGIN
1070
    73
1070
     1
1070
    44
1040
1.0
1070
    74
1070
     0
1000
MTEXTEND
  0
CIRCLE
  5
7CB3
330
46
100
AcDbEntity
  8
D-STR-HTXT
  6
Continuous
100
AcDbCircle
 10
1154.116928249609
 20
633.3350819321578
 30
0.0
 40
9.0
  0
DIMENSION
  5
7CC9
330
46
100
AcDbEntity
  8
D-STR-DIM
  6
Continuous
100
AcDbDimension
  2
*D28
 10
1083.035270594977
 20
613.1613904344123
 30
0.0
 11
1083.035270594977
 21
630.1619932639098
 31
0.0
 70
   160
 71
     5
 42
5.799999999999954
  3
2
100
AcDbAlignedDimension
 13
993.035270594977
 23
618.9613904344123
 33
0.0
 14
993.035270594977
 24
613.1613904344123
 34
0.0
 50
90.0
100
AcDbRotatedDimension
1001
ACAD
1000
DSTYLE
1002
{
1070
   271
1070
     1
1002
}
  0
DIMENSION
  5
7CCA
330
46
100
AcDbEntity
  8
D-STR-DIM
  6
Continuous
100
AcDbDimension
  2
*D29
 10
1083.035270594977
 20
563.1613904344123
 30
0.0
 11
1077.535270594976
 21
588.1613904344125
 31
0.0
 70
    32
 71
     5
 42
50.0
  3
2
100
AcDbAlignedDimension
 13
993.035270594977
 23
613.1613904344123
 33
0.0
 14
993.035270594977
 24
563.1613904344123
 34
0.0
 50
90.0
100
AcDbRotatedDimension
1001
ACAD
1000
DSTYLE
1002
{
1070
   271
1070
     1
1002
}
  0
LINE
  5
7D06
330
46
100
AcDbEntity
  8
D-BMK
  6
CENTER
100
AcDbLine
 10
1439.891535877577
 20
656.1503750061627
 30
0.0
 11
1439.891535877578
 21
533.9613904344121
 31
0.0
  0
LINE
  5
7D07
330
46
100
AcDbEntity
  8
D-STR
  6
Continuous
100
AcDbLine
 10
1462.891535877577
 20
640.4363679856739
 30
0.0
 11
1462.891535877577
 21
621.9378516688002
 31
0.0
  0
LINE
  5
7D08
330
46
100
AcDbEntity
  8
D-STR
  6
Continuous
100
AcDbLine
 10
1416.891535877577
 20
640.4363679856739
 30
0.0
 11
1416.891535877577
 21
621.9378516688002
 31
0.0
  0
LINE
  5
7D09
330
46
100
AcDbEntity
  8
D-STR-HTXT
  6
Continuous
100
AcDbLine
 10
1476.296101947893
 20
629.3936049466081
 30
0.0
 11
1489.257406080862
 21
640.1946917240613
 31
0.0
1001
ACAD
1000
DSTYLE
1002
{
1070
    41
1040
6.0
1070
   341
1005
7A53
1070
   147
1040
5.0
1070
    77
1070
     0
1002
}
  0
MTEXT
  5
7D0A
330
46
100
AcDbEntity
  8
D-STR-HTXT
  6
Continuous
100
AcDbMText
 10
1381.788273672625
 20
638.6903529508347
 30
0.0
 40
10.5
 41
22.8991
 71
     5
 72
     5
  1
3
 73
     1
 44
1.0
1001
ACAD
1000
MTEXTBEGIN
1070
    73
1070
     1
1070
    44
1040
1.0
1070
    74
1070
     0
1000
MTEXTEND
  0
CIRCLE
  5
7D0B
330
46
100
AcDbEntity
  8
D-STR-HTXT
  6
Continuous
100
AcDbCircle
 10
1381.788273672625
 20
638.6903529508347
 30
0.0
 40
9.0
  0
MTEXT
  5
7D0C
330
46
100
AcDbEntity
  8
D-STR-HTXT
  6
Continuous
100
AcDbMText
 10
1384.069824510729
 20
588.9354842265031
 30
0.0
 40
10.5
 41
22.8991
 71
     5
 72
     5
  1
2
 73
     1
 44
1.0
1001
ACAD
1000
MTEXTBEGIN
1070
    73
1070
     1
1070
    44
1040
1.0
1070
    74
1070
     0
1000
MTEXTEND
  0
CIRCLE
  5
7D0D
330
46
100
AcDbEntity
  8
D-STR-HTXT
  6
Continuous
100
AcDbCircle
 10
1384.069824510729
 20
588.9354842265031
 30
0.0
 40
9.0
  0
LEADER
  5
7D0E
330
46
100
AcDbEntity
  8
D-STR-HTXT
  6
Continuous
100
AcDbLeader
  3
2
 73
     0
 74
     0
 40
7.000000000000002
 41
37.8
 76
     3
 10
1446.641535877577
 20
547.2113904344123
 30
0.0
 10
1480.067290450773
 20
489.3162852323094
 30
0.0
 10
1485.067290450773
 20
489.3162852323094
 30
0.0
340
7D10
1001
ACAD
1000
DSTYLE
1002
{
1070
    41
1040
3.0
1070
   341
1005
7A53
1070
   147
1040
2.0
1070
    77
1070
     1
1002
}
  0
DIMENSION
  5
7D0F
330
46
100
AcDbEntity
  8
D-STR-DIM
  6
Continuous
100
AcDbDimension
  2
*D35
 10
1483.391535877577
 20
508.9613904344122
 30
0.0
 11
1439.891535877577
 21
514.4613904344121
 31
0.0
 70
    32
 71
     5
 42
87.0
  3
2
100
AcDbAlignedDimension
 13
1396.391535877577
 23
538.9613904344123
 33
0.0
 14
1483.391535877577
 24
538.9613904344121
 34
0.0
100
AcDbRotatedDimension
  0
MTEXT
  5
7D10
102
{ACAD_REACTORS
330
7D0E
102
}
330
46
100
AcDbEntity
  8
D-STR-HTXT
  6
Continuous
100
AcDbMText
 10
1487.067290450773
 20
491.3162852323094
 30
0.0
 40
7.0
 41
0.0
 71
     7
 72
     1
  1
13.5角穴
 73
     1
 44
1.0
1001
ACAD
1000
MTEXTBEGIN
1070
    73
1070
     1
1070
    44
1040
1.0
1070
    74
1070
     0
1000
MTEXTEND
  0
DIMENSION
  5
7D11
330
46
100
AcDbEntity
  8
D-STR-DIM
  6
Continuous
100
AcDbDimension
  2
*D34
 10
1513.391535877577
 20
618.9613904344123
 30
0.0
 11
1507.891535877577
 21
611.4613904344126
 31
0.0
 70
    32
 71
     5
 42
15.0
  3
2
100
AcDbAlignedDimension
 13
1450.891535877578
 23
603.9613904344123
 33
0.0
 14
1483.391535877577
 24
618.9613904344123
 34
0.0
 50
90.0
100
AcDbRotatedDimension
  0
DIMENSION
  5
7D12
330
46
100
AcDbEntity
  8
D-STR-DIM
  6
Continuous
100
AcDbDimension
  2
*D33
 10
1513.391535877578
 20
538.9613904344121
 30
0.0
 11
1507.891535877577
 21
546.4613904344124
 31
0.0
 70
    32
 71
     5
 42
15.00000000000023
  3
2
100
AcDbAlignedDimension
 13
1451.641535877578
 23
553.9613904344123
 33
0.0
 14
1483.391535877577
 24
538.9613904344121
 34
0.0
 50
90.0
100
AcDbRotatedDimension
  0
DIMENSION
  5
7D13
330
46
100
AcDbEntity
  8
D-STR-DIM
  6
Continuous
100
AcDbDimension
  2
*D32
 10
1543.391535877577
 20
538.9613904344121
 30
0.0
 11
1537.891535877577
 21
578.9613904344125
 31
0.0
 70
    32
 71
     5
 42
80.00000000000023
  3
2
100
AcDbAlignedDimension
 13
1483.391535877577
 23
618.9613904344123
 33
0.0
 14
1483.391535877577
 24
538.9613904344121
 34
0.0
 50
90.0
100
AcDbRotatedDimension
  0
DIMENSION
  5
7D14
330
46
100
AcDbEntity
  8
D-STR-DIM
  6
Continuous
100
AcDbDimension
  2
*D31
 10
1513.391535877578
 20
553.9613904344123
 30
0.0
 11
1507.891535877577
 21
578.9613904344125
 31
0.0
 70
    32
 71
     5
 42
50.0
  3
2
100
AcDbAlignedDimension
 13
1450.891535877578
 23
603.9613904344123
 33
0.0
 14
1451.641535877578
 24
553.9613904344123
 34
0.0
 50
90.0
100
AcDbRotatedDimension
  0
LINE
  5
7D15
330
46
100
AcDbEntity
  8
D-STR
  6
Continuous
100
AcDbLine
 10
1483.391535877577
 20
618.9613904344123
 30
0.0
 11
1483.391535877577
 21
538.9613904344121
 31
0.0
  0
LINE
  5
7D16
330
46
100
AcDbEntity
  8
D-STR
  6
DASHED
100
AcDbLine
 10
1480.191535877578
 20
618.9613904344123
 30
0.0
 11
1480.191535877578
 21
538.9613904344121
 31
0.0
  0
LINE
  5
7D17
330
46
100
AcDbEntity
  8
D-STR
  6
Continuous
100
AcDbLine
 10
1396.391535877577
 20
618.9613904344123
 30
0.0
 11
1396.391535877577
 21
538.9613904344123
 31
0.0
  0
LINE
  5
7D18
330
46
100
AcDbEntity
  8
D-STR
  6
DASHED
100
AcDbLine
 10
1399.591535877578
 20
618.9613904344123
 30
0.0
 11
1399.591535877578
 21
538.9613904344123
 31
0.0
  0
LINE
  5
7D19
330
46
100
AcDbEntity
  8
D-STR
  6
Continuous
100
AcDbLine
 10
1409.891535877577
 20
620.9378516688002
 30
0.0
 11
1409.891535877577
 21
569.6613904344124
 31
0.0
  0
LINE
  5
7D1A
330
46
100
AcDbEntity
  8
D-STR
  6
Continuous
100
AcDbLine
 10
1469.891535877577
 20
620.9378516688002
 30
0.0
 11
1469.891535877577
 21
569.6613904344124
 31
0.0
  0
LINE
  5
7D1B
330
46
100
AcDbEntity
  8
D-STR
  6
Continuous
100
AcDbLine
 10
1466.691535877578
 20
620.9378516688002
 30
0.0
 11
1466.691535877578
 21
569.6613904344124
 31
0.0
  0
LINE
  5
7D1C
330
46
100
AcDbEntity
  8
D-STR
  6
Continuous
100
AcDbLine
 10
1413.091535877578
 20
620.9378516688002
 30
0.0
 11
1413.091535877578
 21
569.6613904344124
 31
0.0
  0
LINE
  5
7D1D
330
46
100
AcDbEntity
  8
D-BMK
  6
CENTER
100
AcDbLine
 10
1428.141535877577
 20
553.9613904344123
 30
0.0
 11
1451.641535877578
 21
553.9613904344123
 31
0.0
  0
LINE
  5
7D1E
330
46
100
AcDbEntity
  8
D-STR
  6
Continuous
100
AcDbLine
 10
1483.391535877577
 20
538.9613904344121
 30
0.0
 11
1396.391535877577
 21
538.9613904344123
 31
0.0
  0
LINE
  5
7D1F
330
46
100
AcDbEntity
  8
D-STR-STR2
  6
Continuous
100
AcDbLine
 10
1433.141535877577
 20
560.7113904344124
 30
0.0
 11
1446.641535877577
 21
560.7113904344124
 31
0.0
  0
LINE
  5
7D20
330
46
100
AcDbEntity
  8
D-STR-STR2
  6
Continuous
100
AcDbLine
 10
1433.141535877577
 20
547.2113904344123
 30
0.0
 11
1446.641535877577
 21
547.2113904344123
 31
0.0
  0
LINE
  5
7D21
330
46
100
AcDbEntity
  8
D-STR-STR2
  6
Continuous
100
AcDbLine
 10
1433.141535877577
 20
560.7113904344124
 30
0.0
 11
1433.141535877577
 21
547.2113904344123
 31
0.0
  0
LINE
  5
7D22
330
46
100
AcDbEntity
  8
D-STR
  6
Continuous
100
AcDbLine
 10
1413.091535877578
 20
569.6613904344124
 30
0.0
 11
1409.891535877577
 21
569.6613904344124
 31
0.0
  0
LINE
  5
7D23
330
46
100
AcDbEntity
  8
D-STR-STR2
  6
Continuous
100
AcDbLine
 10
1446.641535877577
 20
560.7113904344124
 30
0.0
 11
1446.641535877577
 21
547.2113904344123
 31
0.0
  0
LINE
  5
7D24
330
46
100
AcDbEntity
  8
D-STR
  6
Continuous
100
AcDbLine
 10
1469.891535877577
 20
569.6613904344124
 30
0.0
 11
1466.691535877578
 21
569.6613904344124
 31
0.0
  0
LINE
  5
7D25
330
46
100
AcDbEntity
  8
D-STR
  6
Continuous
100
AcDbLine
 10
1465.691535877577
 20
621.9378516688002
 30
0.0
 11
1414.091535877577
 21
621.9378516688002
 31
0.0
  0
LINE
  5
7D26
330
46
100
AcDbEntity
  8
D-BMK
  6
CENTER
100
AcDbLine
 10
1428.891535877578
 20
603.9613904344123
 30
0.0
 11
1450.891535877578
 21
603.9613904344123
 31
0.0
  0
LINE
  5
7D27
330
46
100
AcDbEntity
  8
D-STR
  6
DASHED
100
AcDbLine
 10
1416.891535877578
 20
625.1378516688003
 30
0.0
 11
1462.891535877577
 21
625.1378516688003
 31
0.0
  0
LINE
  5
7D28
330
46
100
AcDbEntity
  8
D-STR-STR2
  6
Continuous
100
AcDbLine
 10
1433.891535877577
 20
597.9613904344123
 30
0.0
 11
1445.891535877577
 21
597.9613904344123
 31
0.0
  0
LINE
  5
7D29
330
46
100
AcDbEntity
  8
D-STR-STR2
  6
Continuous
100
AcDbLine
 10
1433.891535877577
 20
609.9613904344121
 30
0.0
 11
1445.891535877577
 21
609.9613904344121
 31
0.0
  0
LINE
  5
7D2A
330
46
100
AcDbEntity
  8
D-STR
  6
Continuous
100
AcDbLine
 10
1466.691535877578
 20
609.9613904344123
 30
0.0
 11
1413.091535877578
 21
609.9613904344123
 31
0.0
  0
LINE
  5
7D2B
330
46
100
AcDbEntity
  8
D-STR
  6
DASHED
100
AcDbLine
 10
1466.691535877578
 20
613.1613904344123
 30
0.0
 11
1413.091535877578
 21
613.1613904344123
 31
0.0
  0
LINE
  5
7D2C
330
46
100
AcDbEntity
  8
D-STR-STR2
  6
Continuous
100
AcDbLine
 10
1433.891535877577
 20
609.9613904344121
 30
0.0
 11
1433.891535877577
 21
597.9613904344123
 31
0.0
  0
INSERT
  5
7D2D
330
46
100
AcDbEntity
  8
D-STR-HTXT
  6
Continuous
100
AcDbBlockReference
  2
_Open
 10
1438.009086546903
 20
608.2743804992214
 30
0.0
 41
-5.999999999999311
 42
6.0
 43
6.0
 50
152.1985412200752
1001
ACAD
1000
DSTYLE
1002
{
1070
    41
1040
6.0
1070
   341
1005
7A53
1070
   147
1040
5.0
1070
    77
1070
     0
1002
}
  0
ARC
  5
7D2E
330
46
100
AcDbEntity
  8
D-STR
  6
Continuous
100
AcDbCircle
 10
1414.091535877577
 20
620.9378516688002
 30
0.0
 40
4.2
100
AcDbArc
 50
90.0
 51
180.0
  0
LINE
  5
7D2F
330
46
100
AcDbEntity
  8
D-STR-HTXT
  6
Continuous
100
AcDbLine
 10
1432.701671943994
 20
611.0728354716732
 30
0.0
 11
1390.920368006397
 21
633.1029775478521
 31
0.0
1001
ACAD
1000
DSTYLE
1002
{
1070
    41
1040
6.0
1070
   341
1005
7A53
1070
   147
1040
5.0
1070
    77
1070
     0
1002
}
  0
LINE
  5
7D30
330
46
100
AcDbEntity
  8
D-STR
  6
Continuous
100
AcDbLine
 10
1410.073706502275
 20
618.9613904344123
 30
0.0
 11
1396.391535877577
 21
618.9613904344123
 31
0.0
  0
ARC
  5
7D31
330
46
100
AcDbEntity
  8
D-STR
  6
Continuous
100
AcDbCircle
 10
1414.091535877577
 20
620.9378516688002
 30
0.0
 40
0.9999999999999998
100
AcDbArc
 50
90.0
 51
180.0
  0
LINE
  5
7D32
330
46
100
AcDbEntity
  8
D-STR
  6
Continuous
100
AcDbLine
 10
1416.891535877578
 20
625.1378516688003
 30
0.0
 11
1414.091535877577
 21
625.1378516688003
 31
0.0
  0
LINE
  5
7D33
330
46
100
AcDbEntity
  8
D-STR-STR2
  6
Continuous
100
AcDbLine
 10
1445.891535877577
 20
609.9613904344121
 30
0.0
 11
1445.891535877577
 21
597.9613904344123
 31
0.0
  0
ARC
  5
7D34
330
46
100
AcDbEntity
  8
D-STR
  6
Continuous
100
AcDbCircle
 10
1465.691535877577
 20
620.9378516688002
 30
0.0
 40
0.9999999999999998
100
AcDbArc
 50
0.0
 51
90.0
  0
ARC
  5
7D35
330
46
100
AcDbEntity
  8
D-STR
  6
Continuous
100
AcDbCircle
 10
1465.691535877577
 20
620.9378516688002
 30
0.0
 40
4.2
100
AcDbArc
 50
0.0
 51
90.0
  0
LINE
  5
7D36
330
46
100
AcDbEntity
  8
D-STR
  6
Continuous
100
AcDbLine
 10
1465.691535877577
 20
625.1378516688003
 30
0.0
 11
1462.891535877577
 21
625.1378516688003
 31
0.0
  0
LINE
  5
7D37
330
46
100
AcDbEntity
  8
D-STR
  6
Continuous
100
AcDbLine
 10
1483.391535877577
 20
618.9613904344123
 30
0.0
 11
1469.709365252881
 21
618.9613904344123
 31
0.0
  0
INSERT
  5
7D38
330
46
100
AcDbEntity
  8
D-STR-HTXT
  6
Continuous
100
AcDbBlockReference
  2
_Open
 10
1471.68677427031
 20
625.5524985486211
 30
0.0
 41
-5.999999999999311
 42
6.0
 43
6.0
 50
39.80557109227079
1001
ACAD
1000
DSTYLE
1002
{
1070
    41
1040
6.0
1070
   341
1005
7A53
1070
   147
1040
5.0
1070
    77
1070
     0
1002
}
  0
CIRCLE
  5
7D39
330
46
100
AcDbEntity
  8
D-STR-HTXT
  6
Continuous
100
AcDbCircle
 10
1498.627298615817
 20
645.6266067011304
 30
0.0
 40
9.0
  0
LINE
  5
7D3A
330
46
100
AcDbEntity
  8
D-STR
  6
Continuous
100
AcDbLine
 10
1452.891535877578
 20
650.436367985674
 30
0.0
 11
1426.891535877577
 21
650.436367985674
 31
0.0
  0
DIMENSION
  5
7D3B
330
46
100
AcDbEntity
  8
D-STR-DIM
  6
Continuous
100
AcDbDimension
  2
*D30
 10
1462.891535877577
 20
670.436367985674
 30
0.0
 11
1439.891535877577
 21
675.936367985674
 31
0.0
 70
    32
 71
     5
 42
46.0
  3
2
100
AcDbAlignedDimension
 13
1416.891535877577
 23
640.4363679856739
 33
0.0
 14
1462.891535877577
 24
640.4363679856739
 34
0.0
100
AcDbRotatedDimension
  0
ARC
  5
7D3C
330
46
100
AcDbEntity
  8
D-STR
  6
Continuous
100
AcDbCircle
 10
1426.891535877577
 20
640.4363679856739
 30
0.0
 40
9.999999999999998
100
AcDbArc
 50
90.0
 51
180.0
  0
ARC
  5
7D3D
330
46
100
AcDbEntity
  8
D-STR
  6
Continuous
100
AcDbCircle
 10
1452.891535877578
 20
640.4363679856739
 30
0.0
 40
9.999999999999998
100
AcDbArc
 50
0.0
 51
90.0
  0
MTEXT
  5
7D3E
330
46
100
AcDbEntity
  8
D-STR-HTXT
  6
Continuous
100
AcDbMText
 10
1498.627298615817
 20
645.6266067011304
 30
0.0
 40
10.5
 41
22.8991
 71
     5
 72
     5
  1
1
 73
     1
 44
1.0
1001
ACAD
1000
MTEXTBEGIN
1070
    73
1070
     1
1070
    44
1040
1.0
1070
    74
1070
     0
1000
MTEXTEND
  0
LWPOLYLINE
  5
82C8
330
46
100
AcDbEntity
  8
D-MTR-FRAM
  6
Continuous
100
AcDbPolyline
 90
        4
 70
     1
 43
0.0
 10
295.792832131573
 20
229.2285959583058
 10
726.2944788055774
 20
229.2285959583058
 10
726.2944788055793
 20
399.4556263402269
 10
295.7928321315749
 20
399.4556263402269
  0
LINE
  5
82C9
330
46
100
AcDbEntity
  8
D-MTR-FRAM
  6
Continuous
100
AcDbLine
 10
697.7506382042906
 20
375.3202054873885
 30
0.0
 11
697.7506382042888
 21
229.2285959583058
 31
0.0
  0
LINE
  5
82CA
330
46
100
AcDbEntity
  8
D-MTR-FRAM
  6
Continuous
100
AcDbLine
 10
407.6996698845063
 20
375.3202054873885
 30
0.0
 11
407.6996698845046
 21
229.2285959583058
 31
0.0
  0
LINE
  5
82CB
330
46
100
AcDbEntity
  8
D-MTR-FRAM
  6
Continuous
100
AcDbLine
 10
486.0436554685761
 20
375.4556263402269
 30
0.0
 11
486.0436554685743
 21
229.2285959583058
 31
0.0
  0
LINE
  5
82CC
330
46
100
AcDbEntity
  8
D-MTR-FRAM
  6
Continuous
100
AcDbLine
 10
323.5714333799188
 20
375.3202054873885
 30
0.0
 11
323.5714333799169
 21
229.2285959583058
 31
0.0
  0
TEXT
  5
82CD
330
46
100
AcDbEntity
  8
D-MTR-MTXT
  6
Continuous
100
AcDbText
 10
495.3294590367863
 20
286.8410519337408
 30
0.0
 40
10.5
  1
角根丸頭ﾎﾞﾙﾄ（M12×30:A形1種)
100
AcDbText
  0
TEXT
  5
82CE
330
46
100
AcDbEntity
  8
D-MTR-MTXT
  6
Continuous
100
AcDbText
 10
495.3294590367863
 20
305.1871411578991
 30
0.0
 40
10.5
  1
溶融亜鉛めっきHDZ45
100
AcDbText
  0
TEXT
  5
82CF
330
46
100
AcDbEntity
  8
D-MTR-MTXT
  6
Continuous
100
AcDbText
 10
495.3294590367863
 20
323.3978095292211
 30
0.0
 40
10.5
  1
溶融亜鉛めっきHDZ45
100
AcDbText
  0
LINE
  5
82D1
330
46
100
AcDbEntity
  8
D-MTR-FRAM
  6
Continuous
100
AcDbLine
 10
295.792832131573
 20
265.785353553786
 30
0.0
 11
726.2944788055756
 21
265.785353553786
 31
0.0
  0
LINE
  5
82D2
330
46
100
AcDbEntity
  8
D-MTR-FRAM
  6
Continuous
100
AcDbLine
 10
726.2944788055774
 20
320.6204899470065
 30
0.0
 11
295.7928321315749
 21
320.6204899470065
 31
0.0
  0
LINE
  5
82D3
330
46
100
AcDbEntity
  8
D-MTR-FRAM
  6
Continuous
100
AcDbLine
 10
295.7928321315749
 20
302.3421111492663
 30
0.0
 11
726.2944788055774
 21
302.3421111492663
 31
0.0
  0
TEXT
  5
82D4
330
46
100
AcDbEntity
  8
D-MTR-MTXT
  6
Continuous
100
AcDbText
 10
304.7793656913955
 20
240.9748280550873
 30
0.0
 40
10.5
  1
5
 11
304.7793656913955
 21
251.4748280550873
 31
0.0
100
AcDbText
 73
     3
  0
TEXT
  5
82D5
330
46
100
AcDbEntity
  8
D-MTR-MTXT
  6
Continuous
100
AcDbText
 10
304.7882868469856
 20
305.0883432460457
 30
0.0
 40
10.5
  1
3
 11
304.7882868469856
 21
315.5883432460457
 31
0.0
100
AcDbText
 73
     3
  0
TEXT
  5
82D6
330
46
100
AcDbEntity
  8
D-MTR-MTXT
  6
Continuous
100
AcDbText
 10
304.7882868469856
 20
277.8099644483077
 30
0.0
 40
10.5
  1
4
 11
304.7882868469856
 21
288.3099644483077
 31
0.0
100
AcDbText
 73
     3
  0
TEXT
  5
82D7
330
46
100
AcDbEntity
  8
D-MTR-MTXT
  6
Continuous
100
AcDbText
 10
304.7882868469856
 20
323.3667220437859
 30
0.0
 40
10.5
  1
2
 11
304.7882868469856
 21
333.8667220437859
 31
0.0
100
AcDbText
 73
     3
  0
TEXT
  5
82D8
330
46
100
AcDbEntity
  8
D-MTR-MTXT
  6
Continuous
100
AcDbText
 10
418.496424514004
 20
241.0059155405221
 30
0.0
 40
10.5
  1
SWCH
100
AcDbText
  0
TEXT
  5
82D9
330
46
100
AcDbEntity
  8
D-MTR-MTXT
  6
Continuous
100
AcDbText
 10
418.4964245140058
 20
277.8410519337425
 30
0.0
 40
10.5
  1
SWCH
100
AcDbText
  0
TEXT
  5
82DA
330
46
100
AcDbEntity
  8
D-MTR-MTXT
  6
Continuous
100
AcDbText
 10
418.4964245140058
 20
305.1194307314827
 30
0.0
 40
10.5
  1
SWCH
100
AcDbText
  0
TEXT
  5
82DB
330
46
100
AcDbEntity
  8
D-MTR-MTXT
  6
Continuous
100
AcDbText
 10
418.4964245140058
 20
323.3978095292217
 30
0.0
 40
10.5
  1
SS400
100
AcDbText
  0
TEXT
  5
82DC
330
46
100
AcDbEntity
  8
D-MTR-MTXT
  6
Continuous
100
AcDbText
 10
338.7324941030656
 20
241.0059155405225
 30
0.0
 40
10.5
  1
固定用ﾅｯﾄ
100
AcDbText
  0
TEXT
  5
82DD
330
46
100
AcDbEntity
  8
D-MTR-MTXT
  6
Continuous
100
AcDbText
 10
336.4395444453312
 20
323.3978095292223
 30
0.0
 40
10.5
  1
取付ﾌﾟﾚｰﾄ
100
AcDbText
  0
TEXT
  5
82DE
330
46
100
AcDbEntity
  8
D-MTR-MTXT
  6
Continuous
100
AcDbText
 10
338.4675190243724
 20
277.8410519337425
 30
0.0
 40
10.5
  1
固定用ﾎﾞﾙﾄ
100
AcDbText
  0
TEXT
  5
82DF
330
46
100
AcDbEntity
  8
D-MTR-MTXT
  6
Continuous
100
AcDbText
 10
338.4675190243724
 20
305.1194307314827
 30
0.0
 40
10.5
  1
支持ピン
100
AcDbText
  0
TEXT
  5
82E0
330
46
100
AcDbEntity
  8
D-MTR-MTXT
  6
Continuous
100
AcDbText
 10
507.774683547334
 20
250.2842943382627
 30
0.0
 40
10.5
  1
M12用
100
AcDbText
  0
TEXT
  5
82E1
330
46
100
AcDbEntity
  8
D-MTR-MTXT
  6
Continuous
100
AcDbText
 10
711.4523081641273
 20
240.9748280550856
 30
0.0
 40
10.5
  1
1
 11
711.4523081641273
 21
251.4748280550856
 31
0.0
100
AcDbText
 73
     3
  0
TEXT
  5
82E2
330
46
100
AcDbEntity
  8
D-MTR-MTXT
  6
Continuous
100
AcDbText
 10
711.4523081641291
 20
305.0883432460463
 30
0.0
 40
10.5
  1
1
 11
711.4523081641291
 21
315.5883432460463
 31
0.0
100
AcDbText
 73
     3
  0
TEXT
  5
82E3
330
46
100
AcDbEntity
  8
D-MTR-MTXT
  6
Continuous
100
AcDbText
 10
711.4523081641291
 20
277.8099644483061
 30
0.0
 40
10.5
  1
1
 11
711.4523081641291
 21
288.3099644483061
 31
0.0
100
AcDbText
 73
     3
  0
TEXT
  5
82E4
330
46
100
AcDbEntity
  8
D-MTR-MTXT
  6
Continuous
100
AcDbText
 10
711.4523081641309
 20
323.3667220437865
 30
0.0
 40
10.5
  1
1
 11
711.4523081641309
 21
333.8667220437865
 31
0.0
100
AcDbText
 73
     3
  0
TEXT
  5
82E5
330
46
100
AcDbEntity
  8
D-MTR-TXT
  6
Continuous
100
AcDbText
 10
567.938907952116
 20
359.9545671247015
 30
0.0
 40
10.5
  1
規　格
100
AcDbText
  0
TEXT
  5
82E6
330
46
100
AcDbEntity
  8
D-MTR-MTXT
  6
Continuous
100
AcDbText
 10
495.3294590367863
 20
341.7438987533794
 30
0.0
 40
10.5
  1
溶融亜鉛めっきHDZ45
100
AcDbText
  0
LINE
  5
82E7
330
46
100
AcDbEntity
  8
D-MTR-FRAM
  6
Continuous
100
AcDbLine
 10
295.7928321315749
 20
338.8988687447467
 30
0.0
 11
726.2944788055774
 21
338.8988687447467
 31
0.0
  0
LINE
  5
82E8
330
46
100
AcDbEntity
  8
D-MTR-FRAM
  6
Continuous
100
AcDbLine
 10
295.7928321315749
 20
375.4556263402269
 30
0.0
 11
726.2944788055774
 21
375.4556263402269
 31
0.0
  0
LINE
  5
82E9
330
46
100
AcDbEntity
  8
D-MTR-FRAM
  6
Continuous
100
AcDbLine
 10
726.2944788055774
 20
357.1772475424868
 30
0.0
 11
295.7928321315749
 21
357.1772475424868
 31
0.0
  0
TEXT
  5
82EA
330
46
100
AcDbEntity
  8
D-MTR
  6
Continuous
100
AcDbText
 10
305.8337722884494
 20
378.9806060467837
 30
0.0
 40
15.0
  1
電力用受金物（L=250）
100
AcDbText
  0
TEXT
  5
82EB
330
46
100
AcDbEntity
  8
D-MTR-TXT
  6
Continuous
100
AcDbText
 10
299.4231915655182
 20
358.5947627972473
 30
0.0
 40
10.5
  1
符号
 11
299.4231915655182
 21
369.0947627972473
 31
0.0
100
AcDbText
 73
     3
  0
TEXT
  5
82EC
330
46
100
AcDbEntity
  8
D-MTR-MTXT
  6
Continuous
100
AcDbText
 10
306.0684548578024
 20
341.6451008415261
 30
0.0
 40
10.5
  1
1
 11
306.0684548578024
 21
352.1451008415261
 31
0.0
100
AcDbText
 73
     3
  0
TEXT
  5
82ED
330
46
100
AcDbEntity
  8
D-MTR-MTXT
  6
Continuous
100
AcDbText
 10
418.4964245140058
 20
341.6761883269619
 30
0.0
 40
10.5
  1
SS400
100
AcDbText
  0
TEXT
  5
82EE
330
46
100
AcDbEntity
  8
D-MTR-TXT
  6
Continuous
100
AcDbText
 10
429.00318817056
 20
359.9545671247015
 30
0.0
 40
10.5
  1
材　質
100
AcDbText
  0
TEXT
  5
82EF
330
46
100
AcDbEntity
  8
D-MTR-TXT
  6
Continuous
100
AcDbText
 10
346.0061051332727
 20
359.9545671247015
 30
0.0
 40
10.5
  1
品　名
100
AcDbText
  0
TEXT
  5
82F0
330
46
100
AcDbEntity
  8
D-MTR-MTXT
  6
Continuous
100
AcDbText
 10
344.203812990339
 20
341.6761883269619
 30
0.0
 40
10.5
  1
本　体
100
AcDbText
  0
TEXT
  5
82F1
330
46
100
AcDbEntity
  8
D-MTR-TXT
  6
Continuous
100
AcDbText
 10
700.5475616888043
 20
358.5947627972473
 30
0.0
 40
10.5
  1
数量
 11
700.5475616888043
 21
369.0947627972473
 31
0.0
100
AcDbText
 73
     3
  0
TEXT
  5
82F2
330
46
100
AcDbEntity
  8
D-MTR-MTXT
  6
Continuous
100
AcDbText
 10
711.4523081641309
 20
341.6451008415265
 30
0.0
 40
10.5
  1
1
 11
711.4523081641309
 21
352.1451008415265
 31
0.0
100
AcDbText
 73
     3
  0
TEXT
  5
831E
330
46
100
AcDbEntity
  8
D-MTR-MTXT
  6
Continuous
100
AcDbText
 10
495.3294590367859
 20
268.6303835624187
 30
0.0
 40
10.5
  1
溶融亜鉛めっきHDZ35
100
AcDbText
  0
TEXT
  5
831F
330
46
100
AcDbEntity
  8
D-MTR-MTXT
  6
Continuous
100
AcDbText
 10
495.3294590367859
 20
232.0736259669385
 30
0.0
 40
10.5
  1
溶融亜鉛めっきHDZ35
100
AcDbText
  0
TEXT
  5
8320
330
46
100
AcDbEntity
  8
D-MTR-MTXT
  6
Continuous
100
AcDbText
 10
1248.375309906297
 20
232.0736259669385
 30
0.0
 40
10.5
  1
溶融亜鉛めっきHDZ35
100
AcDbText
  0
TEXT
  5
8321
330
46
100
AcDbEntity
  8
D-MTR-MTXT
  6
Continuous
100
AcDbText
 10
1248.375309906297
 20
268.6303835624187
 30
0.0
 40
10.5
  1
溶融亜鉛めっきHDZ35
100
AcDbText
  0
LWPOLYLINE
  5
8322
330
46
100
AcDbEntity
  8
D-MTR-FRAM
  6
Continuous
100
AcDbPolyline
 90
        4
 70
     1
 43
0.0
 10
1048.838683001084
 20
229.2285959583058
 10
1479.340329675088
 20
229.2285959583058
 10
1479.34032967509
 20
399.4556263402269
 10
1048.838683001086
 20
399.4556263402269
  0
LINE
  5
8323
330
46
100
AcDbEntity
  8
D-MTR-FRAM
  6
Continuous
100
AcDbLine
 10
1048.838683001084
 20
265.785353553786
 30
0.0
 11
1479.340329675087
 21
265.785353553786
 31
0.0
  0
LINE
  5
8324
330
46
100
AcDbEntity
  8
D-MTR-FRAM
  6
Continuous
100
AcDbLine
 10
1479.340329675088
 20
357.1772475424868
 30
0.0
 11
1048.838683001086
 21
357.1772475424868
 31
0.0
  0
LINE
  5
8325
330
46
100
AcDbEntity
  8
D-MTR-FRAM
  6
Continuous
100
AcDbLine
 10
1048.838683001086
 20
375.4556263402269
 30
0.0
 11
1479.340329675088
 21
375.4556263402269
 31
0.0
  0
LINE
  5
8326
330
46
100
AcDbEntity
  8
D-MTR-FRAM
  6
Continuous
100
AcDbLine
 10
1048.838683001086
 20
338.8988687447467
 30
0.0
 11
1479.340329675088
 21
338.8988687447467
 31
0.0
  0
TEXT
  5
8327
330
46
100
AcDbEntity
  8
D-MTR-MTXT
  6
Continuous
100
AcDbText
 10
1248.375309906297
 20
341.7438987533794
 30
0.0
 40
10.5
  1
溶融亜鉛めっきHDZ45
100
AcDbText
  0
LINE
  5
8328
330
46
100
AcDbEntity
  8
D-MTR-FRAM
  6
Continuous
100
AcDbLine
 10
1048.838683001086
 20
302.3421111492663
 30
0.0
 11
1479.340329675088
 21
302.3421111492663
 31
0.0
  0
LINE
  5
8329
330
46
100
AcDbEntity
  8
D-MTR-FRAM
  6
Continuous
100
AcDbLine
 10
1479.340329675088
 20
320.6204899470065
 30
0.0
 11
1048.838683001086
 21
320.6204899470065
 31
0.0
  0
TEXT
  5
832A
330
46
100
AcDbEntity
  8
D-MTR-MTXT
  6
Continuous
100
AcDbText
 10
1248.375309906297
 20
323.3978095292211
 30
0.0
 40
10.5
  1
溶融亜鉛めっきHDZ45
100
AcDbText
  0
TEXT
  5
832B
330
46
100
AcDbEntity
  8
D-MTR-MTXT
  6
Continuous
100
AcDbText
 10
1248.375309906297
 20
305.1871411578991
 30
0.0
 40
10.5
  1
溶融亜鉛めっきHDZ45
100
AcDbText
  0
TEXT
  5
832C
330
46
100
AcDbEntity
  8
D-MTR-MTXT
  6
Continuous
100
AcDbText
 10
1248.375309906297
 20
286.8410519337408
 30
0.0
 40
10.5
  1
角根丸頭ﾎﾞﾙﾄ（M12×30:A形1種)
100
AcDbText
  0
LINE
  5
832D
330
46
100
AcDbEntity
  8
D-MTR-FRAM
  6
Continuous
100
AcDbLine
 10
1160.745520754017
 20
375.3202054873885
 30
0.0
 11
1160.745520754015
 21
229.2285959583058
 31
0.0
  0
LINE
  5
832E
330
46
100
AcDbEntity
  8
D-MTR-FRAM
  6
Continuous
100
AcDbLine
 10
1239.089506338087
 20
375.4556263402269
 30
0.0
 11
1239.089506338085
 21
229.2285959583058
 31
0.0
  0
LINE
  5
832F
330
46
100
AcDbEntity
  8
D-MTR-FRAM
  6
Continuous
100
AcDbLine
 10
1076.617284249429
 20
375.3202054873885
 30
0.0
 11
1076.617284249428
 21
229.2285959583058
 31
0.0
  0
TEXT
  5
8330
330
46
100
AcDbEntity
  8
D-MTR-MTXT
  6
Continuous
100
AcDbText
 10
1091.513369893883
 20
305.1194307314827
 30
0.0
 40
10.5
  1
支持ピン
100
AcDbText
  0
TEXT
  5
8331
330
46
100
AcDbEntity
  8
D-MTR-MTXT
  6
Continuous
100
AcDbText
 10
1171.542275383517
 20
305.1194307314827
 30
0.0
 40
10.5
  1
SWCH
100
AcDbText
  0
TEXT
  5
8332
330
46
100
AcDbEntity
  8
D-MTR-MTXT
  6
Continuous
100
AcDbText
 10
1057.834137716496
 20
305.0883432460457
 30
0.0
 40
10.5
  1
3
 11
1057.834137716496
 21
315.5883432460457
 31
0.0
100
AcDbText
 73
     3
  0
TEXT
  5
8333
330
46
100
AcDbEntity
  8
D-MTR-MTXT
  6
Continuous
100
AcDbText
 10
1091.513369893883
 20
277.8410519337425
 30
0.0
 40
10.5
  1
固定用ﾎﾞﾙﾄ
100
AcDbText
  0
TEXT
  5
8334
330
46
100
AcDbEntity
  8
D-MTR-MTXT
  6
Continuous
100
AcDbText
 10
1091.778344972576
 20
241.0059155405225
 30
0.0
 40
10.5
  1
固定用ﾅｯﾄ
100
AcDbText
  0
TEXT
  5
8335
330
46
100
AcDbEntity
  8
D-MTR-MTXT
  6
Continuous
100
AcDbText
 10
1057.825216560906
 20
240.9748280550873
 30
0.0
 40
10.5
  1
5
 11
1057.825216560906
 21
251.4748280550873
 31
0.0
100
AcDbText
 73
     3
  0
TEXT
  5
8336
330
46
100
AcDbEntity
  8
D-MTR-MTXT
  6
Continuous
100
AcDbText
 10
1057.834137716496
 20
277.8099644483077
 30
0.0
 40
10.5
  1
4
 11
1057.834137716496
 21
288.3099644483077
 31
0.0
100
AcDbText
 73
     3
  0
TEXT
  5
8337
330
46
100
AcDbEntity
  8
D-MTR-MTXT
  6
Continuous
100
AcDbText
 10
1171.542275383515
 20
241.0059155405221
 30
0.0
 40
10.5
  1
SWCH
100
AcDbText
  0
TEXT
  5
8338
330
46
100
AcDbEntity
  8
D-MTR-MTXT
  6
Continuous
100
AcDbText
 10
1171.542275383517
 20
277.8410519337425
 30
0.0
 40
10.5
  1
SWCH
100
AcDbText
  0
TEXT
  5
8339
330
46
100
AcDbEntity
  8
D-MTR-MTXT
  6
Continuous
100
AcDbText
 10
1260.820534416845
 20
250.2842943382627
 30
0.0
 40
10.5
  1
M12用
100
AcDbText
  0
TEXT
  5
833A
330
46
100
AcDbEntity
  8
D-MTR-MTXT
  6
Continuous
100
AcDbText
 10
1097.24966385985
 20
341.6761883269619
 30
0.0
 40
10.5
  1
本　体
100
AcDbText
  0
TEXT
  5
833B
330
46
100
AcDbEntity
  8
D-MTR-TXT
  6
Continuous
100
AcDbText
 10
1099.051956002784
 20
359.9545671247015
 30
0.0
 40
10.5
  1
品　名
100
AcDbText
  0
TEXT
  5
833C
330
46
100
AcDbEntity
  8
D-MTR
  6
Continuous
100
AcDbText
 10
1058.87962315796
 20
378.9806060467837
 30
0.0
 40
15.0
  1
電力用受金物（L=300）
100
AcDbText
  0
TEXT
  5
833D
330
46
100
AcDbEntity
  8
D-MTR-MTXT
  6
Continuous
100
AcDbText
 10
1089.485395314842
 20
323.3978095292223
 30
0.0
 40
10.5
  1
取付ﾌﾟﾚｰﾄ
100
AcDbText
  0
TEXT
  5
833E
330
46
100
AcDbEntity
  8
D-MTR-TXT
  6
Continuous
100
AcDbText
 10
1052.469042435029
 20
358.5947627972473
 30
0.0
 40
10.5
  1
符号
 11
1052.469042435029
 21
369.0947627972473
 31
0.0
100
AcDbText
 73
     3
  0
TEXT
  5
833F
330
46
100
AcDbEntity
  8
D-MTR-MTXT
  6
Continuous
100
AcDbText
 10
1057.834137716496
 20
323.3667220437859
 30
0.0
 40
10.5
  1
2
 11
1057.834137716496
 21
333.8667220437859
 31
0.0
100
AcDbText
 73
     3
  0
TEXT
  5
8340
330
46
100
AcDbEntity
  8
D-MTR-MTXT
  6
Continuous
100
AcDbText
 10
1059.114305727313
 20
341.6451008415261
 30
0.0
 40
10.5
  1
1
 11
1059.114305727313
 21
352.1451008415261
 31
0.0
100
AcDbText
 73
     3
  0
TEXT
  5
8341
330
46
100
AcDbEntity
  8
D-MTR-TXT
  6
Continuous
100
AcDbText
 10
1182.049039040071
 20
359.9545671247015
 30
0.0
 40
10.5
  1
材　質
100
AcDbText
  0
TEXT
  5
8342
330
46
100
AcDbEntity
  8
D-MTR-MTXT
  6
Continuous
100
AcDbText
 10
1171.542275383517
 20
341.6761883269619
 30
0.0
 40
10.5
  1
SS400
100
AcDbText
  0
TEXT
  5
8343
330
46
100
AcDbEntity
  8
D-MTR-MTXT
  6
Continuous
100
AcDbText
 10
1171.542275383517
 20
323.3978095292217
 30
0.0
 40
10.5
  1
SS400
100
AcDbText
  0
TEXT
  5
8344
330
46
100
AcDbEntity
  8
D-MTR-TXT
  6
Continuous
100
AcDbText
 10
1320.984758821627
 20
359.9545671247015
 30
0.0
 40
10.5
  1
規　格
100
AcDbText
  0
LINE
  5
8345
330
46
100
AcDbEntity
  8
D-MTR-FRAM
  6
Continuous
100
AcDbLine
 10
1450.796489073802
 20
375.3202054873885
 30
0.0
 11
1450.7964890738
 21
229.2285959583058
 31
0.0
  0
TEXT
  5
8346
330
46
100
AcDbEntity
  8
D-MTR-MTXT
  6
Continuous
100
AcDbText
 10
1464.49815903364
 20
305.0883432460463
 30
0.0
 40
10.5
  1
1
 11
1464.49815903364
 21
315.5883432460463
 31
0.0
100
AcDbText
 73
     3
  0
TEXT
  5
8347
330
46
100
AcDbEntity
  8
D-MTR-MTXT
  6
Continuous
100
AcDbText
 10
1464.498159033638
 20
240.9748280550856
 30
0.0
 40
10.5
  1
1
 11
1464.498159033638
 21
251.4748280550856
 31
0.0
100
AcDbText
 73
     3
  0
TEXT
  5
8348
330
46
100
AcDbEntity
  8
D-MTR-MTXT
  6
Continuous
100
AcDbText
 10
1464.49815903364
 20
277.8099644483061
 30
0.0
 40
10.5
  1
1
 11
1464.49815903364
 21
288.3099644483061
 31
0.0
100
AcDbText
 73
     3
  0
TEXT
  5
8349
330
46
100
AcDbEntity
  8
D-MTR-TXT
  6
Continuous
100
AcDbText
 10
1453.593412558315
 20
358.5947627972473
 30
0.0
 40
10.5
  1
数量
 11
1453.593412558315
 21
369.0947627972473
 31
0.0
100
AcDbText
 73
     3
  0
TEXT
  5
834A
330
46
100
AcDbEntity
  8
D-MTR-MTXT
  6
Continuous
100
AcDbText
 10
1464.498159033642
 20
323.3667220437865
 30
0.0
 40
10.5
  1
1
 11
1464.498159033642
 21
333.8667220437865
 31
0.0
100
AcDbText
 73
     3
  0
TEXT
  5
834B
330
46
100
AcDbEntity
  8
D-MTR-MTXT
  6
Continuous
100
AcDbText
 10
1464.498159033642
 20
341.6451008415265
 30
0.0
 40
10.5
  1
1
 11
1464.498159033642
 21
352.1451008415265
 31
0.0
100
AcDbText
 73
     3
  0
INSERT
  5
8366
330
46
100
AcDbEntity
  8
D-STR-HTXT
  6
Continuous
100
AcDbBlockReference
  2
_Open
 10
976.9520904368741
 20
610.2105578541047
 30
0.0
 41
-5.999999999999311
 42
6.0
 43
6.0
 50
142.7335980990324
1001
ACAD
1000
DSTYLE
1002
{
1070
    41
1040
6.0
1070
   341
1005
7A53
1070
   147
1040
5.0
1070
    77
1070
     0
1002
}
  0
CIRCLE
  5
8367
330
46
100
AcDbEntity
  8
D-STR-HTXT
  6
Continuous
100
AcDbCircle
 10
956.3090318381956
 20
624.8108871864054
 30
0.0
 40
9.0
  0
LINE
  5
8368
330
46
100
AcDbEntity
  8
D-STR-HTXT
  6
Continuous
100
AcDbLine
 10
972.1771182721523
 20
613.8436888490111
 30
0.0
 11
965.4192995330317
 21
618.9855074548543
 31
0.0
1001
ACAD
1000
DSTYLE
1002
{
1070
    41
1040
6.0
1070
   341
1005
7A53
1070
   147
1040
5.0
1070
    77
1070
     0
1002
}
  0
MTEXT
  5
8369
330
46
100
AcDbEntity
  8
D-STR-HTXT
  6
Continuous
100
AcDbMText
 10
956.3090318381956
 20
624.8108871864054
 30
0.0
 40
10.5
 41
22.8991
 71
     5
 72
     5
  1
3
 73
     1
 44
1.0
1001
ACAD
1000
MTEXTBEGIN
1070
    73
1070
     1
1070
    44
1040
1.0
1070
    74
1070
     0
1000
MTEXTEND
  0
MTEXT
  5
836A
330
46
100
AcDbEntity
  8
D-STR-HTXT
  6
Continuous
100
AcDbMText
 10
966.2648941612779
 20
571.9463383084642
 30
0.0
 40
10.5
 41
22.8991
 71
     5
 72
     5
  1
2
 73
     1
 44
1.0
1001
ACAD
1000
MTEXTBEGIN
1070
    73
1070
     1
1070
    44
1040
1.0
1070
    74
1070
     0
1000
MTEXTEND
  0
CIRCLE
  5
836B
330
46
100
AcDbEntity
  8
D-STR-HTXT
  6
Continuous
100
AcDbCircle
 10
966.2648941612779
 20
571.9463383084642
 30
0.0
 40
9.0
  0
ENDSEC
  0
SECTION
  2
OBJECTS
  0
DICTIONARY
  5
2810
330
0
100
AcDbDictionary
281
     1
  3
ACAD_COLOR
350
8371
  3
ACAD_GROUP
350
2811
  3
ACAD_LAYOUT
350
281C
  3
ACAD_MATERIAL
350
8370
  3
ACAD_MLINESTYLE
350
2812
  3
ACAD_PLOTSETTINGS
350
281D
  3
ACAD_PLOTSTYLENAME
350
2819
  3
ACAD_TABLESTYLE
350
8372
  3
AcadDim
350
7BAE
  3
ACDBHEADERROUNDTRIPXREC
350
837B
  3
AcDbVariableDictionary
350
2854
  0
DICTIONARY
  5
2849
330
46
100
AcDbDictionary
280
     1
281
     1
  3
ACAD_LAYOUTSELFREF
360
284A
  0
DICTIONARY
  5
284B
330
47
100
AcDbDictionary
280
     1
281
     1
  3
ACAD_LAYOUTSELFREF
360
284C
  0
DICTIONARY
  5
8371
102
{ACAD_REACTORS
330
2810
102
}
330
2810
100
AcDbDictionary
281
     1
  0
DICTIONARY
  5
2811
102
{ACAD_REACTORS
330
2810
102
}
330
2810
100
AcDbDictionary
281
     1
  0
DICTIONARY
  5
281C
102
{ACAD_REACTORS
330
2810
102
}
330
2810
100
AcDbDictionary
281
     1
  3
Model
350
281E
  3
ﾚｲｱｳﾄ1
350
281F
  0
DICTIONARY
  5
8370
102
{ACAD_REACTORS
330
2810
102
}
330
2810
100
AcDbDictionary
281
     1
  0
DICTIONARY
  5
2812
102
{ACAD_REACTORS
330
2810
102
}
330
2810
100
AcDbDictionary
281
     1
  3
Standard
350
2F28
  0
DICTIONARY
  5
281D
102
{ACAD_REACTORS
330
2810
102
}
330
2810
100
AcDbDictionary
281
     1
  0
ACDBDICTIONARYWDFLT
  5
2819
102
{ACAD_REACTORS
330
2810
102
}
330
2810
100
AcDbDictionary
281
     1
  3
Normal
350
281A
100
AcDbDictionaryWithDefault
340
281A
  0
DICTIONARY
  5
8372
102
{ACAD_REACTORS
330
2810
102
}
330
2810
100
AcDbDictionary
281
     1
  3
Standard
350
8373
  0
XRECORD
  5
7BAE
102
{ACAD_REACTORS
330
2810
102
}
330
2810
100
AcDbXrecord
280
     1
 90
   990106
  3

 60
     0
 61
     0
 62
     1
 63
     3
 64
     1
 65
     0
 66
     0
 67
     3
 68
     1
 69
     0
 70
     0
 71
     0
 72
     0
 40
0.0
170
     2
340
7BB0
  0
DICTIONARY
  5
837B
102
{ACAD_REACTORS
330
2810
102
}
330
2810
100
AcDbDictionary
281
     1
  0
DICTIONARY
  5
2854
102
{ACAD_REACTORS
330
2810
102
}
330
2810
100
AcDbDictionary
281
     1
  3
CTABLESTYLE
350
8378
  3
DIMASSOC
350
2855
  3
PROJECTNAME
350
8379
  0
XRECORD
  5
284A
102
{ACAD_REACTORS
330
2849
102
}
330
2849
100
AcDbXrecord
280
     1
340
46
  0
XRECORD
  5
284C
102
{ACAD_REACTORS
330
284B
102
}
330
284B
100
AcDbXrecord
280
     1
340
47
  0
LAYOUT
  5
281E
102
{ACAD_XDICTIONARY
360
837C
102
}
102
{ACAD_REACTORS
330
281C
102
}
330
281C
100
AcDbPlotSettings
  1

  2
RICOH IPSiO NX730N RPCS★
  4
A3
  6

 40
5.873749732971191
 41
5.873747825622558
 42
5.873748779296875
 43
5.873748779296875
 44
296.9259948730469
 45
419.9466552734374
 46
-5.91
 47
-6.15
 48
0.0
 49
0.0
140
1681.999993260642
141
1187.999995240002
142
1.0
143
4.0
 70
 11948
 72
     1
 73
     1
 74
     4
  7
canon国土交通省.ctb
 75
     0
147
0.25
148
0.0
149
0.0
100
AcDbLayout
  1
Model
 70
     1
 71
     0
 10
0.0
 20
0.0
 11
12.0
 21
9.0
 12
0.0
 22
0.0
 32
0.0
 14
0.0
 24
0.0
 34
0.0
 15
0.0
 25
0.0
 35
0.0
146
0.0
 13
0.0
 23
0.0
 33
0.0
 16
1.0
 26
0.0
 36
0.0
 17
0.0
 27
1.0
 37
0.0
 76
     0
330
46
  0
LAYOUT
  5
281F
102
{ACAD_XDICTIONARY
360
837E
102
}
102
{ACAD_REACTORS
330
281C
102
}
330
281C
100
AcDbPlotSettings
  1

  2
C:\Program Files\ACAD LT 2000\plotters\レーザー ３３１０.pc3
  4

  6

 40
0.0
 41
0.0
 42
0.0
 43
0.0
 44
0.0
 45
0.0
 46
0.0
 47
0.0
 48
0.0
 49
0.0
140
0.0
141
0.0
142
1.0
143
1.0
 70
   688
 72
     0
 73
     0
 74
     5
  7
canon国土交通省.ctb
 75
    16
147
1.0
148
0.0
149
0.0
100
AcDbLayout
  1
ﾚｲｱｳﾄ1
 70
     1
 71
     1
 10
0.0
 20
0.0
 11
12.0
 21
9.0
 12
0.0
 22
0.0
 32
0.0
 14
1.000000000000000E+20
 24
1.000000000000000E+20
 34
1.000000000000000E+20
 15
-1.000000000000000E+20
 25
-1.000000000000000E+20
 35
-1.000000000000000E+20
146
0.0
 13
0.0
 23
0.0
 33
0.0
 16
1.0
 26
0.0
 36
0.0
 17
0.0
 27
1.0
 37
0.0
 76
     0
330
47
  0
MLINESTYLE
  5
2F28
102
{ACAD_REACTORS
330
2812
102
}
330
2812
100
AcDbMlineStyle
  2
STANDARD
 70
     0
  3

 62
   256
 51
90.0
 52
90.0
 71
     2
 49
0.5
 62
   256
  6
BYLAYER
 49
-0.5
 62
   256
  6
BYLAYER
  0
ACDBPLACEHOLDER
  5
281A
102
{ACAD_REACTORS
330
2819
102
}
330
2819
  0
TABLESTYLE
  5
8373
102
{ACAD_REACTORS
330
8372
102
}
330
8372
100
AcDbTableStyle
  3
Standard
 70
     0
 71
     0
 40
0.06
 41
0.06
280
     0
281
     0
  7
STANDARD
140
0.18
170
     2
 62
     0
 63
     7
283
     0
274
    -2
284
     1
 64
     0
275
    -2
285
     1
 65
     0
276
    -2
286
     1
 66
     0
277
    -2
287
     1
 67
     0
278
    -2
288
     1
 68
     0
279
    -2
289
     1
 69
     0
  7
STANDARD
140
0.25
170
     5
 62
     0
 63
     7
283
     0
274
    -2
284
     1
 64
     0
275
    -2
285
     1
 65
     0
276
    -2
286
     1
 66
     0
277
    -2
287
     1
 67
     0
278
    -2
288
     1
 68
     0
279
    -2
289
     1
 69
     0
  7
STANDARD
140
0.18
170
     5
 62
     0
 63
     7
283
     0
274
    -2
284
     1
 64
     0
275
    -2
285
     1
 65
     0
276
    -2
286
     1
 66
     0
277
    -2
287
     1
 67
     0
278
    -2
288
     1
 68
     0
279
    -2
289
     1
 69
     0
  0
DICTIONARYVAR
  5
8378
102
{ACAD_REACTORS
330
2854
102
}
330
2854
100
DictionaryVariables
280
     0
  1
STANDARD
  0
DICTIONARYVAR
  5
2855
102
{ACAD_REACTORS
330
2854
102
}
330
2854
100
DictionaryVariables
280
     0
  1
1
  0
DICTIONARYVAR
  5
8379
102
{ACAD_REACTORS
330
2854
102
}
330
2854
100
DictionaryVariables
280
     0
  1

  0
DICTIONARY
  5
837C
330
281E
100
AcDbDictionary
280
     1
281
     1
  3
ACAD_XREC_ROUNDTRIP
360
837D
  0
DICTIONARY
  5
837E
330
281F
100
AcDbDictionary
280
     1
281
     1
  3
ACAD_XREC_ROUNDTRIP
360
837F
  0
XRECORD
  5
837D
102
{ACAD_REACTORS
330
837C
102
}
330
837C
100
AcDbXrecord
280
     1
102
SHADEPLOT
 70
     2
102
SHADEPLOTRESLEVEL
 70
     2
102
SHADEPLOTCUSTOMDPI
 70
   300
  0
XRECORD
  5
837F
102
{ACAD_REACTORS
330
837E
102
}
330
837E
100
AcDbXrecord
280
     1
102
SHADEPLOT
 70
     0
102
SHADEPLOTRESLEVEL
 70
     2
102
SHADEPLOTCUSTOMDPI
 70
   300
  0
ENDSEC
  0
EOF
