  0
SECTION
  2
HEADER
  9
$ACADVER
  1
AC1015
  9
$ACADMAINTVER
 70
    20
  9
$DWGCODEPAGE
  3
ANSI_932
  9
$INSBASE
 10
0.0
 20
0.0
 30
0.0
  9
$EXTMIN
 10
-0.1282363382852054
 20
-0.0905735849501071
 30
-0.0000000000112498
  9
$EXTMAX
 10
8410.128353831794
 20
5940.09065657085
 30
0.0000000000002956
  9
$LIMMIN
 10
0.0
 20
0.0
  9
$LIMMAX
 10
8410.0
 20
5940.0
  9
$ORTHOMODE
 70
     1
  9
$REGENMODE
 70
     1
  9
$FILLMODE
 70
     1
  9
$QTEXTMODE
 70
     0
  9
$MIRRTEXT
 70
     0
  9
$LTSCALE
 40
10.0
  9
$ATTMODE
 70
     1
  9
$TEXTSIZE
 40
3.0
  9
$TRACEWID
 40
0.05
  9
$TEXTSTYLE
  7
STANDARD
  9
$CLAYER
  8
6-寸法
  9
$CELTYPE
  6
BYLAYER
  9
$CECOLOR
 62
   256
  9
$CELTSCALE
 40
1.0
  9
$DISPSILH
 70
     0
  9
$DIMSCALE
 40
10.0
  9
$DIMASZ
 40
2.0
  9
$DIMEXO
 40
3.0
  9
$DIMDLI
 40
0.0
  9
$DIMRND
 40
0.0
  9
$DIMDLE
 40
0.0
  9
$DIMEXE
 40
1.0
  9
$DIMTP
 40
0.0
  9
$DIMTM
 40
0.0
  9
$DIMTXT
 40
2.5
  9
$DIMCEN
 40
0.0
  9
$DIMTSZ
 40
0.0
  9
$DIMTOL
 70
     0
  9
$DIMLIM
 70
     0
  9
$DIMTIH
 70
     0
  9
$DIMTOH
 70
     0
  9
$DIMSE1
 70
     0
  9
$DIMSE2
 70
     0
  9
$DIMTAD
 70
     0
  9
$DIMZIN
 70
     8
  9
$DIMBLK
  1

  9
$DIMASO
 70
     1
  9
$DIMSHO
 70
     0
  9
$DIMPOST
  1

  9
$DIMAPOST
  1

  9
$DIMALT
 70
     0
  9
$DIMALTD
 70
     2
  9
$DIMALTF
 40
25.4
  9
$DIMLFAC
 40
1.0
  9
$DIMTOFL
 70
     1
  9
$DIMTVP
 40
1.0
  9
$DIMTIX
 70
     1
  9
$DIMSOXD
 70
     0
  9
$DIMSAH
 70
     1
  9
$DIMBLK1
  1
OPEN
  9
$DIMBLK2
  1
OPEN
  9
$DIMSTYLE
  2
STANDARD
  9
$DIMCLRD
 70
     0
  9
$DIMCLRE
 70
     0
  9
$DIMCLRT
 70
     0
  9
$DIMTFAC
 40
1.0
  9
$DIMGAP
 40
0.0
  9
$DIMJUST
 70
     0
  9
$DIMSD1
 70
     0
  9
$DIMSD2
 70
     0
  9
$DIMTOLJ
 70
     1
  9
$DIMTZIN
 70
     8
  9
$DIMALTZ
 70
     8
  9
$DIMALTTZ
 70
     8
  9
$DIMUPT
 70
     0
  9
$DIMDEC
 70
     1
  9
$DIMTDEC
 70
     1
  9
$DIMALTU
 70
     2
  9
$DIMALTTD
 70
     2
  9
$DIMTXSTY
  7
STANDARD
  9
$DIMAUNIT
 70
     0
  9
$DIMADEC
 70
     0
  9
$DIMALTRND
 40
0.0
  9
$DIMAZIN
 70
     0
  9
$DIMDSEP
 70
    46
  9
$DIMATFIT
 70
     3
  9
$DIMFRAC
 70
     0
  9
$DIMLDRBLK
  1

  9
$DIMLUNIT
 70
     2
  9
$DIMLWD
 70
    -2
  9
$DIMLWE
 70
    -2
  9
$DIMTMOVE
 70
     2
  9
$LUNITS
 70
     2
  9
$LUPREC
 70
     1
  9
$SKETCHINC
 40
0.1
  9
$FILLETRAD
 40
30.0
  9
$AUNITS
 70
     0
  9
$AUPREC
 70
     1
  9
$MENU
  1
d:\powerup\haneda
  9
$ELEVATION
 40
0.0
  9
$PELEVATION
 40
0.0
  9
$THICKNESS
 40
0.0
  9
$LIMCHECK
 70
     0
  9
$CHAMFERA
 40
0.0
  9
$CHAMFERB
 40
0.0
  9
$CHAMFERC
 40
0.0
  9
$CHAMFERD
 40
0.0
  9
$SKPOLY
 70
     0
  9
$TDCREATE
 40
2451206.539872882
  9
$TDUCREATE
 40
2451206.164872882
  9
$TDUPDATE
 40
2456348.160897535
  9
$TDUUPDATE
 40
2456347.785897535
  9
$TDINDWG
 40
0.4226101157
  9
$TDUSRTIMER
 40
0.4226101157
  9
$USRTIMER
 70
     1
  9
$ANGBASE
 50
0.0
  9
$ANGDIR
 70
     0
  9
$PDMODE
 70
     0
  9
$PDSIZE
 40
0.0
  9
$PLINEWID
 40
0.0
  9
$SPLFRAME
 70
     0
  9
$SPLINETYPE
 70
     6
  9
$SPLINESEGS
 70
     8
  9
$HANDSEED
  5
E54
  9
$SURFTAB1
 70
     6
  9
$SURFTAB2
 70
     6
  9
$SURFTYPE
 70
     6
  9
$SURFU
 70
     6
  9
$SURFV
 70
     6
  9
$UCSBASE
  2

  9
$UCSNAME
  2

  9
$UCSORG
 10
1189.147689836032
 20
4889.750143086112
 30
0.0
  9
$UCSXDIR
 10
1.0
 20
0.0
 30
0.0
  9
$UCSYDIR
 10
0.0
 20
1.0
 30
0.0
  9
$UCSORTHOREF
  2

  9
$UCSORTHOVIEW
 70
     0
  9
$UCSORGTOP
 10
0.0
 20
0.0
 30
0.0
  9
$UCSORGBOTTOM
 10
0.0
 20
0.0
 30
0.0
  9
$UCSORGLEFT
 10
0.0
 20
0.0
 30
0.0
  9
$UCSORGRIGHT
 10
0.0
 20
0.0
 30
0.0
  9
$UCSORGFRONT
 10
0.0
 20
0.0
 30
0.0
  9
$UCSORGBACK
 10
0.0
 20
0.0
 30
0.0
  9
$PUCSBASE
  2

  9
$PUCSNAME
  2

  9
$PUCSORG
 10
0.0
 20
0.0
 30
0.0
  9
$PUCSXDIR
 10
1.0
 20
0.0
 30
0.0
  9
$PUCSYDIR
 10
0.0
 20
1.0
 30
0.0
  9
$PUCSORTHOREF
  2

  9
$PUCSORTHOVIEW
 70
     0
  9
$PUCSORGTOP
 10
0.0
 20
0.0
 30
0.0
  9
$PUCSORGBOTTOM
 10
0.0
 20
0.0
 30
0.0
  9
$PUCSORGLEFT
 10
0.0
 20
0.0
 30
0.0
  9
$PUCSORGRIGHT
 10
0.0
 20
0.0
 30
0.0
  9
$PUCSORGFRONT
 10
0.0
 20
0.0
 30
0.0
  9
$PUCSORGBACK
 10
0.0
 20
0.0
 30
0.0
  9
$USERI1
 70
     0
  9
$USERI2
 70
     0
  9
$USERI3
 70
     0
  9
$USERI4
 70
     0
  9
$USERI5
 70
     0
  9
$USERR1
 40
0.0
  9
$USERR2
 40
0.0
  9
$USERR3
 40
0.0
  9
$USERR4
 40
0.0
  9
$USERR5
 40
1.0
  9
$WORLDVIEW
 70
     1
  9
$SHADEDGE
 70
     3
  9
$SHADEDIF
 70
    70
  9
$TILEMODE
 70
     1
  9
$MAXACTVP
 70
    16
  9
$PINSBASE
 10
0.0
 20
0.0
 30
0.0
  9
$PLIMCHECK
 70
     0
  9
$PEXTMIN
 10
1.000000000000000E+20
 20
1.000000000000000E+20
 30
1.000000000000000E+20
  9
$PEXTMAX
 10
-1.000000000000000E+20
 20
-1.000000000000000E+20
 30
-1.000000000000000E+20
  9
$PLIMMIN
 10
0.0
 20
0.0
  9
$PLIMMAX
 10
12.0
 20
9.0
  9
$UNITMODE
 70
     0
  9
$VISRETAIN
 70
     0
  9
$PLINEGEN
 70
     0
  9
$PSLTSCALE
 70
     0
  9
$TREEDEPTH
 70
  3020
  9
$CMLSTYLE
  2
STANDARD
  9
$CMLJUST
 70
     0
  9
$CMLSCALE
 40
1.0
  9
$PROXYGRAPHICS
 70
     1
  9
$MEASUREMENT
 70
     0
  9
$CELWEIGHT
370
    -1
  9
$ENDCAPS
280
     0
  9
$JOINSTYLE
280
     0
  9
$LWDISPLAY
290
     0
  9
$INSUNITS
 70
     0
  9
$HYPERLINKBASE
  1

  9
$STYLESHEET
  1

  9
$XEDIT
290
     1
  9
$CEPSNTYPE
380
     0
  9
$PSTYLEMODE
290
     1
  9
$FINGERPRINTGUID
  2
{9B3377BF-4FC6-40A9-B87C-8E3E90F51879}
  9
$VERSIONGUID
  2
{44DE105D-8AD4-45D9-BBAF-52DEB89973A2}
  9
$EXTNAMES
290
     1
  9
$PSVPSCALE
 40
0.0
  9
$OLESTARTUP
290
     0
  0
ENDSEC
  0
SECTION
  2
CLASSES
  0
CLASS
  1
DICTIONARYVAR
  2
AcDbDictionaryVar
  3
ObjectDBX Classes
 90
        0
280
     0
281
     0
  0
CLASS
  1
ACDBDICTIONARYWDFLT
  2
AcDbDictionaryWithDefault
  3
ObjectDBX Classes
 90
        0
280
     0
281
     0
  0
CLASS
  1
ACDBPLACEHOLDER
  2
AcDbPlaceHolder
  3
ObjectDBX Classes
 90
        0
280
     0
281
     0
  0
CLASS
  1
LAYOUT
  2
AcDbLayout
  3
ObjectDBX Classes
 90
        0
280
     0
281
     0
  0
ENDSEC
  0
SECTION
  2
TABLES
  0
TABLE
  2
VPORT
  5
57
330
0
100
AcDbSymbolTable
 70
     4
  0
VPORT
  5
E4C
330
57
100
AcDbSymbolTableRecord
100
AcDbViewportTableRecord
  2
*Active
 70
     0
 10
0.0
 20
0.0
 11
1.0
 21
1.0
 12
4205.000058746755
 22
2970.00004149295
 13
0.0
 23
0.0
 14
1.0
 24
1.0
 15
0.0
 25
0.0
 16
0.0
 26
0.0
 36
1.0
 17
0.0
 27
0.0
 37
0.0
 40
5991.389689036454
 41
1.772661870503597
 42
50.0
 43
0.0
 44
0.0
 50
0.0
 51
0.0
 71
     0
 72
  1000
 73
     1
 74
     0
 75
     0
 76
     0
 77
     0
 78
     0
281
     0
 65
     1
110
1189.147689836032
120
4889.750143086112
130
0.0
111
1.0
121
0.0
131
0.0
112
0.0
122
1.0
132
0.0
 79
     0
146
0.0
  0
ENDTAB
  0
TABLE
  2
LTYPE
  5
54
330
0
100
AcDbSymbolTable
 70
     1
  0
LTYPE
  5
61
330
54
100
AcDbSymbolTableRecord
100
AcDbLinetypeTableRecord
  2
BYBLOCK
 70
     0
  3

 72
    65
 73
     0
 40
0.0
  0
LTYPE
  5
62
330
54
100
AcDbSymbolTableRecord
100
AcDbLinetypeTableRecord
  2
BYLAYER
 70
     0
  3

 72
    65
 73
     0
 40
0.0
  0
LTYPE
  5
63
330
54
100
AcDbSymbolTableRecord
100
AcDbLinetypeTableRecord
  2
CONTINUOUS
 70
     0
  3
Solid line
 72
    65
 73
     0
 40
0.0
  0
ENDTAB
  0
TABLE
  2
LAYER
  5
51
330
0
100
AcDbSymbolTable
 70
     8
  0
LAYER
  5
5E
330
51
100
AcDbSymbolTableRecord
100
AcDbLayerTableRecord
  2
0
 70
     0
 62
     7
  6
CONTINUOUS
370
    -3
390
DDB
  0
LAYER
  5
85
330
51
100
AcDbSymbolTableRecord
100
AcDbLayerTableRecord
  2
DEFPOINTS
 70
     0
 62
     7
  6
CONTINUOUS
290
     0
370
    -3
390
DDB
  0
LAYER
  5
AE
330
51
100
AcDbSymbolTableRecord
100
AcDbLayerTableRecord
  2
1-構造
 70
     0
 62
     2
  6
CONTINUOUS
370
    -3
390
DDB
  0
LAYER
  5
347
330
51
100
AcDbSymbolTableRecord
100
AcDbLayerTableRecord
  2
6-寸法
 70
     0
 62
     7
  6
CONTINUOUS
370
    -3
390
DDB
  0
LAYER
  5
348
330
51
100
AcDbSymbolTableRecord
100
AcDbLayerTableRecord
  2
7-文字
 70
     0
 62
     7
  6
CONTINUOUS
370
    -3
390
DDB
  0
LAYER
  5
34A
330
51
100
AcDbSymbolTableRecord
100
AcDbLayerTableRecord
  2
A-枠
 70
     0
 62
     6
  6
CONTINUOUS
370
    -3
390
DDB
  0
LAYER
  5
34B
330
51
100
AcDbSymbolTableRecord
100
AcDbLayerTableRecord
  2
B-枠文字
 70
     0
 62
     7
  6
CONTINUOUS
370
    -3
390
DDB
  0
LAYER
  5
DD7
330
51
100
AcDbSymbolTableRecord
100
AcDbLayerTableRecord
  2
細線
 70
     0
 62
     4
  6
CONTINUOUS
370
    -3
390
DDB
  0
ENDTAB
  0
TABLE
  2
STYLE
  5
52
330
0
100
AcDbSymbolTable
 70
     3
  0
STYLE
  5
5F
330
52
100
AcDbSymbolTableRecord
100
AcDbTextStyleTableRecord
  2
STANDARD
 70
     0
 40
0.0
 41
1.0
 50
0.0
 71
     0
 42
3.0
  3

  4

1001
ACAD
1000
MS Gothic
1071
    32817
  0
STYLE
  5
BA
330
52
100
AcDbSymbolTableRecord
100
AcDbTextStyleTableRecord
  2
DIM
 70
     0
 40
0.0
 41
0.6
 50
0.0
 71
     0
 42
0.2
  3
simplex
  4
bigfont
  0
STYLE
  5
32C
330
52
100
AcDbSymbolTableRecord
100
AcDbTextStyleTableRecord
  2
STANDARD2
 70
     0
 40
8.0
 41
1.0
 50
0.0
 71
     0
 42
8.0
  3

  4

1001
ACAD
1000
MS Gothic
1071
    32817
  0
ENDTAB
  0
TABLE
  2
VIEW
  5
55
330
0
100
AcDbSymbolTable
 70
     0
  0
ENDTAB
  0
TABLE
  2
UCS
  5
56
330
0
100
AcDbSymbolTable
 70
     0
  0
ENDTAB
  0
TABLE
  2
APPID
  5
58
330
0
100
AcDbSymbolTable
 70
     5
  0
APPID
  5
60
330
58
100
AcDbSymbolTableRecord
100
AcDbRegAppTableRecord
  2
ACAD
 70
     0
  0
APPID
  5
B8C
330
58
100
AcDbSymbolTableRecord
100
AcDbRegAppTableRecord
  2
CONTENTTABDATA
 70
     0
  0
APPID
  5
B8D
330
58
100
AcDbSymbolTableRecord
100
AcDbRegAppTableRecord
  2
CONTENTCURRENTTAB
 70
     0
  0
APPID
  5
C39
330
58
100
AcDbSymbolTableRecord
100
AcDbRegAppTableRecord
  2
CONTENTBLOCKDESCRIPTION
 70
     0
  0
APPID
  5
C44
330
58
100
AcDbSymbolTableRecord
100
AcDbRegAppTableRecord
  2
CONTENTBLOCKICON
 70
     0
  0
ENDTAB
  0
TABLE
  2
DIMSTYLE
  5
59
330
0
100
AcDbSymbolTable
 70
     1
100
AcDbDimStyleTable
 71
     0
  0
DIMSTYLE
105
6F
102
{ACAD_REACTORS
330
810
330
81D
330
82A
330
860
330
864
330
85F
330
889
330
88A
330
88E
330
8C2
330
8CF
330
8DC
330
914
330
921
330
92E
330
9BA
330
9BC
330
9B8
330
A11
330
A1E
330
A2B
330
A97
330
AA6
330
AC2
330
ACC
330
B01
330
B06
330
B02
330
B4D
330
B5A
330
C05
330
C11
330
C1F
330
C2B
330
C38
330
CFE
330
95C
330
95D
330
960
330
A2F
330
AC5
330
AC8
102
}
330
59
100
AcDbSymbolTableRecord
100
AcDbDimStyleTableRecord
  2
STANDARD
 70
     0
 40
100.0
 41
1.0
 42
1.0
 43
0.0
 44
1.0
 73
     0
 74
     0
 78
     8
140
2.5
141
0.0
145
1.0
147
0.0
172
     1
174
     1
271
     1
272
     1
279
     2
284
     8
285
     8
286
     8
340
5F
341
BA9
342
BA9
  0
ENDTAB
  0
TABLE
  2
BLOCK_RECORD
  5
50
330
0
100
AcDbSymbolTable
 70
    45
  0
BLOCK_RECORD
  5
67
330
50
100
AcDbSymbolTableRecord
100
AcDbBlockTableRecord
  2
*MODEL_SPACE
340
DE0
  0
BLOCK_RECORD
  5
64
330
50
100
AcDbSymbolTableRecord
100
AcDbBlockTableRecord
  2
*PAPER_SPACE
340
DE1
  0
BLOCK_RECORD
  5
199
330
50
100
AcDbSymbolTableRecord
100
AcDbBlockTableRecord
  2
_OPEN
340
0
102
{BLKREFS
331
85D
331
863
331
88D
331
B6A
331
B6D
331
B70
331
B73
331
B76
331
B7A
331
809
331
80A
331
816
331
817
331
823
331
824
331
86A
331
86B
331
876
331
877
331
882
331
883
331
894
331
895
331
8A0
331
8A1
331
8AC
331
8AD
331
8BB
331
8BC
331
8C8
331
8C9
331
8D5
331
8D6
331
90D
331
90E
331
91A
331
91B
331
927
331
928
331
96A
331
96B
331
976
331
977
331
982
331
983
331
9C4
331
9C5
331
9D0
331
9D1
331
9DC
331
9DD
331
A0A
331
A0B
331
A17
331
A18
331
A24
331
A25
331
A5A
331
A5B
331
A90
331
A91
331
A9F
331
AA0
331
ABB
331
ABC
331
AD6
331
AD7
331
AE2
331
AE3
331
AEE
331
AEF
331
B14
331
B15
331
B20
331
B21
331
B38
331
B39
331
B46
331
B47
331
B53
331
B54
331
BFE
331
BFF
331
C0A
331
C0B
331
C18
331
C19
331
C24
331
C25
331
C31
331
C32
331
CF7
331
CF8
331
E0E
102
}
  0
BLOCK_RECORD
  5
804
330
50
100
AcDbSymbolTableRecord
100
AcDbBlockTableRecord
  2
*D1
340
0
  0
BLOCK_RECORD
  5
811
330
50
100
AcDbSymbolTableRecord
100
AcDbBlockTableRecord
  2
*D2
340
0
  0
BLOCK_RECORD
  5
81E
330
50
100
AcDbSymbolTableRecord
100
AcDbBlockTableRecord
  2
*D3
340
0
  0
BLOCK_RECORD
  5
865
330
50
100
AcDbSymbolTableRecord
100
AcDbBlockTableRecord
  2
*D4
340
0
  0
BLOCK_RECORD
  5
871
330
50
100
AcDbSymbolTableRecord
100
AcDbBlockTableRecord
  2
*D5
340
0
  0
BLOCK_RECORD
  5
87D
330
50
100
AcDbSymbolTableRecord
100
AcDbBlockTableRecord
  2
*D6
340
0
  0
BLOCK_RECORD
  5
88F
330
50
100
AcDbSymbolTableRecord
100
AcDbBlockTableRecord
  2
*D7
340
0
  0
BLOCK_RECORD
  5
89B
330
50
100
AcDbSymbolTableRecord
100
AcDbBlockTableRecord
  2
*D8
340
0
  0
BLOCK_RECORD
  5
8A7
330
50
100
AcDbSymbolTableRecord
100
AcDbBlockTableRecord
  2
*D9
340
0
  0
BLOCK_RECORD
  5
8B6
330
50
100
AcDbSymbolTableRecord
100
AcDbBlockTableRecord
  2
*D10
340
0
  0
BLOCK_RECORD
  5
8C3
330
50
100
AcDbSymbolTableRecord
100
AcDbBlockTableRecord
  2
*D11
340
0
  0
BLOCK_RECORD
  5
8D0
330
50
100
AcDbSymbolTableRecord
100
AcDbBlockTableRecord
  2
*D12
340
0
  0
BLOCK_RECORD
  5
908
330
50
100
AcDbSymbolTableRecord
100
AcDbBlockTableRecord
  2
*D13
340
0
  0
BLOCK_RECORD
  5
915
330
50
100
AcDbSymbolTableRecord
100
AcDbBlockTableRecord
  2
*D14
340
0
  0
BLOCK_RECORD
  5
922
330
50
100
AcDbSymbolTableRecord
100
AcDbBlockTableRecord
  2
*D15
340
0
  0
BLOCK_RECORD
  5
965
330
50
100
AcDbSymbolTableRecord
100
AcDbBlockTableRecord
  2
*D16
340
0
  0
BLOCK_RECORD
  5
971
330
50
100
AcDbSymbolTableRecord
100
AcDbBlockTableRecord
  2
*D17
340
0
  0
BLOCK_RECORD
  5
97D
330
50
100
AcDbSymbolTableRecord
100
AcDbBlockTableRecord
  2
*D18
340
0
  0
BLOCK_RECORD
  5
9BF
330
50
100
AcDbSymbolTableRecord
100
AcDbBlockTableRecord
  2
*D19
340
0
  0
BLOCK_RECORD
  5
9CB
330
50
100
AcDbSymbolTableRecord
100
AcDbBlockTableRecord
  2
*D20
340
0
  0
BLOCK_RECORD
  5
9D7
330
50
100
AcDbSymbolTableRecord
100
AcDbBlockTableRecord
  2
*D21
340
0
  0
BLOCK_RECORD
  5
A05
330
50
100
AcDbSymbolTableRecord
100
AcDbBlockTableRecord
  2
*D22
340
0
  0
BLOCK_RECORD
  5
A12
330
50
100
AcDbSymbolTableRecord
100
AcDbBlockTableRecord
  2
*D23
340
0
  0
BLOCK_RECORD
  5
A1F
330
50
100
AcDbSymbolTableRecord
100
AcDbBlockTableRecord
  2
*D24
340
0
  0
BLOCK_RECORD
  5
A55
330
50
100
AcDbSymbolTableRecord
100
AcDbBlockTableRecord
  2
*D25
340
0
  0
BLOCK_RECORD
  5
A8B
330
50
100
AcDbSymbolTableRecord
100
AcDbBlockTableRecord
  2
*D26
340
0
  0
BLOCK_RECORD
  5
A9A
330
50
100
AcDbSymbolTableRecord
100
AcDbBlockTableRecord
  2
*D27
340
0
  0
BLOCK_RECORD
  5
AB6
330
50
100
AcDbSymbolTableRecord
100
AcDbBlockTableRecord
  2
*D28
340
0
  0
BLOCK_RECORD
  5
AD1
330
50
100
AcDbSymbolTableRecord
100
AcDbBlockTableRecord
  2
*D29
340
0
  0
BLOCK_RECORD
  5
ADD
330
50
100
AcDbSymbolTableRecord
100
AcDbBlockTableRecord
  2
*D30
340
0
  0
BLOCK_RECORD
  5
AE9
330
50
100
AcDbSymbolTableRecord
100
AcDbBlockTableRecord
  2
*D31
340
0
  0
BLOCK_RECORD
  5
B0F
330
50
100
AcDbSymbolTableRecord
100
AcDbBlockTableRecord
  2
*D32
340
0
  0
BLOCK_RECORD
  5
B1B
330
50
100
AcDbSymbolTableRecord
100
AcDbBlockTableRecord
  2
*D33
340
0
  0
BLOCK_RECORD
  5
B33
330
50
100
AcDbSymbolTableRecord
100
AcDbBlockTableRecord
  2
*D34
340
0
  0
BLOCK_RECORD
  5
B41
330
50
100
AcDbSymbolTableRecord
100
AcDbBlockTableRecord
  2
*D35
340
0
  0
BLOCK_RECORD
  5
B4E
330
50
100
AcDbSymbolTableRecord
100
AcDbBlockTableRecord
  2
*D36
340
0
  0
BLOCK_RECORD
  5
BA9
330
50
100
AcDbSymbolTableRecord
100
AcDbBlockTableRecord
  2
_DOT
340
0
  0
BLOCK_RECORD
  5
BF9
330
50
100
AcDbSymbolTableRecord
100
AcDbBlockTableRecord
  2
*D38
340
0
  0
BLOCK_RECORD
  5
C06
330
50
100
AcDbSymbolTableRecord
100
AcDbBlockTableRecord
  2
*D39
340
0
  0
BLOCK_RECORD
  5
C12
330
50
100
AcDbSymbolTableRecord
100
AcDbBlockTableRecord
  2
*D40
340
0
  0
BLOCK_RECORD
  5
C20
330
50
100
AcDbSymbolTableRecord
100
AcDbBlockTableRecord
  2
*D41
340
0
  0
BLOCK_RECORD
  5
C2C
330
50
100
AcDbSymbolTableRecord
100
AcDbBlockTableRecord
  2
*D42
340
0
  0
BLOCK_RECORD
  5
C3A
330
50
100
AcDbSymbolTableRecord
100
AcDbBlockTableRecord
  2
GURIISI
340
0
310
2800000020000000200000000100040000000000000200000000000000000000000000000000000000000000000080000080000000808000800000008000800080800000C0C0C000808080000000FF0000FF000000FFFF00FF000000FF00FF00FFFF0000FFFFFF00FFFFFFFFFFFFFFFFFFFFFFFFFFFFFFFFFF00000FFFFFF0
310
000FFFFFF0000FFFFFF00FFF00FFFF0FFF00FFFF00FFF00FFFF0FFFFF00FF0FFFFFF0FF00FFFFF00FF0FFFFFFF00F0FFFFFFF0F0FFFFFFF0FF0FFFFFFFF000FFFFFFF000FFFFFFFF0F0FFFFFFFFF0FFFFFFFFF00FFFFFFFF0F0FFFFFFFFF0FFFFFFFFF00FFFFFFFFF00FFFFFFFFF00FFFFFFFFF0FFFFFFFFFF0FFFFFFFFFF0
310
FFFFFFFFF0FFFFFFFFFFF0FFFFFFFFF0FFFFFFFFF0FFFFFFFFFFF0FFFFFFFFF00FFFFFFFF00FFFFFFFFFFF0FFFFFFFF00FFFFFFFF00FFFFFFFFFFF0FFFFFFF0000FFFFFFF0F0FFFFFFFFFFF0FFFFFF0FF0FFFFFF00F00FFFFFF0FFF000FFF00FFF00FFF00FFF00FFFF0FFF00F00000FF00F00000FF00FF0000FFF0FFFFF0FF
310
F00FFFF00FFF0FFFFF00FF00FFFFFF0FF0FFFFFF00F0FFFFFFF0FF0FFFFFFFF0F0FFFFFFF0F0FFFFFFF00F0FFFFFFFF00FFFFFFFFF00FFFFFFFF0F0FFFFFFFFF0FFFFFFFFF00FFFFFFFFF00FFFFFFFFF00FFFFFFFFF0FFFFFFFFFF0FFFFFFFFFF0FFFFFFFFF0FFFFFFFFFF00FFFFFFFFF0FFFFFFFFF0FFFFFFFFFFF0FFFFFF
310
FFF0FFFFFFFFF00FFFFFFFFFF00FFFFFFFF00FFFFFFFF00FFFFFFFFFFF0FFFFFFFF00FFFFFFFF0F0FFFFFFFFFF00FFFFFF0FF0FFFFFFF0F0FFFFFFF0FFF00FFFF00FF00FFFFF0FFF00FFFF0FFFFFF00000FFFFF00000FFFFF000000FFFFFFFFFFFFFFFFFFFFFFFFFFFFFFFFF
102
{BLKREFS
331
C43
331
C46
102
}
  0
BLOCK_RECORD
  5
CF2
330
50
100
AcDbSymbolTableRecord
100
AcDbBlockTableRecord
  2
*D44
340
0
  0
ENDTAB
  0
ENDSEC
  0
SECTION
  2
BLOCKS
  0
BLOCK
  5
88
330
67
100
AcDbEntity
  8
0
 62
     7
100
AcDbBlockBegin
  2
*MODEL_SPACE
 70
     0
 10
0.0
 20
0.0
 30
0.0
  3
*MODEL_SPACE
  1

  0
ENDBLK
  5
89
330
67
100
AcDbEntity
  8
0
 62
     7
100
AcDbBlockEnd
  0
BLOCK
  5
86
330
64
100
AcDbEntity
 67
     1
  8
0
 62
     7
100
AcDbBlockBegin
  2
*PAPER_SPACE
 70
     0
 10
0.0
 20
0.0
 30
0.0
  3
*PAPER_SPACE
  1

  0
ENDBLK
  5
87
330
64
100
AcDbEntity
 67
     1
  8
0
 62
     7
100
AcDbBlockEnd
  0
BLOCK
  5
19A
330
199
100
AcDbEntity
  8
0
100
AcDbBlockBegin
  2
_OPEN
 70
     0
 10
0.0
 20
0.0
 30
0.0
  3
_OPEN
  1

  0
LINE
  5
19B
330
199
100
AcDbEntity
  8
0
  6
ByBlock
 62
     0
100
AcDbLine
 10
-1.0
 20
0.1666666666666666
 30
0.0
 11
0.0
 21
0.0
 31
0.0
  0
LINE
  5
19C
330
199
100
AcDbEntity
  8
0
  6
ByBlock
 62
     0
100
AcDbLine
 10
0.0
 20
0.0
 30
0.0
 11
-1.0
 21
-0.1666666666666666
 31
0.0
  0
LINE
  5
19D
330
199
100
AcDbEntity
  8
0
  6
ByBlock
 62
     0
100
AcDbLine
 10
0.0
 20
0.0
 30
0.0
 11
-1.0
 21
0.0
 31
0.0
  0
ENDBLK
  5
19E
330
199
100
AcDbEntity
  8
0
100
AcDbBlockEnd
  0
BLOCK
  5
805
330
804
100
AcDbEntity
  8
0
100
AcDbBlockBegin
  2
*D1
 70
     1
 10
0.0
 20
0.0
 30
0.0
  3
*D1
  1

  0
LINE
  5
806
330
804
100
AcDbEntity
  8
0
  6
ByBlock
 62
     0
100
AcDbLine
 10
1039.294749266119
 20
4835.669811580356
 30
0.0
 11
959.294749266119
 21
4835.669811580356
 31
0.0
  0
LINE
  5
807
330
804
100
AcDbEntity
  8
0
  6
ByBlock
 62
     0
100
AcDbLine
 10
1039.294749266119
 20
4635.669811580355
 30
0.0
 11
959.2947492661188
 21
4635.669811580355
 31
0.0
  0
LINE
  5
808
330
804
100
AcDbEntity
  8
0
  6
ByBlock
 62
     0
100
AcDbLine
 10
969.294749266119
 20
4815.669811580356
 30
0.0
 11
969.294749266119
 21
4655.669811580355
 31
0.0
  0
INSERT
  5
809
330
804
100
AcDbEntity
  8
0
  6
ByBlock
 62
     0
100
AcDbBlockReference
  2
_OPEN
 10
969.294749266119
 20
4835.669811580356
 30
0.0
 41
20.0
 42
20.0
 43
20.0
 50
90.0
  0
INSERT
  5
80A
330
804
100
AcDbEntity
  8
0
  6
ByBlock
 62
     0
100
AcDbBlockReference
  2
_OPEN
 10
969.2947492661188
 20
4635.669811580355
 30
0.0
 41
20.0
 42
20.0
 43
20.0
 50
270.0
  0
MTEXT
  5
80B
330
804
100
AcDbEntity
  8
0
  6
ByBlock
 62
     0
100
AcDbMText
 10
944.294749266119
 20
4735.669811580356
 30
0.0
 40
25.0
 41
0.0
 71
     5
 72
     1
  1
\A1;200
 11
0.0000000000000001
 21
1.0
 31
0.0
 73
     1
 44
1.0
1001
ACAD
1000
MTEXTBEGIN
1070
    73
1070
     1
1070
    44
1040
1.0
1070
    74
1070
     0
1000
MTEXTEND
  0
POINT
  5
80C
330
804
100
AcDbEntity
  8
DEFPOINTS
  6
ByBlock
 62
     0
100
AcDbPoint
 10
1069.294749266119
 20
4835.669811580356
 30
0.0
  0
POINT
  5
80D
330
804
100
AcDbEntity
  8
DEFPOINTS
  6
ByBlock
 62
     0
100
AcDbPoint
 10
1069.294749266119
 20
4635.669811580355
 30
0.0
  0
POINT
  5
80E
330
804
100
AcDbEntity
  8
DEFPOINTS
  6
ByBlock
 62
     0
100
AcDbPoint
 10
969.2947492661188
 20
4635.669811580355
 30
0.0
  0
ENDBLK
  5
80F
330
804
100
AcDbEntity
  8
0
100
AcDbBlockEnd
  0
BLOCK
  5
812
330
811
100
AcDbEntity
  8
0
100
AcDbBlockBegin
  2
*D2
 70
     1
 10
0.0
 20
0.0
 30
0.0
  3
*D2
  1

  0
LINE
  5
813
330
811
100
AcDbEntity
  8
0
  6
ByBlock
 62
     0
100
AcDbLine
 10
1069.294749266119
 20
4865.669811580356
 30
0.0
 11
1069.294749266119
 21
4945.669811580355
 31
0.0
  0
LINE
  5
814
330
811
100
AcDbEntity
  8
0
  6
ByBlock
 62
     0
100
AcDbLine
 10
1219.294749266118
 20
4865.669811580356
 30
0.0
 11
1219.294749266118
 21
4945.669811580355
 31
0.0
  0
LINE
  5
815
330
811
100
AcDbEntity
  8
0
  6
ByBlock
 62
     0
100
AcDbLine
 10
1089.294749266119
 20
4935.669811580356
 30
0.0
 11
1199.294749266118
 21
4935.669811580356
 31
0.0
  0
INSERT
  5
816
330
811
100
AcDbEntity
  8
0
  6
ByBlock
 62
     0
100
AcDbBlockReference
  2
_OPEN
 10
1069.294749266119
 20
4935.669811580356
 30
0.0
 41
20.0
 42
20.0
 43
20.0
 50
180.0
  0
INSERT
  5
817
330
811
100
AcDbEntity
  8
0
  6
ByBlock
 62
     0
100
AcDbBlockReference
  2
_OPEN
 10
1219.294749266118
 20
4935.669811580356
 30
0.0
 41
20.0
 42
20.0
 43
20.0
  0
MTEXT
  5
818
330
811
100
AcDbEntity
  8
0
  6
ByBlock
 62
     0
100
AcDbMText
 10
1144.294749266119
 20
4960.669811580356
 30
0.0
 40
25.0
 41
0.0
 71
     5
 72
     1
  1
\A1;150
 73
     1
 44
1.0
1001
ACAD
1000
MTEXTBEGIN
1070
    73
1070
     1
1070
    44
1040
1.0
1070
    74
1070
     0
1000
MTEXTEND
  0
POINT
  5
819
330
811
100
AcDbEntity
  8
DEFPOINTS
  6
ByBlock
 62
     0
100
AcDbPoint
 10
1069.294749266119
 20
4835.669811580356
 30
0.0
  0
POINT
  5
81A
330
811
100
AcDbEntity
  8
DEFPOINTS
  6
ByBlock
 62
     0
100
AcDbPoint
 10
1219.294749266118
 20
4835.669811580356
 30
0.0
  0
POINT
  5
81B
330
811
100
AcDbEntity
  8
DEFPOINTS
  6
ByBlock
 62
     0
100
AcDbPoint
 10
1219.294749266118
 20
4935.669811580356
 30
0.0
  0
ENDBLK
  5
81C
330
811
100
AcDbEntity
  8
0
100
AcDbBlockEnd
  0
BLOCK
  5
81F
330
81E
100
AcDbEntity
  8
0
100
AcDbBlockBegin
  2
*D3
 70
     1
 10
0.0
 20
0.0
 30
0.0
  3
*D3
  1

  0
LINE
  5
820
330
81E
100
AcDbEntity
  8
0
  6
ByBlock
 62
     0
100
AcDbLine
 10
1069.294749266119
 20
4605.669811580355
 30
0.0
 11
1069.294749266119
 21
4525.669811580356
 31
0.0
  0
LINE
  5
821
330
81E
100
AcDbEntity
  8
0
  6
ByBlock
 62
     0
100
AcDbLine
 10
1239.294749266119
 20
4605.669811580355
 30
0.0
 11
1239.294749266119
 21
4525.669811580356
 31
0.0
  0
LINE
  5
822
330
81E
100
AcDbEntity
  8
0
  6
ByBlock
 62
     0
100
AcDbLine
 10
1089.294749266119
 20
4535.669811580356
 30
0.0
 11
1219.294749266119
 21
4535.669811580356
 31
0.0
  0
INSERT
  5
823
330
81E
100
AcDbEntity
  8
0
  6
ByBlock
 62
     0
100
AcDbBlockReference
  2
_OPEN
 10
1069.294749266119
 20
4535.669811580356
 30
0.0
 41
20.0
 42
20.0
 43
20.0
 50
180.0
  0
INSERT
  5
824
330
81E
100
AcDbEntity
  8
0
  6
ByBlock
 62
     0
100
AcDbBlockReference
  2
_OPEN
 10
1239.294749266119
 20
4535.669811580356
 30
0.0
 41
20.0
 42
20.0
 43
20.0
  0
MTEXT
  5
825
330
81E
100
AcDbEntity
  8
0
  6
ByBlock
 62
     0
100
AcDbMText
 10
1154.294749266119
 20
4560.669811580356
 30
0.0
 40
25.0
 41
0.0
 71
     5
 72
     1
  1
\A1;170
 73
     1
 44
1.0
1001
ACAD
1000
MTEXTBEGIN
1070
    73
1070
     1
1070
    44
1040
1.0
1070
    74
1070
     0
1000
MTEXTEND
  0
POINT
  5
826
330
81E
100
AcDbEntity
  8
DEFPOINTS
  6
ByBlock
 62
     0
100
AcDbPoint
 10
1069.294749266119
 20
4635.669811580355
 30
0.0
  0
POINT
  5
827
330
81E
100
AcDbEntity
  8
DEFPOINTS
  6
ByBlock
 62
     0
100
AcDbPoint
 10
1239.294749266119
 20
4635.669811580355
 30
0.0
  0
POINT
  5
828
330
81E
100
AcDbEntity
  8
DEFPOINTS
  6
ByBlock
 62
     0
100
AcDbPoint
 10
1239.294749266119
 20
4535.669811580356
 30
0.0
  0
ENDBLK
  5
829
330
81E
100
AcDbEntity
  8
0
100
AcDbBlockEnd
  0
BLOCK
  5
866
330
865
100
AcDbEntity
  8
0
100
AcDbBlockBegin
  2
*D4
 70
     1
 10
0.0
 20
0.0
 30
0.0
  3
*D4
  1

  0
LINE
  5
867
330
865
100
AcDbEntity
  8
0
  6
ByBlock
 62
     0
100
AcDbLine
 10
1039.294749266119
 20
4885.669811580356
 30
0.0
 11
959.2947492661188
 21
4885.669811580356
 31
0.0
  0
LINE
  5
868
330
865
100
AcDbEntity
  8
0
  6
ByBlock
 62
     0
100
AcDbLine
 10
1039.294749266119
 20
4685.669811580356
 30
0.0
 11
959.2947492661188
 21
4685.669811580356
 31
0.0
  0
LINE
  5
869
330
865
100
AcDbEntity
  8
0
  6
ByBlock
 62
     0
100
AcDbLine
 10
969.2947492661188
 20
4865.669811580356
 30
0.0
 11
969.2947492661188
 21
4705.669811580356
 31
0.0
  0
INSERT
  5
86A
330
865
100
AcDbEntity
  8
0
  6
ByBlock
 62
     0
100
AcDbBlockReference
  2
_OPEN
 10
969.2947492661188
 20
4885.669811580356
 30
0.0
 41
20.0
 42
20.0
 43
20.0
 50
90.0
  0
INSERT
  5
86B
330
865
100
AcDbEntity
  8
0
  6
ByBlock
 62
     0
100
AcDbBlockReference
  2
_OPEN
 10
969.2947492661188
 20
4685.669811580356
 30
0.0
 41
20.0
 42
20.0
 43
20.0
 50
270.0
  0
MTEXT
  5
86C
330
865
100
AcDbEntity
  8
0
  6
ByBlock
 62
     0
100
AcDbMText
 10
944.2947492661188
 20
4785.669811580356
 30
0.0
 40
25.0
 41
0.0
 71
     5
 72
     1
  1
\A1;200
 11
0.0000000000000001
 21
1.0
 31
0.0
 73
     1
 44
1.0
1001
ACAD
1000
MTEXTBEGIN
1070
    73
1070
     1
1070
    44
1040
1.0
1070
    74
1070
     0
1000
MTEXTEND
  0
POINT
  5
86D
330
865
100
AcDbEntity
  8
DEFPOINTS
  6
ByBlock
 62
     0
100
AcDbPoint
 10
1069.294749266119
 20
4885.669811580356
 30
0.0
  0
POINT
  5
86E
330
865
100
AcDbEntity
  8
DEFPOINTS
  6
ByBlock
 62
     0
100
AcDbPoint
 10
1069.294749266119
 20
4685.669811580356
 30
0.0
  0
POINT
  5
86F
330
865
100
AcDbEntity
  8
DEFPOINTS
  6
ByBlock
 62
     0
100
AcDbPoint
 10
969.2947492661188
 20
4685.669811580356
 30
0.0
  0
ENDBLK
  5
870
330
865
100
AcDbEntity
  8
0
100
AcDbBlockEnd
  0
BLOCK
  5
872
330
871
100
AcDbEntity
  8
0
100
AcDbBlockBegin
  2
*D5
 70
     1
 10
0.0
 20
0.0
 30
0.0
  3
*D5
  1

  0
LINE
  5
873
330
871
100
AcDbEntity
  8
0
  6
ByBlock
 62
     0
100
AcDbLine
 10
1069.294749266119
 20
4915.669811580356
 30
0.0
 11
1069.294749266119
 21
4995.669811580356
 31
0.0
  0
LINE
  5
874
330
871
100
AcDbEntity
  8
0
  6
ByBlock
 62
     0
100
AcDbLine
 10
1219.294749266118
 20
4915.669811580356
 30
0.0
 11
1219.294749266118
 21
4995.669811580356
 31
0.0
  0
LINE
  5
875
330
871
100
AcDbEntity
  8
0
  6
ByBlock
 62
     0
100
AcDbLine
 10
1089.294749266119
 20
4985.669811580356
 30
0.0
 11
1199.294749266118
 21
4985.669811580356
 31
0.0
  0
INSERT
  5
876
330
871
100
AcDbEntity
  8
0
  6
ByBlock
 62
     0
100
AcDbBlockReference
  2
_OPEN
 10
1069.294749266119
 20
4985.669811580356
 30
0.0
 41
20.0
 42
20.0
 43
20.0
 50
180.0
  0
INSERT
  5
877
330
871
100
AcDbEntity
  8
0
  6
ByBlock
 62
     0
100
AcDbBlockReference
  2
_OPEN
 10
1219.294749266118
 20
4985.669811580356
 30
0.0
 41
20.0
 42
20.0
 43
20.0
  0
MTEXT
  5
878
330
871
100
AcDbEntity
  8
0
  6
ByBlock
 62
     0
100
AcDbMText
 10
1144.294749266119
 20
5010.669811580356
 30
0.0
 40
25.0
 41
0.0
 71
     5
 72
     1
  1
\A1;150
 73
     1
 44
1.0
1001
ACAD
1000
MTEXTBEGIN
1070
    73
1070
     1
1070
    44
1040
1.0
1070
    74
1070
     0
1000
MTEXTEND
  0
POINT
  5
879
330
871
100
AcDbEntity
  8
DEFPOINTS
  6
ByBlock
 62
     0
100
AcDbPoint
 10
1069.294749266119
 20
4885.669811580356
 30
0.0
  0
POINT
  5
87A
330
871
100
AcDbEntity
  8
DEFPOINTS
  6
ByBlock
 62
     0
100
AcDbPoint
 10
1219.294749266118
 20
4885.669811580356
 30
0.0
  0
POINT
  5
87B
330
871
100
AcDbEntity
  8
DEFPOINTS
  6
ByBlock
 62
     0
100
AcDbPoint
 10
1219.294749266118
 20
4985.669811580356
 30
0.0
  0
ENDBLK
  5
87C
330
871
100
AcDbEntity
  8
0
100
AcDbBlockEnd
  0
BLOCK
  5
87E
330
87D
100
AcDbEntity
  8
0
100
AcDbBlockBegin
  2
*D6
 70
     1
 10
0.0
 20
0.0
 30
0.0
  3
*D6
  1

  0
LINE
  5
87F
330
87D
100
AcDbEntity
  8
0
  6
ByBlock
 62
     0
100
AcDbLine
 10
1069.294749266119
 20
4655.669811580355
 30
0.0
 11
1069.294749266119
 21
4575.669811580356
 31
0.0
  0
LINE
  5
880
330
87D
100
AcDbEntity
  8
0
  6
ByBlock
 62
     0
100
AcDbLine
 10
1239.294749266119
 20
4655.669811580355
 30
0.0
 11
1239.294749266119
 21
4575.669811580356
 31
0.0
  0
LINE
  5
881
330
87D
100
AcDbEntity
  8
0
  6
ByBlock
 62
     0
100
AcDbLine
 10
1089.294749266119
 20
4585.669811580356
 30
0.0
 11
1219.294749266119
 21
4585.669811580356
 31
0.0
  0
INSERT
  5
882
330
87D
100
AcDbEntity
  8
0
  6
ByBlock
 62
     0
100
AcDbBlockReference
  2
_OPEN
 10
1069.294749266119
 20
4585.669811580356
 30
0.0
 41
20.0
 42
20.0
 43
20.0
 50
180.0
  0
INSERT
  5
883
330
87D
100
AcDbEntity
  8
0
  6
ByBlock
 62
     0
100
AcDbBlockReference
  2
_OPEN
 10
1239.294749266119
 20
4585.669811580356
 30
0.0
 41
20.0
 42
20.0
 43
20.0
  0
MTEXT
  5
884
330
87D
100
AcDbEntity
  8
0
  6
ByBlock
 62
     0
100
AcDbMText
 10
1154.294749266119
 20
4610.669811580356
 30
0.0
 40
25.0
 41
0.0
 71
     5
 72
     1
  1
\A1;170
 73
     1
 44
1.0
1001
ACAD
1000
MTEXTBEGIN
1070
    73
1070
     1
1070
    44
1040
1.0
1070
    74
1070
     0
1000
MTEXTEND
  0
POINT
  5
885
330
87D
100
AcDbEntity
  8
DEFPOINTS
  6
ByBlock
 62
     0
100
AcDbPoint
 10
1069.294749266119
 20
4685.669811580356
 30
0.0
  0
POINT
  5
886
330
87D
100
AcDbEntity
  8
DEFPOINTS
  6
ByBlock
 62
     0
100
AcDbPoint
 10
1239.294749266119
 20
4685.669811580356
 30
0.0
  0
POINT
  5
887
330
87D
100
AcDbEntity
  8
DEFPOINTS
  6
ByBlock
 62
     0
100
AcDbPoint
 10
1239.294749266119
 20
4585.669811580356
 30
0.0
  0
ENDBLK
  5
888
330
87D
100
AcDbEntity
  8
0
100
AcDbBlockEnd
  0
BLOCK
  5
890
330
88F
100
AcDbEntity
  8
0
100
AcDbBlockBegin
  2
*D7
 70
     1
 10
0.0
 20
0.0
 30
0.0
  3
*D7
  1

  0
LINE
  5
891
330
88F
100
AcDbEntity
  8
0
  6
ByBlock
 62
     0
100
AcDbLine
 10
1069.294749266119
 20
4205.669811580356
 30
0.0
 11
1069.294749266119
 21
4125.669811580356
 31
0.0
  0
LINE
  5
892
330
88F
100
AcDbEntity
  8
0
  6
ByBlock
 62
     0
100
AcDbLine
 10
1239.294749266119
 20
4205.669811580356
 30
0.0
 11
1239.294749266119
 21
4125.669811580356
 31
0.0
  0
LINE
  5
893
330
88F
100
AcDbEntity
  8
0
  6
ByBlock
 62
     0
100
AcDbLine
 10
1089.294749266119
 20
4135.669811580355
 30
0.0
 11
1219.294749266119
 21
4135.669811580355
 31
0.0
  0
INSERT
  5
894
330
88F
100
AcDbEntity
  8
0
  6
ByBlock
 62
     0
100
AcDbBlockReference
  2
_OPEN
 10
1069.294749266119
 20
4135.669811580355
 30
0.0
 41
20.0
 42
20.0
 43
20.0
 50
180.0
  0
INSERT
  5
895
330
88F
100
AcDbEntity
  8
0
  6
ByBlock
 62
     0
100
AcDbBlockReference
  2
_OPEN
 10
1239.294749266119
 20
4135.669811580355
 30
0.0
 41
20.0
 42
20.0
 43
20.0
  0
MTEXT
  5
896
330
88F
100
AcDbEntity
  8
0
  6
ByBlock
 62
     0
100
AcDbMText
 10
1154.294749266119
 20
4160.669811580356
 30
0.0
 40
25.0
 41
0.0
 71
     5
 72
     1
  1
\A1;170
 73
     1
 44
1.0
1001
ACAD
1000
MTEXTBEGIN
1070
    73
1070
     1
1070
    44
1040
1.0
1070
    74
1070
     0
1000
MTEXTEND
  0
POINT
  5
897
330
88F
100
AcDbEntity
  8
DEFPOINTS
  6
ByBlock
 62
     0
100
AcDbPoint
 10
1069.294749266119
 20
4235.669811580356
 30
0.0
  0
POINT
  5
898
330
88F
100
AcDbEntity
  8
DEFPOINTS
  6
ByBlock
 62
     0
100
AcDbPoint
 10
1239.294749266119
 20
4235.669811580356
 30
0.0
  0
POINT
  5
899
330
88F
100
AcDbEntity
  8
DEFPOINTS
  6
ByBlock
 62
     0
100
AcDbPoint
 10
1239.294749266119
 20
4135.669811580355
 30
0.0
  0
ENDBLK
  5
89A
330
88F
100
AcDbEntity
  8
0
100
AcDbBlockEnd
  0
BLOCK
  5
89C
330
89B
100
AcDbEntity
  8
0
100
AcDbBlockBegin
  2
*D8
 70
     1
 10
0.0
 20
0.0
 30
0.0
  3
*D8
  1

  0
LINE
  5
89D
330
89B
100
AcDbEntity
  8
0
  6
ByBlock
 62
     0
100
AcDbLine
 10
1039.294749266119
 20
4435.669811580356
 30
0.0
 11
959.2947492661188
 21
4435.669811580356
 31
0.0
  0
LINE
  5
89E
330
89B
100
AcDbEntity
  8
0
  6
ByBlock
 62
     0
100
AcDbLine
 10
1039.294749266119
 20
4235.669811580356
 30
0.0
 11
959.2947492661188
 21
4235.669811580356
 31
0.0
  0
LINE
  5
89F
330
89B
100
AcDbEntity
  8
0
  6
ByBlock
 62
     0
100
AcDbLine
 10
969.2947492661188
 20
4415.669811580356
 30
0.0
 11
969.2947492661188
 21
4255.669811580355
 31
0.0
  0
INSERT
  5
8A0
330
89B
100
AcDbEntity
  8
0
  6
ByBlock
 62
     0
100
AcDbBlockReference
  2
_OPEN
 10
969.2947492661188
 20
4435.669811580356
 30
0.0
 41
20.0
 42
20.0
 43
20.0
 50
90.0
  0
INSERT
  5
8A1
330
89B
100
AcDbEntity
  8
0
  6
ByBlock
 62
     0
100
AcDbBlockReference
  2
_OPEN
 10
969.2947492661188
 20
4235.669811580356
 30
0.0
 41
20.0
 42
20.0
 43
20.0
 50
270.0
  0
MTEXT
  5
8A2
330
89B
100
AcDbEntity
  8
0
  6
ByBlock
 62
     0
100
AcDbMText
 10
944.2947492661188
 20
4335.669811580356
 30
0.0
 40
25.0
 41
0.0
 71
     5
 72
     1
  1
\A1;200
 11
0.0000000000000001
 21
1.0
 31
0.0
 73
     1
 44
1.0
1001
ACAD
1000
MTEXTBEGIN
1070
    73
1070
     1
1070
    44
1040
1.0
1070
    74
1070
     0
1000
MTEXTEND
  0
POINT
  5
8A3
330
89B
100
AcDbEntity
  8
DEFPOINTS
  6
ByBlock
 62
     0
100
AcDbPoint
 10
1069.294749266119
 20
4435.669811580356
 30
0.0
  0
POINT
  5
8A4
330
89B
100
AcDbEntity
  8
DEFPOINTS
  6
ByBlock
 62
     0
100
AcDbPoint
 10
1069.294749266119
 20
4235.669811580356
 30
0.0
  0
POINT
  5
8A5
330
89B
100
AcDbEntity
  8
DEFPOINTS
  6
ByBlock
 62
     0
100
AcDbPoint
 10
969.2947492661188
 20
4235.669811580356
 30
0.0
  0
ENDBLK
  5
8A6
330
89B
100
AcDbEntity
  8
0
100
AcDbBlockEnd
  0
BLOCK
  5
8A8
330
8A7
100
AcDbEntity
  8
0
100
AcDbBlockBegin
  2
*D9
 70
     1
 10
0.0
 20
0.0
 30
0.0
  3
*D9
  1

  0
LINE
  5
8A9
330
8A7
100
AcDbEntity
  8
0
  6
ByBlock
 62
     0
100
AcDbLine
 10
1069.294749266119
 20
4465.669811580355
 30
0.0
 11
1069.294749266119
 21
4545.669811580355
 31
0.0
  0
LINE
  5
8AA
330
8A7
100
AcDbEntity
  8
0
  6
ByBlock
 62
     0
100
AcDbLine
 10
1219.294749266118
 20
4465.669811580355
 30
0.0
 11
1219.294749266118
 21
4545.669811580355
 31
0.0
  0
LINE
  5
8AB
330
8A7
100
AcDbEntity
  8
0
  6
ByBlock
 62
     0
100
AcDbLine
 10
1089.294749266119
 20
4535.669811580356
 30
0.0
 11
1199.294749266118
 21
4535.669811580356
 31
0.0
  0
INSERT
  5
8AC
330
8A7
100
AcDbEntity
  8
0
  6
ByBlock
 62
     0
100
AcDbBlockReference
  2
_OPEN
 10
1069.294749266119
 20
4535.669811580356
 30
0.0
 41
20.0
 42
20.0
 43
20.0
 50
180.0
  0
INSERT
  5
8AD
330
8A7
100
AcDbEntity
  8
0
  6
ByBlock
 62
     0
100
AcDbBlockReference
  2
_OPEN
 10
1219.294749266118
 20
4535.669811580356
 30
0.0
 41
20.0
 42
20.0
 43
20.0
  0
MTEXT
  5
8AE
330
8A7
100
AcDbEntity
  8
0
  6
ByBlock
 62
     0
100
AcDbMText
 10
1144.294749266119
 20
4560.669811580356
 30
0.0
 40
25.0
 41
0.0
 71
     5
 72
     1
  1
\A1;150
 73
     1
 44
1.0
1001
ACAD
1000
MTEXTBEGIN
1070
    73
1070
     1
1070
    44
1040
1.0
1070
    74
1070
     0
1000
MTEXTEND
  0
POINT
  5
8AF
330
8A7
100
AcDbEntity
  8
DEFPOINTS
  6
ByBlock
 62
     0
100
AcDbPoint
 10
1069.294749266119
 20
4435.669811580356
 30
0.0
  0
POINT
  5
8B0
330
8A7
100
AcDbEntity
  8
DEFPOINTS
  6
ByBlock
 62
     0
100
AcDbPoint
 10
1219.294749266118
 20
4435.669811580356
 30
0.0
  0
POINT
  5
8B1
330
8A7
100
AcDbEntity
  8
DEFPOINTS
  6
ByBlock
 62
     0
100
AcDbPoint
 10
1219.294749266118
 20
4535.669811580356
 30
0.0
  0
ENDBLK
  5
8B2
330
8A7
100
AcDbEntity
  8
0
100
AcDbBlockEnd
  0
BLOCK
  5
8B7
330
8B6
100
AcDbEntity
  8
0
100
AcDbBlockBegin
  2
*D10
 70
     1
 10
0.0
 20
0.0
 30
0.0
  3
*D10
  1

  0
LINE
  5
8B8
330
8B6
100
AcDbEntity
  8
0
  6
ByBlock
 62
     0
100
AcDbLine
 10
1039.294749266119
 20
3235.669811580355
 30
0.0
 11
959.2947492661187
 21
3235.669811580355
 31
0.0
  0
LINE
  5
8B9
330
8B6
100
AcDbEntity
  8
0
  6
ByBlock
 62
     0
100
AcDbLine
 10
1039.294749266119
 20
2985.669811580356
 30
0.0
 11
959.2947492661187
 21
2985.669811580356
 31
0.0
  0
LINE
  5
8BA
330
8B6
100
AcDbEntity
  8
0
  6
ByBlock
 62
     0
100
AcDbLine
 10
969.2947492661188
 20
3215.669811580356
 30
0.0
 11
969.2947492661188
 21
3005.669811580356
 31
0.0
  0
INSERT
  5
8BB
330
8B6
100
AcDbEntity
  8
0
  6
ByBlock
 62
     0
100
AcDbBlockReference
  2
_OPEN
 10
969.2947492661188
 20
3235.669811580355
 30
0.0
 41
20.0
 42
20.0
 43
20.0
 50
90.0
  0
INSERT
  5
8BC
330
8B6
100
AcDbEntity
  8
0
  6
ByBlock
 62
     0
100
AcDbBlockReference
  2
_OPEN
 10
969.2947492661188
 20
2985.669811580356
 30
0.0
 41
20.0
 42
20.0
 43
20.0
 50
270.0
  0
MTEXT
  5
8BD
330
8B6
100
AcDbEntity
  8
0
  6
ByBlock
 62
     0
100
AcDbMText
 10
944.2947492661188
 20
3110.669811580356
 30
0.0
 40
25.0
 41
0.0
 71
     5
 72
     1
  1
\A1;250
 11
0.0000000000000001
 21
1.0
 31
0.0
 73
     1
 44
1.0
1001
ACAD
1000
MTEXTBEGIN
1070
    73
1070
     1
1070
    44
1040
1.0
1070
    74
1070
     0
1000
MTEXTEND
  0
POINT
  5
8BE
330
8B6
100
AcDbEntity
  8
DEFPOINTS
  6
ByBlock
 62
     0
100
AcDbPoint
 10
1069.294749266119
 20
3235.669811580355
 30
0.0
  0
POINT
  5
8BF
330
8B6
100
AcDbEntity
  8
DEFPOINTS
  6
ByBlock
 62
     0
100
AcDbPoint
 10
1069.294749266119
 20
2985.669811580356
 30
0.0
  0
POINT
  5
8C0
330
8B6
100
AcDbEntity
  8
DEFPOINTS
  6
ByBlock
 62
     0
100
AcDbPoint
 10
969.2947492661188
 20
2985.669811580356
 30
0.0
  0
ENDBLK
  5
8C1
330
8B6
100
AcDbEntity
  8
0
100
AcDbBlockEnd
  0
BLOCK
  5
8C4
330
8C3
100
AcDbEntity
  8
0
100
AcDbBlockBegin
  2
*D11
 70
     1
 10
0.0
 20
0.0
 30
0.0
  3
*D11
  1

  0
LINE
  5
8C5
330
8C3
100
AcDbEntity
  8
0
  6
ByBlock
 62
     0
100
AcDbLine
 10
1069.294749266119
 20
2955.669811580356
 30
0.0
 11
1069.294749266119
 21
2875.669811580356
 31
0.0
  0
LINE
  5
8C6
330
8C3
100
AcDbEntity
  8
0
  6
ByBlock
 62
     0
100
AcDbLine
 10
1274.294749266118
 20
2955.669811580356
 30
0.0
 11
1274.294749266118
 21
2875.669811580356
 31
0.0
  0
LINE
  5
8C7
330
8C3
100
AcDbEntity
  8
0
  6
ByBlock
 62
     0
100
AcDbLine
 10
1089.294749266119
 20
2885.669811580356
 30
0.0
 11
1254.294749266119
 21
2885.669811580356
 31
0.0
  0
INSERT
  5
8C8
330
8C3
100
AcDbEntity
  8
0
  6
ByBlock
 62
     0
100
AcDbBlockReference
  2
_OPEN
 10
1069.294749266119
 20
2885.669811580356
 30
0.0
 41
20.0
 42
20.0
 43
20.0
 50
180.0
  0
INSERT
  5
8C9
330
8C3
100
AcDbEntity
  8
0
  6
ByBlock
 62
     0
100
AcDbBlockReference
  2
_OPEN
 10
1274.294749266118
 20
2885.669811580356
 30
0.0
 41
20.0
 42
20.0
 43
20.0
  0
MTEXT
  5
8CA
330
8C3
100
AcDbEntity
  8
0
  6
ByBlock
 62
     0
100
AcDbMText
 10
1171.794749266118
 20
2910.669811580356
 30
0.0
 40
25.0
 41
0.0
 71
     5
 72
     1
  1
\A1;205
 73
     1
 44
1.0
1001
ACAD
1000
MTEXTBEGIN
1070
    73
1070
     1
1070
    44
1040
1.0
1070
    74
1070
     0
1000
MTEXTEND
  0
POINT
  5
8CB
330
8C3
100
AcDbEntity
  8
DEFPOINTS
  6
ByBlock
 62
     0
100
AcDbPoint
 10
1069.294749266119
 20
2985.669811580356
 30
0.0
  0
POINT
  5
8CC
330
8C3
100
AcDbEntity
  8
DEFPOINTS
  6
ByBlock
 62
     0
100
AcDbPoint
 10
1274.294749266118
 20
2985.669811580356
 30
0.0
  0
POINT
  5
8CD
330
8C3
100
AcDbEntity
  8
DEFPOINTS
  6
ByBlock
 62
     0
100
AcDbPoint
 10
1274.294749266118
 20
2885.669811580356
 30
0.0
  0
ENDBLK
  5
8CE
330
8C3
100
AcDbEntity
  8
0
100
AcDbBlockEnd
  0
BLOCK
  5
8D1
330
8D0
100
AcDbEntity
  8
0
100
AcDbBlockBegin
  2
*D12
 70
     1
 10
0.0
 20
0.0
 30
0.0
  3
*D12
  1

  0
LINE
  5
8D2
330
8D0
100
AcDbEntity
  8
0
  6
ByBlock
 62
     0
100
AcDbLine
 10
1069.294749266119
 20
3265.669811580356
 30
0.0
 11
1069.294749266119
 21
3345.669811580356
 31
0.0
  0
LINE
  5
8D3
330
8D0
100
AcDbEntity
  8
0
  6
ByBlock
 62
     0
100
AcDbLine
 10
1249.294749266119
 20
3265.669811580355
 30
0.0
 11
1249.294749266119
 21
3345.669811580356
 31
0.0
  0
LINE
  5
8D4
330
8D0
100
AcDbEntity
  8
0
  6
ByBlock
 62
     0
100
AcDbLine
 10
1089.294749266119
 20
3335.669811580356
 30
0.0
 11
1229.294749266119
 21
3335.669811580356
 31
0.0
  0
INSERT
  5
8D5
330
8D0
100
AcDbEntity
  8
0
  6
ByBlock
 62
     0
100
AcDbBlockReference
  2
_OPEN
 10
1069.294749266119
 20
3335.669811580356
 30
0.0
 41
20.0
 42
20.0
 43
20.0
 50
180.0
  0
INSERT
  5
8D6
330
8D0
100
AcDbEntity
  8
0
  6
ByBlock
 62
     0
100
AcDbBlockReference
  2
_OPEN
 10
1249.294749266119
 20
3335.669811580356
 30
0.0
 41
20.0
 42
20.0
 43
20.0
  0
MTEXT
  5
8D7
330
8D0
100
AcDbEntity
  8
0
  6
ByBlock
 62
     0
100
AcDbMText
 10
1159.294749266118
 20
3360.669811580355
 30
0.0
 40
25.0
 41
0.0
 71
     5
 72
     1
  1
\A1;180
 73
     1
 44
1.0
1001
ACAD
1000
MTEXTBEGIN
1070
    73
1070
     1
1070
    44
1040
1.0
1070
    74
1070
     0
1000
MTEXTEND
  0
POINT
  5
8D8
330
8D0
100
AcDbEntity
  8
DEFPOINTS
  6
ByBlock
 62
     0
100
AcDbPoint
 10
1069.294749266119
 20
3235.669811580355
 30
0.0
  0
POINT
  5
8D9
330
8D0
100
AcDbEntity
  8
DEFPOINTS
  6
ByBlock
 62
     0
100
AcDbPoint
 10
1249.294749266119
 20
3235.669811580355
 30
0.0
  0
POINT
  5
8DA
330
8D0
100
AcDbEntity
  8
DEFPOINTS
  6
ByBlock
 62
     0
100
AcDbPoint
 10
1249.294749266119
 20
3335.669811580356
 30
0.0
  0
ENDBLK
  5
8DB
330
8D0
100
AcDbEntity
  8
0
100
AcDbBlockEnd
  0
BLOCK
  5
909
330
908
100
AcDbEntity
  8
0
100
AcDbBlockBegin
  2
*D13
 70
     1
 10
0.0
 20
0.0
 30
0.0
  3
*D13
  1

  0
LINE
  5
90A
330
908
100
AcDbEntity
  8
0
  6
ByBlock
 62
     0
100
AcDbLine
 10
1873.923165362892
 20
4705.669811580356
 30
0.0
 11
1873.923165362892
 21
4625.669811580356
 31
0.0
  0
LINE
  5
90B
330
908
100
AcDbEntity
  8
0
  6
ByBlock
 62
     0
100
AcDbLine
 10
2473.923165362892
 20
4705.669811580356
 30
0.0
 11
2473.923165362892
 21
4625.669811580356
 31
0.0
  0
LINE
  5
90C
330
908
100
AcDbEntity
  8
0
  6
ByBlock
 62
     0
100
AcDbLine
 10
1893.923165362892
 20
4635.669811580355
 30
0.0
 11
2453.923165362892
 21
4635.669811580355
 31
0.0
  0
INSERT
  5
90D
330
908
100
AcDbEntity
  8
0
  6
ByBlock
 62
     0
100
AcDbBlockReference
  2
_OPEN
 10
1873.923165362892
 20
4635.669811580355
 30
0.0
 41
20.0
 42
20.0
 43
20.0
 50
180.0
  0
INSERT
  5
90E
330
908
100
AcDbEntity
  8
0
  6
ByBlock
 62
     0
100
AcDbBlockReference
  2
_OPEN
 10
2473.923165362892
 20
4635.669811580355
 30
0.0
 41
20.0
 42
20.0
 43
20.0
  0
MTEXT
  5
90F
330
908
100
AcDbEntity
  8
0
  6
ByBlock
 62
     0
100
AcDbMText
 10
2173.923165362892
 20
4660.669811580356
 30
0.0
 40
25.0
 41
0.0
 71
     5
 72
     1
  1
\A1;600
 73
     1
 44
1.0
1001
ACAD
1000
MTEXTBEGIN
1070
    73
1070
     1
1070
    44
1040
1.0
1070
    74
1070
     0
1000
MTEXTEND
  0
POINT
  5
910
330
908
100
AcDbEntity
  8
DEFPOINTS
  6
ByBlock
 62
     0
100
AcDbPoint
 10
1873.923165362892
 20
4735.669811580356
 30
0.0
  0
POINT
  5
911
330
908
100
AcDbEntity
  8
DEFPOINTS
  6
ByBlock
 62
     0
100
AcDbPoint
 10
2473.923165362892
 20
4735.669811580356
 30
0.0
  0
POINT
  5
912
330
908
100
AcDbEntity
  8
DEFPOINTS
  6
ByBlock
 62
     0
100
AcDbPoint
 10
2473.923165362892
 20
4635.669811580355
 30
0.0
  0
ENDBLK
  5
913
330
908
100
AcDbEntity
  8
0
100
AcDbBlockEnd
  0
BLOCK
  5
916
330
915
100
AcDbEntity
  8
0
100
AcDbBlockBegin
  2
*D14
 70
     1
 10
0.0
 20
0.0
 30
0.0
  3
*D14
  1

  0
LINE
  5
917
330
915
100
AcDbEntity
  8
0
  6
ByBlock
 62
     0
100
AcDbLine
 10
1873.923165362892
 20
4205.669811580356
 30
0.0
 11
1873.923165362892
 21
4125.669811580356
 31
0.0
  0
LINE
  5
918
330
915
100
AcDbEntity
  8
0
  6
ByBlock
 62
     0
100
AcDbLine
 10
2873.923165362893
 20
4205.669811580354
 30
0.0
 11
2873.923165362893
 21
4125.669811580356
 31
0.0
  0
LINE
  5
919
330
915
100
AcDbEntity
  8
0
  6
ByBlock
 62
     0
100
AcDbLine
 10
1893.923165362892
 20
4135.669811580355
 30
0.0
 11
2853.923165362892
 21
4135.669811580355
 31
0.0
  0
INSERT
  5
91A
330
915
100
AcDbEntity
  8
0
  6
ByBlock
 62
     0
100
AcDbBlockReference
  2
_OPEN
 10
1873.923165362892
 20
4135.669811580355
 30
0.0
 41
20.0
 42
20.0
 43
20.0
 50
180.0
  0
INSERT
  5
91B
330
915
100
AcDbEntity
  8
0
  6
ByBlock
 62
     0
100
AcDbBlockReference
  2
_OPEN
 10
2873.923165362893
 20
4135.669811580355
 30
0.0
 41
20.0
 42
20.0
 43
20.0
  0
MTEXT
  5
91C
330
915
100
AcDbEntity
  8
0
  6
ByBlock
 62
     0
100
AcDbMText
 10
2373.923165362892
 20
4160.669811580356
 30
0.0
 40
25.0
 41
0.0
 71
     5
 72
     1
  1
\A1;1000
 73
     1
 44
1.0
1001
ACAD
1000
MTEXTBEGIN
1070
    73
1070
     1
1070
    44
1040
1.0
1070
    74
1070
     0
1000
MTEXTEND
  0
POINT
  5
91D
330
915
100
AcDbEntity
  8
DEFPOINTS
  6
ByBlock
 62
     0
100
AcDbPoint
 10
1873.923165362892
 20
4235.669811580356
 30
0.0
  0
POINT
  5
91E
330
915
100
AcDbEntity
  8
DEFPOINTS
  6
ByBlock
 62
     0
100
AcDbPoint
 10
2873.923165362893
 20
4235.669811580353
 30
0.0
  0
POINT
  5
91F
330
915
100
AcDbEntity
  8
DEFPOINTS
  6
ByBlock
 62
     0
100
AcDbPoint
 10
2873.923165362893
 20
4135.669811580355
 30
0.0
  0
ENDBLK
  5
920
330
915
100
AcDbEntity
  8
0
100
AcDbBlockEnd
  0
BLOCK
  5
923
330
922
100
AcDbEntity
  8
0
100
AcDbBlockBegin
  2
*D15
 70
     1
 10
0.0
 20
0.0
 30
0.0
  3
*D15
  1

  0
LINE
  5
924
330
922
100
AcDbEntity
  8
0
  6
ByBlock
 62
     0
100
AcDbLine
 10
1873.923165362892
 20
3705.669811580356
 30
0.0
 11
1873.923165362892
 21
3625.669811580356
 31
0.0
  0
LINE
  5
925
330
922
100
AcDbEntity
  8
0
  6
ByBlock
 62
     0
100
AcDbLine
 10
3873.923165362892
 20
3705.669811580356
 30
0.0
 11
3873.923165362892
 21
3625.669811580356
 31
0.0
  0
LINE
  5
926
330
922
100
AcDbEntity
  8
0
  6
ByBlock
 62
     0
100
AcDbLine
 10
1893.923165362892
 20
3635.669811580356
 30
0.0
 11
3853.923165362893
 21
3635.669811580356
 31
0.0
  0
INSERT
  5
927
330
922
100
AcDbEntity
  8
0
  6
ByBlock
 62
     0
100
AcDbBlockReference
  2
_OPEN
 10
1873.923165362892
 20
3635.669811580356
 30
0.0
 41
20.0
 42
20.0
 43
20.0
 50
180.0
  0
INSERT
  5
928
330
922
100
AcDbEntity
  8
0
  6
ByBlock
 62
     0
100
AcDbBlockReference
  2
_OPEN
 10
3873.923165362892
 20
3635.669811580356
 30
0.0
 41
20.0
 42
20.0
 43
20.0
  0
MTEXT
  5
929
330
922
100
AcDbEntity
  8
0
  6
ByBlock
 62
     0
100
AcDbMText
 10
2873.923165362893
 20
3660.669811580356
 30
0.0
 40
25.0
 41
0.0
 71
     5
 72
     1
  1
\A1;2000
 73
     1
 44
1.0
1001
ACAD
1000
MTEXTBEGIN
1070
    73
1070
     1
1070
    44
1040
1.0
1070
    74
1070
     0
1000
MTEXTEND
  0
POINT
  5
92A
330
922
100
AcDbEntity
  8
DEFPOINTS
  6
ByBlock
 62
     0
100
AcDbPoint
 10
1873.923165362892
 20
3735.669811580356
 30
0.0
  0
POINT
  5
92B
330
922
100
AcDbEntity
  8
DEFPOINTS
  6
ByBlock
 62
     0
100
AcDbPoint
 10
3873.923165362892
 20
3735.669811580356
 30
0.0
  0
POINT
  5
92C
330
922
100
AcDbEntity
  8
DEFPOINTS
  6
ByBlock
 62
     0
100
AcDbPoint
 10
3873.923165362892
 20
3635.669811580356
 30
0.0
  0
ENDBLK
  5
92D
330
922
100
AcDbEntity
  8
0
100
AcDbBlockEnd
  0
BLOCK
  5
966
330
965
100
AcDbEntity
  8
0
100
AcDbBlockBegin
  2
*D16
 70
     1
 10
0.0
 20
0.0
 30
0.0
  3
*D16
  1

  0
LINE
  5
967
330
965
100
AcDbEntity
  8
0
  6
ByBlock
 62
     0
100
AcDbLine
 10
1039.294749266119
 20
3235.669811580355
 30
0.0
 11
959.2947492661187
 21
3235.669811580355
 31
0.0
  0
LINE
  5
968
330
965
100
AcDbEntity
  8
0
  6
ByBlock
 62
     0
100
AcDbLine
 10
1039.294749266119
 20
2985.669811580356
 30
0.0
 11
959.2947492661187
 21
2985.669811580356
 31
0.0
  0
LINE
  5
969
330
965
100
AcDbEntity
  8
0
  6
ByBlock
 62
     0
100
AcDbLine
 10
969.2947492661188
 20
3215.669811580356
 30
0.0
 11
969.2947492661188
 21
3005.669811580356
 31
0.0
  0
INSERT
  5
96A
330
965
100
AcDbEntity
  8
0
  6
ByBlock
 62
     0
100
AcDbBlockReference
  2
_OPEN
 10
969.2947492661188
 20
3235.669811580355
 30
0.0
 41
20.0
 42
20.0
 43
20.0
 50
90.0
  0
INSERT
  5
96B
330
965
100
AcDbEntity
  8
0
  6
ByBlock
 62
     0
100
AcDbBlockReference
  2
_OPEN
 10
969.2947492661188
 20
2985.669811580356
 30
0.0
 41
20.0
 42
20.0
 43
20.0
 50
270.0
  0
MTEXT
  5
96C
330
965
100
AcDbEntity
  8
0
  6
ByBlock
 62
     0
100
AcDbMText
 10
944.2947492661188
 20
3110.669811580356
 30
0.0
 40
25.0
 41
0.0
 71
     5
 72
     1
  1
\A1;250
 11
0.0000000000000001
 21
1.0
 31
0.0
 73
     1
 44
1.0
1001
ACAD
1000
MTEXTBEGIN
1070
    73
1070
     1
1070
    44
1040
1.0
1070
    74
1070
     0
1000
MTEXTEND
  0
POINT
  5
96D
330
965
100
AcDbEntity
  8
DEFPOINTS
  6
ByBlock
 62
     0
100
AcDbPoint
 10
1069.294749266119
 20
3235.669811580355
 30
0.0
  0
POINT
  5
96E
330
965
100
AcDbEntity
  8
DEFPOINTS
  6
ByBlock
 62
     0
100
AcDbPoint
 10
1069.294749266119
 20
2985.669811580356
 30
0.0
  0
POINT
  5
96F
330
965
100
AcDbEntity
  8
DEFPOINTS
  6
ByBlock
 62
     0
100
AcDbPoint
 10
969.2947492661188
 20
2985.669811580356
 30
0.0
  0
ENDBLK
  5
970
330
965
100
AcDbEntity
  8
0
100
AcDbBlockEnd
  0
BLOCK
  5
972
330
971
100
AcDbEntity
  8
0
100
AcDbBlockBegin
  2
*D17
 70
     1
 10
0.0
 20
0.0
 30
0.0
  3
*D17
  1

  0
LINE
  5
973
330
971
100
AcDbEntity
  8
0
  6
ByBlock
 62
     0
100
AcDbLine
 10
1069.294749266119
 20
2955.669811580356
 30
0.0
 11
1069.294749266119
 21
2875.669811580356
 31
0.0
  0
LINE
  5
974
330
971
100
AcDbEntity
  8
0
  6
ByBlock
 62
     0
100
AcDbLine
 10
1274.294749266118
 20
2955.669811580356
 30
0.0
 11
1274.294749266118
 21
2875.669811580356
 31
0.0
  0
LINE
  5
975
330
971
100
AcDbEntity
  8
0
  6
ByBlock
 62
     0
100
AcDbLine
 10
1089.294749266119
 20
2885.669811580356
 30
0.0
 11
1254.294749266119
 21
2885.669811580356
 31
0.0
  0
INSERT
  5
976
330
971
100
AcDbEntity
  8
0
  6
ByBlock
 62
     0
100
AcDbBlockReference
  2
_OPEN
 10
1069.294749266119
 20
2885.669811580356
 30
0.0
 41
20.0
 42
20.0
 43
20.0
 50
180.0
  0
INSERT
  5
977
330
971
100
AcDbEntity
  8
0
  6
ByBlock
 62
     0
100
AcDbBlockReference
  2
_OPEN
 10
1274.294749266118
 20
2885.669811580356
 30
0.0
 41
20.0
 42
20.0
 43
20.0
  0
MTEXT
  5
978
330
971
100
AcDbEntity
  8
0
  6
ByBlock
 62
     0
100
AcDbMText
 10
1171.794749266118
 20
2910.669811580356
 30
0.0
 40
25.0
 41
0.0
 71
     5
 72
     1
  1
\A1;205
 73
     1
 44
1.0
1001
ACAD
1000
MTEXTBEGIN
1070
    73
1070
     1
1070
    44
1040
1.0
1070
    74
1070
     0
1000
MTEXTEND
  0
POINT
  5
979
330
971
100
AcDbEntity
  8
DEFPOINTS
  6
ByBlock
 62
     0
100
AcDbPoint
 10
1069.294749266119
 20
2985.669811580356
 30
0.0
  0
POINT
  5
97A
330
971
100
AcDbEntity
  8
DEFPOINTS
  6
ByBlock
 62
     0
100
AcDbPoint
 10
1274.294749266118
 20
2985.669811580356
 30
0.0
  0
POINT
  5
97B
330
971
100
AcDbEntity
  8
DEFPOINTS
  6
ByBlock
 62
     0
100
AcDbPoint
 10
1274.294749266118
 20
2885.669811580356
 30
0.0
  0
ENDBLK
  5
97C
330
971
100
AcDbEntity
  8
0
100
AcDbBlockEnd
  0
BLOCK
  5
97E
330
97D
100
AcDbEntity
  8
0
100
AcDbBlockBegin
  2
*D18
 70
     1
 10
0.0
 20
0.0
 30
0.0
  3
*D18
  1

  0
LINE
  5
97F
330
97D
100
AcDbEntity
  8
0
  6
ByBlock
 62
     0
100
AcDbLine
 10
1069.294749266119
 20
3265.669811580356
 30
0.0
 11
1069.294749266119
 21
3345.669811580356
 31
0.0
  0
LINE
  5
980
330
97D
100
AcDbEntity
  8
0
  6
ByBlock
 62
     0
100
AcDbLine
 10
1249.294749266119
 20
3265.669811580355
 30
0.0
 11
1249.294749266119
 21
3345.669811580356
 31
0.0
  0
LINE
  5
981
330
97D
100
AcDbEntity
  8
0
  6
ByBlock
 62
     0
100
AcDbLine
 10
1089.294749266119
 20
3335.669811580356
 30
0.0
 11
1229.294749266119
 21
3335.669811580356
 31
0.0
  0
INSERT
  5
982
330
97D
100
AcDbEntity
  8
0
  6
ByBlock
 62
     0
100
AcDbBlockReference
  2
_OPEN
 10
1069.294749266119
 20
3335.669811580356
 30
0.0
 41
20.0
 42
20.0
 43
20.0
 50
180.0
  0
INSERT
  5
983
330
97D
100
AcDbEntity
  8
0
  6
ByBlock
 62
     0
100
AcDbBlockReference
  2
_OPEN
 10
1249.294749266119
 20
3335.669811580356
 30
0.0
 41
20.0
 42
20.0
 43
20.0
  0
MTEXT
  5
984
330
97D
100
AcDbEntity
  8
0
  6
ByBlock
 62
     0
100
AcDbMText
 10
1159.294749266118
 20
3360.669811580355
 30
0.0
 40
25.0
 41
0.0
 71
     5
 72
     1
  1
\A1;180
 73
     1
 44
1.0
1001
ACAD
1000
MTEXTBEGIN
1070
    73
1070
     1
1070
    44
1040
1.0
1070
    74
1070
     0
1000
MTEXTEND
  0
POINT
  5
985
330
97D
100
AcDbEntity
  8
DEFPOINTS
  6
ByBlock
 62
     0
100
AcDbPoint
 10
1069.294749266119
 20
3235.669811580355
 30
0.0
  0
POINT
  5
986
330
97D
100
AcDbEntity
  8
DEFPOINTS
  6
ByBlock
 62
     0
100
AcDbPoint
 10
1249.294749266119
 20
3235.669811580355
 30
0.0
  0
POINT
  5
987
330
97D
100
AcDbEntity
  8
DEFPOINTS
  6
ByBlock
 62
     0
100
AcDbPoint
 10
1249.294749266119
 20
3335.669811580356
 30
0.0
  0
ENDBLK
  5
988
330
97D
100
AcDbEntity
  8
0
100
AcDbBlockEnd
  0
BLOCK
  5
9C0
330
9BF
100
AcDbEntity
  8
0
100
AcDbBlockBegin
  2
*D19
 70
     1
 10
0.0
 20
0.0
 30
0.0
  3
*D19
  1

  0
LINE
  5
9C1
330
9BF
100
AcDbEntity
  8
0
  6
ByBlock
 62
     0
100
AcDbLine
 10
1069.294749266119
 20
2355.669811580356
 30
0.0
 11
1069.294749266119
 21
2275.669811580355
 31
0.0
  0
LINE
  5
9C2
330
9BF
100
AcDbEntity
  8
0
  6
ByBlock
 62
     0
100
AcDbLine
 10
1274.294749266118
 20
2355.669811580356
 30
0.0
 11
1274.294749266118
 21
2275.669811580355
 31
0.0
  0
LINE
  5
9C3
330
9BF
100
AcDbEntity
  8
0
  6
ByBlock
 62
     0
100
AcDbLine
 10
1089.294749266119
 20
2285.669811580356
 30
0.0
 11
1254.294749266119
 21
2285.669811580356
 31
0.0
  0
INSERT
  5
9C4
330
9BF
100
AcDbEntity
  8
0
  6
ByBlock
 62
     0
100
AcDbBlockReference
  2
_OPEN
 10
1069.294749266119
 20
2285.669811580356
 30
0.0
 41
20.0
 42
20.0
 43
20.0
 50
180.0
  0
INSERT
  5
9C5
330
9BF
100
AcDbEntity
  8
0
  6
ByBlock
 62
     0
100
AcDbBlockReference
  2
_OPEN
 10
1274.294749266118
 20
2285.669811580356
 30
0.0
 41
20.0
 42
20.0
 43
20.0
  0
MTEXT
  5
9C6
330
9BF
100
AcDbEntity
  8
0
  6
ByBlock
 62
     0
100
AcDbMText
 10
1171.794749266118
 20
2310.669811580356
 30
0.0
 40
25.0
 41
0.0
 71
     5
 72
     1
  1
\A1;205
 73
     1
 44
1.0
1001
ACAD
1000
MTEXTBEGIN
1070
    73
1070
     1
1070
    44
1040
1.0
1070
    74
1070
     0
1000
MTEXTEND
  0
POINT
  5
9C7
330
9BF
100
AcDbEntity
  8
DEFPOINTS
  6
ByBlock
 62
     0
100
AcDbPoint
 10
1069.294749266119
 20
2385.669811580356
 30
0.0
  0
POINT
  5
9C8
330
9BF
100
AcDbEntity
  8
DEFPOINTS
  6
ByBlock
 62
     0
100
AcDbPoint
 10
1274.294749266118
 20
2385.669811580356
 30
0.0
  0
POINT
  5
9C9
330
9BF
100
AcDbEntity
  8
DEFPOINTS
  6
ByBlock
 62
     0
100
AcDbPoint
 10
1274.294749266118
 20
2285.669811580356
 30
0.0
  0
ENDBLK
  5
9CA
330
9BF
100
AcDbEntity
  8
0
100
AcDbBlockEnd
  0
BLOCK
  5
9CC
330
9CB
100
AcDbEntity
  8
0
100
AcDbBlockBegin
  2
*D20
 70
     1
 10
0.0
 20
0.0
 30
0.0
  3
*D20
  1

  0
LINE
  5
9CD
330
9CB
100
AcDbEntity
  8
0
  6
ByBlock
 62
     0
100
AcDbLine
 10
1069.294749266119
 20
2665.669811580356
 30
0.0
 11
1069.294749266119
 21
2745.669811580355
 31
0.0
  0
LINE
  5
9CE
330
9CB
100
AcDbEntity
  8
0
  6
ByBlock
 62
     0
100
AcDbLine
 10
1249.294749266119
 20
2665.669811580355
 30
0.0
 11
1249.294749266119
 21
2745.669811580355
 31
0.0
  0
LINE
  5
9CF
330
9CB
100
AcDbEntity
  8
0
  6
ByBlock
 62
     0
100
AcDbLine
 10
1089.294749266119
 20
2735.669811580355
 30
0.0
 11
1229.294749266119
 21
2735.669811580355
 31
0.0
  0
INSERT
  5
9D0
330
9CB
100
AcDbEntity
  8
0
  6
ByBlock
 62
     0
100
AcDbBlockReference
  2
_OPEN
 10
1069.294749266119
 20
2735.669811580355
 30
0.0
 41
20.0
 42
20.0
 43
20.0
 50
180.0
  0
INSERT
  5
9D1
330
9CB
100
AcDbEntity
  8
0
  6
ByBlock
 62
     0
100
AcDbBlockReference
  2
_OPEN
 10
1249.294749266119
 20
2735.669811580355
 30
0.0
 41
20.0
 42
20.0
 43
20.0
  0
MTEXT
  5
9D2
330
9CB
100
AcDbEntity
  8
0
  6
ByBlock
 62
     0
100
AcDbMText
 10
1159.294749266118
 20
2760.669811580355
 30
0.0
 40
25.0
 41
0.0
 71
     5
 72
     1
  1
\A1;180
 73
     1
 44
1.0
1001
ACAD
1000
MTEXTBEGIN
1070
    73
1070
     1
1070
    44
1040
1.0
1070
    74
1070
     0
1000
MTEXTEND
  0
POINT
  5
9D3
330
9CB
100
AcDbEntity
  8
DEFPOINTS
  6
ByBlock
 62
     0
100
AcDbPoint
 10
1069.294749266119
 20
2635.669811580356
 30
0.0
  0
POINT
  5
9D4
330
9CB
100
AcDbEntity
  8
DEFPOINTS
  6
ByBlock
 62
     0
100
AcDbPoint
 10
1249.294749266119
 20
2635.669811580355
 30
0.0
  0
POINT
  5
9D5
330
9CB
100
AcDbEntity
  8
DEFPOINTS
  6
ByBlock
 62
     0
100
AcDbPoint
 10
1249.294749266119
 20
2735.669811580355
 30
0.0
  0
ENDBLK
  5
9D6
330
9CB
100
AcDbEntity
  8
0
100
AcDbBlockEnd
  0
BLOCK
  5
9D8
330
9D7
100
AcDbEntity
  8
0
100
AcDbBlockBegin
  2
*D21
 70
     1
 10
0.0
 20
0.0
 30
0.0
  3
*D21
  1

  0
LINE
  5
9D9
330
9D7
100
AcDbEntity
  8
0
  6
ByBlock
 62
     0
100
AcDbLine
 10
1039.294749266119
 20
2635.669811580356
 30
0.0
 11
959.2947492661187
 21
2635.669811580356
 31
0.0
  0
LINE
  5
9DA
330
9D7
100
AcDbEntity
  8
0
  6
ByBlock
 62
     0
100
AcDbLine
 10
1039.294749266119
 20
2385.669811580356
 30
0.0
 11
959.2947492661187
 21
2385.669811580356
 31
0.0
  0
LINE
  5
9DB
330
9D7
100
AcDbEntity
  8
0
  6
ByBlock
 62
     0
100
AcDbLine
 10
969.2947492661188
 20
2615.669811580356
 30
0.0
 11
969.2947492661188
 21
2405.669811580356
 31
0.0
  0
INSERT
  5
9DC
330
9D7
100
AcDbEntity
  8
0
  6
ByBlock
 62
     0
100
AcDbBlockReference
  2
_OPEN
 10
969.2947492661188
 20
2635.669811580356
 30
0.0
 41
20.0
 42
20.0
 43
20.0
 50
90.0
  0
INSERT
  5
9DD
330
9D7
100
AcDbEntity
  8
0
  6
ByBlock
 62
     0
100
AcDbBlockReference
  2
_OPEN
 10
969.2947492661188
 20
2385.669811580356
 30
0.0
 41
20.0
 42
20.0
 43
20.0
 50
270.0
  0
MTEXT
  5
9DE
330
9D7
100
AcDbEntity
  8
0
  6
ByBlock
 62
     0
100
AcDbMText
 10
944.2947492661188
 20
2510.669811580356
 30
0.0
 40
25.0
 41
0.0
 71
     5
 72
     1
  1
\A1;250
 11
0.0000000000000001
 21
1.0
 31
0.0
 73
     1
 44
1.0
1001
ACAD
1000
MTEXTBEGIN
1070
    73
1070
     1
1070
    44
1040
1.0
1070
    74
1070
     0
1000
MTEXTEND
  0
POINT
  5
9DF
330
9D7
100
AcDbEntity
  8
DEFPOINTS
  6
ByBlock
 62
     0
100
AcDbPoint
 10
1069.294749266119
 20
2635.669811580356
 30
0.0
  0
POINT
  5
9E0
330
9D7
100
AcDbEntity
  8
DEFPOINTS
  6
ByBlock
 62
     0
100
AcDbPoint
 10
1069.294749266119
 20
2385.669811580356
 30
0.0
  0
POINT
  5
9E1
330
9D7
100
AcDbEntity
  8
DEFPOINTS
  6
ByBlock
 62
     0
100
AcDbPoint
 10
969.2947492661188
 20
2385.669811580356
 30
0.0
  0
ENDBLK
  5
9E2
330
9D7
100
AcDbEntity
  8
0
100
AcDbBlockEnd
  0
BLOCK
  5
A06
330
A05
100
AcDbEntity
  8
0
100
AcDbBlockBegin
  2
*D22
 70
     1
 10
0.0
 20
0.0
 30
0.0
  3
*D22
  1

  0
LINE
  5
A07
330
A05
100
AcDbEntity
  8
0
  6
ByBlock
 62
     0
100
AcDbLine
 10
1873.923165362892
 20
2955.669811580356
 30
0.0
 11
1873.923165362892
 21
2875.669811580356
 31
0.0
  0
LINE
  5
A08
330
A05
100
AcDbEntity
  8
0
  6
ByBlock
 62
     0
100
AcDbLine
 10
2473.923165362892
 20
2955.669811580356
 30
0.0
 11
2473.923165362892
 21
2875.669811580356
 31
0.0
  0
LINE
  5
A09
330
A05
100
AcDbEntity
  8
0
  6
ByBlock
 62
     0
100
AcDbLine
 10
1893.923165362892
 20
2885.669811580356
 30
0.0
 11
2453.923165362892
 21
2885.669811580356
 31
0.0
  0
INSERT
  5
A0A
330
A05
100
AcDbEntity
  8
0
  6
ByBlock
 62
     0
100
AcDbBlockReference
  2
_OPEN
 10
1873.923165362892
 20
2885.669811580356
 30
0.0
 41
20.0
 42
20.0
 43
20.0
 50
180.0
  0
INSERT
  5
A0B
330
A05
100
AcDbEntity
  8
0
  6
ByBlock
 62
     0
100
AcDbBlockReference
  2
_OPEN
 10
2473.923165362892
 20
2885.669811580356
 30
0.0
 41
20.0
 42
20.0
 43
20.0
  0
MTEXT
  5
A0C
330
A05
100
AcDbEntity
  8
0
  6
ByBlock
 62
     0
100
AcDbMText
 10
2173.923165362892
 20
2910.669811580356
 30
0.0
 40
25.0
 41
0.0
 71
     5
 72
     1
  1
\A1;600
 73
     1
 44
1.0
1001
ACAD
1000
MTEXTBEGIN
1070
    73
1070
     1
1070
    44
1040
1.0
1070
    74
1070
     0
1000
MTEXTEND
  0
POINT
  5
A0D
330
A05
100
AcDbEntity
  8
DEFPOINTS
  6
ByBlock
 62
     0
100
AcDbPoint
 10
1873.923165362892
 20
2985.669811580356
 30
0.0
  0
POINT
  5
A0E
330
A05
100
AcDbEntity
  8
DEFPOINTS
  6
ByBlock
 62
     0
100
AcDbPoint
 10
2473.923165362892
 20
2985.669811580356
 30
0.0
  0
POINT
  5
A0F
330
A05
100
AcDbEntity
  8
DEFPOINTS
  6
ByBlock
 62
     0
100
AcDbPoint
 10
2473.923165362892
 20
2885.669811580356
 30
0.0
  0
ENDBLK
  5
A10
330
A05
100
AcDbEntity
  8
0
100
AcDbBlockEnd
  0
BLOCK
  5
A13
330
A12
100
AcDbEntity
  8
0
100
AcDbBlockBegin
  2
*D23
 70
     1
 10
0.0
 20
0.0
 30
0.0
  3
*D23
  1

  0
LINE
  5
A14
330
A12
100
AcDbEntity
  8
0
  6
ByBlock
 62
     0
100
AcDbLine
 10
1873.923165362892
 20
2355.669811580356
 30
0.0
 11
1873.923165362892
 21
2265.669811580356
 31
0.0
  0
LINE
  5
A15
330
A12
100
AcDbEntity
  8
0
  6
ByBlock
 62
     0
100
AcDbLine
 10
2873.923165362893
 20
2355.669811580356
 30
0.0
 11
2873.923165362893
 21
2265.669811580356
 31
0.0
  0
LINE
  5
A16
330
A12
100
AcDbEntity
  8
0
  6
ByBlock
 62
     0
100
AcDbLine
 10
1893.923165362892
 20
2275.669811580355
 30
0.0
 11
2853.923165362892
 21
2275.669811580355
 31
0.0
  0
INSERT
  5
A17
330
A12
100
AcDbEntity
  8
0
  6
ByBlock
 62
     0
100
AcDbBlockReference
  2
_OPEN
 10
1873.923165362892
 20
2275.669811580355
 30
0.0
 41
20.0
 42
20.0
 43
20.0
 50
180.0
  0
INSERT
  5
A18
330
A12
100
AcDbEntity
  8
0
  6
ByBlock
 62
     0
100
AcDbBlockReference
  2
_OPEN
 10
2873.923165362893
 20
2275.669811580355
 30
0.0
 41
20.0
 42
20.0
 43
20.0
  0
MTEXT
  5
A19
330
A12
100
AcDbEntity
  8
0
  6
ByBlock
 62
     0
100
AcDbMText
 10
2373.923165362892
 20
2300.669811580355
 30
0.0
 40
25.0
 41
0.0
 71
     5
 72
     1
  1
\A1;1000
 73
     1
 44
1.0
1001
ACAD
1000
MTEXTBEGIN
1070
    73
1070
     1
1070
    44
1040
1.0
1070
    74
1070
     0
1000
MTEXTEND
  0
POINT
  5
A1A
330
A12
100
AcDbEntity
  8
DEFPOINTS
  6
ByBlock
 62
     0
100
AcDbPoint
 10
1873.923165362892
 20
2385.669811580356
 30
0.0
  0
POINT
  5
A1B
330
A12
100
AcDbEntity
  8
DEFPOINTS
  6
ByBlock
 62
     0
100
AcDbPoint
 10
2873.923165362893
 20
2385.669811580356
 30
0.0
  0
POINT
  5
A1C
330
A12
100
AcDbEntity
  8
DEFPOINTS
  6
ByBlock
 62
     0
100
AcDbPoint
 10
2873.923165362893
 20
2275.669811580355
 30
0.0
  0
ENDBLK
  5
A1D
330
A12
100
AcDbEntity
  8
0
100
AcDbBlockEnd
  0
BLOCK
  5
A20
330
A1F
100
AcDbEntity
  8
0
100
AcDbBlockBegin
  2
*D24
 70
     1
 10
0.0
 20
0.0
 30
0.0
  3
*D24
  1

  0
LINE
  5
A21
330
A1F
100
AcDbEntity
  8
0
  6
ByBlock
 62
     0
100
AcDbLine
 10
1873.923165362892
 20
1755.669811580355
 30
0.0
 11
1873.923165362892
 21
1675.669811580355
 31
0.0
  0
LINE
  5
A22
330
A1F
100
AcDbEntity
  8
0
  6
ByBlock
 62
     0
100
AcDbLine
 10
3873.923165362892
 20
1755.669811580357
 30
0.0
 11
3873.923165362892
 21
1675.669811580355
 31
0.0
  0
LINE
  5
A23
330
A1F
100
AcDbEntity
  8
0
  6
ByBlock
 62
     0
100
AcDbLine
 10
1893.923165362893
 20
1685.669811580355
 30
0.0
 11
3853.923165362893
 21
1685.669811580355
 31
0.0
  0
INSERT
  5
A24
330
A1F
100
AcDbEntity
  8
0
  6
ByBlock
 62
     0
100
AcDbBlockReference
  2
_OPEN
 10
1873.923165362892
 20
1685.669811580355
 30
0.0
 41
20.0
 42
20.0
 43
20.0
 50
180.0
  0
INSERT
  5
A25
330
A1F
100
AcDbEntity
  8
0
  6
ByBlock
 62
     0
100
AcDbBlockReference
  2
_OPEN
 10
3873.923165362892
 20
1685.669811580355
 30
0.0
 41
20.0
 42
20.0
 43
20.0
  0
MTEXT
  5
A26
330
A1F
100
AcDbEntity
  8
0
  6
ByBlock
 62
     0
100
AcDbMText
 10
2873.923165362893
 20
1710.669811580356
 30
0.0
 40
25.0
 41
0.0
 71
     5
 72
     1
  1
\A1;2000
 73
     1
 44
1.0
1001
ACAD
1000
MTEXTBEGIN
1070
    73
1070
     1
1070
    44
1040
1.0
1070
    74
1070
     0
1000
MTEXTEND
  0
POINT
  5
A27
330
A1F
100
AcDbEntity
  8
DEFPOINTS
  6
ByBlock
 62
     0
100
AcDbPoint
 10
1873.923165362892
 20
1785.669811580356
 30
0.0
  0
POINT
  5
A28
330
A1F
100
AcDbEntity
  8
DEFPOINTS
  6
ByBlock
 62
     0
100
AcDbPoint
 10
3873.923165362892
 20
1785.669811580357
 30
0.0
  0
POINT
  5
A29
330
A1F
100
AcDbEntity
  8
DEFPOINTS
  6
ByBlock
 62
     0
100
AcDbPoint
 10
3873.923165362892
 20
1685.669811580355
 30
0.0
  0
ENDBLK
  5
A2A
330
A1F
100
AcDbEntity
  8
0
100
AcDbBlockEnd
  0
BLOCK
  5
A56
330
A55
100
AcDbEntity
  8
0
100
AcDbBlockBegin
  2
*D25
 70
     1
 10
0.0
 20
0.0
 30
0.0
  3
*D25
  1

  0
LINE
  5
A57
330
A55
100
AcDbEntity
  8
0
  6
ByBlock
 62
     0
100
AcDbLine
 10
1069.294749266119
 20
3265.669811580356
 30
0.0
 11
1069.294749266119
 21
3345.669811580356
 31
0.0
  0
LINE
  5
A58
330
A55
100
AcDbEntity
  8
0
  6
ByBlock
 62
     0
100
AcDbLine
 10
1249.294749266119
 20
3265.669811580355
 30
0.0
 11
1249.294749266119
 21
3345.669811580356
 31
0.0
  0
LINE
  5
A59
330
A55
100
AcDbEntity
  8
0
  6
ByBlock
 62
     0
100
AcDbLine
 10
1089.294749266119
 20
3335.669811580356
 30
0.0
 11
1229.294749266119
 21
3335.669811580356
 31
0.0
  0
INSERT
  5
A5A
330
A55
100
AcDbEntity
  8
0
  6
ByBlock
 62
     0
100
AcDbBlockReference
  2
_OPEN
 10
1069.294749266119
 20
3335.669811580356
 30
0.0
 41
20.0
 42
20.0
 43
20.0
 50
180.0
  0
INSERT
  5
A5B
330
A55
100
AcDbEntity
  8
0
  6
ByBlock
 62
     0
100
AcDbBlockReference
  2
_OPEN
 10
1249.294749266119
 20
3335.669811580356
 30
0.0
 41
20.0
 42
20.0
 43
20.0
  0
MTEXT
  5
A5C
330
A55
100
AcDbEntity
  8
0
  6
ByBlock
 62
     0
100
AcDbMText
 10
1159.294749266118
 20
3360.669811580355
 30
0.0
 40
25.0
 41
0.0
 71
     5
 72
     1
  1
\A1;180
 73
     1
 44
1.0
1001
ACAD
1000
MTEXTBEGIN
1070
    73
1070
     1
1070
    44
1040
1.0
1070
    74
1070
     0
1000
MTEXTEND
  0
POINT
  5
A5D
330
A55
100
AcDbEntity
  8
DEFPOINTS
  6
ByBlock
 62
     0
100
AcDbPoint
 10
1069.294749266119
 20
3235.669811580355
 30
0.0
  0
POINT
  5
A5E
330
A55
100
AcDbEntity
  8
DEFPOINTS
  6
ByBlock
 62
     0
100
AcDbPoint
 10
1249.294749266119
 20
3235.669811580355
 30
0.0
  0
POINT
  5
A5F
330
A55
100
AcDbEntity
  8
DEFPOINTS
  6
ByBlock
 62
     0
100
AcDbPoint
 10
1249.294749266119
 20
3335.669811580356
 30
0.0
  0
ENDBLK
  5
A60
330
A55
100
AcDbEntity
  8
0
100
AcDbBlockEnd
  0
BLOCK
  5
A8C
330
A8B
100
AcDbEntity
  8
0
100
AcDbBlockBegin
  2
*D26
 70
     1
 10
0.0
 20
0.0
 30
0.0
  3
*D26
  1

  0
LINE
  5
A8D
330
A8B
100
AcDbEntity
  8
0
  6
ByBlock
 62
     0
100
AcDbLine
 10
4915.793930557876
 20
4935.669811580356
 30
0.0
 11
4835.793930557876
 21
4935.669811580356
 31
0.0
  0
LINE
  5
A8E
330
A8B
100
AcDbEntity
  8
0
  6
ByBlock
 62
     0
100
AcDbLine
 10
4915.793930557876
 20
4635.669811580355
 30
0.0
 11
4835.793930557876
 21
4635.669811580355
 31
0.0
  0
LINE
  5
A8F
330
A8B
100
AcDbEntity
  8
0
  6
ByBlock
 62
     0
100
AcDbLine
 10
4845.793930557877
 20
4915.669811580356
 30
0.0
 11
4845.793930557877
 21
4655.669811580355
 31
0.0
  0
INSERT
  5
A90
330
A8B
100
AcDbEntity
  8
0
  6
ByBlock
 62
     0
100
AcDbBlockReference
  2
_OPEN
 10
4845.793930557877
 20
4935.669811580356
 30
0.0
 41
20.0
 42
20.0
 43
20.0
 50
90.0
  0
INSERT
  5
A91
330
A8B
100
AcDbEntity
  8
0
  6
ByBlock
 62
     0
100
AcDbBlockReference
  2
_OPEN
 10
4845.793930557877
 20
4635.669811580355
 30
0.0
 41
20.0
 42
20.0
 43
20.0
 50
270.0
  0
MTEXT
  5
A92
330
A8B
100
AcDbEntity
  8
0
  6
ByBlock
 62
     0
100
AcDbMText
 10
4820.793930557877
 20
4785.669811580356
 30
0.0
 40
25.0
 41
0.0
 71
     5
 72
     1
  1
\A1;300
 11
0.0000000000000001
 21
1.0
 31
0.0
 73
     1
 44
1.0
1001
ACAD
1000
MTEXTBEGIN
1070
    73
1070
     1
1070
    44
1040
1.0
1070
    74
1070
     0
1000
MTEXTEND
  0
POINT
  5
A93
330
A8B
100
AcDbEntity
  8
DEFPOINTS
  6
ByBlock
 62
     0
100
AcDbPoint
 10
4945.793930557877
 20
4935.669811580356
 30
0.0
  0
POINT
  5
A94
330
A8B
100
AcDbEntity
  8
DEFPOINTS
  6
ByBlock
 62
     0
100
AcDbPoint
 10
4945.793930557877
 20
4635.669811580355
 30
0.0
  0
POINT
  5
A95
330
A8B
100
AcDbEntity
  8
DEFPOINTS
  6
ByBlock
 62
     0
100
AcDbPoint
 10
4845.793930557877
 20
4635.669811580355
 30
0.0
  0
ENDBLK
  5
A96
330
A8B
100
AcDbEntity
  8
0
100
AcDbBlockEnd
  0
BLOCK
  5
A9B
330
A9A
100
AcDbEntity
  8
0
100
AcDbBlockBegin
  2
*D27
 70
     1
 10
0.0
 20
0.0
 30
0.0
  3
*D27
  1

  0
LINE
  5
A9C
330
A9A
100
AcDbEntity
  8
0
  6
ByBlock
 62
     0
100
AcDbLine
 10
4945.793930557877
 20
4605.669811580355
 30
0.0
 11
4945.793930557877
 21
4525.669811580356
 31
0.0
  0
LINE
  5
A9D
330
A9A
100
AcDbEntity
  8
0
  6
ByBlock
 62
     0
100
AcDbLine
 10
5155.793930557876
 20
4605.669811580355
 30
0.0
 11
5155.793930557876
 21
4525.669811580356
 31
0.0
  0
LINE
  5
A9E
330
A9A
100
AcDbEntity
  8
0
  6
ByBlock
 62
     0
100
AcDbLine
 10
4965.793930557876
 20
4535.669811580356
 30
0.0
 11
5135.793930557876
 21
4535.669811580356
 31
0.0
  0
INSERT
  5
A9F
330
A9A
100
AcDbEntity
  8
0
  6
ByBlock
 62
     0
100
AcDbBlockReference
  2
_OPEN
 10
4945.793930557877
 20
4535.669811580356
 30
0.0
 41
20.0
 42
20.0
 43
20.0
 50
180.0
  0
INSERT
  5
AA0
330
A9A
100
AcDbEntity
  8
0
  6
ByBlock
 62
     0
100
AcDbBlockReference
  2
_OPEN
 10
5155.793930557876
 20
4535.669811580356
 30
0.0
 41
20.0
 42
20.0
 43
20.0
  0
MTEXT
  5
AA1
330
A9A
100
AcDbEntity
  8
0
  6
ByBlock
 62
     0
100
AcDbMText
 10
5050.793930557876
 20
4560.669811580356
 30
0.0
 40
25.0
 41
0.0
 71
     5
 72
     1
  1
\A1;210
 73
     1
 44
1.0
1001
ACAD
1000
MTEXTBEGIN
1070
    73
1070
     1
1070
    44
1040
1.0
1070
    74
1070
     0
1000
MTEXTEND
  0
POINT
  5
AA2
330
A9A
100
AcDbEntity
  8
DEFPOINTS
  6
ByBlock
 62
     0
100
AcDbPoint
 10
4945.793930557877
 20
4635.669811580355
 30
0.0
  0
POINT
  5
AA3
330
A9A
100
AcDbEntity
  8
DEFPOINTS
  6
ByBlock
 62
     0
100
AcDbPoint
 10
5155.793930557876
 20
4635.669811580355
 30
0.0
  0
POINT
  5
AA4
330
A9A
100
AcDbEntity
  8
DEFPOINTS
  6
ByBlock
 62
     0
100
AcDbPoint
 10
5155.793930557876
 20
4535.669811580356
 30
0.0
  0
ENDBLK
  5
AA5
330
A9A
100
AcDbEntity
  8
0
100
AcDbBlockEnd
  0
BLOCK
  5
AB7
330
AB6
100
AcDbEntity
  8
0
100
AcDbBlockBegin
  2
*D28
 70
     1
 10
0.0
 20
0.0
 30
0.0
  3
*D28
  1

  0
LINE
  5
AB8
330
AB6
100
AcDbEntity
  8
0
  6
ByBlock
 62
     0
100
AcDbLine
 10
5750.42234665465
 20
4605.669811580354
 30
0.0
 11
5750.42234665465
 21
4525.669811580356
 31
0.0
  0
LINE
  5
AB9
330
AB6
100
AcDbEntity
  8
0
  6
ByBlock
 62
     0
100
AcDbLine
 10
6350.422346654649
 20
4605.669811580355
 30
0.0
 11
6350.422346654649
 21
4525.669811580356
 31
0.0
  0
LINE
  5
ABA
330
AB6
100
AcDbEntity
  8
0
  6
ByBlock
 62
     0
100
AcDbLine
 10
5770.42234665465
 20
4535.669811580356
 30
0.0
 11
6330.42234665465
 21
4535.669811580356
 31
0.0
  0
INSERT
  5
ABB
330
AB6
100
AcDbEntity
  8
0
  6
ByBlock
 62
     0
100
AcDbBlockReference
  2
_OPEN
 10
5750.42234665465
 20
4535.669811580356
 30
0.0
 41
20.0
 42
20.0
 43
20.0
 50
180.0
  0
INSERT
  5
ABC
330
AB6
100
AcDbEntity
  8
0
  6
ByBlock
 62
     0
100
AcDbBlockReference
  2
_OPEN
 10
6350.422346654649
 20
4535.669811580356
 30
0.0
 41
20.0
 42
20.0
 43
20.0
  0
MTEXT
  5
ABD
330
AB6
100
AcDbEntity
  8
0
  6
ByBlock
 62
     0
100
AcDbMText
 10
6050.42234665465
 20
4560.669811580356
 30
0.0
 40
25.0
 41
0.0
 71
     5
 72
     1
  1
\A1;600
 73
     1
 44
1.0
1001
ACAD
1000
MTEXTBEGIN
1070
    73
1070
     1
1070
    44
1040
1.0
1070
    74
1070
     0
1000
MTEXTEND
  0
POINT
  5
ABE
330
AB6
100
AcDbEntity
  8
DEFPOINTS
  6
ByBlock
 62
     0
100
AcDbPoint
 10
5750.42234665465
 20
4635.669811580354
 30
0.0
  0
POINT
  5
ABF
330
AB6
100
AcDbEntity
  8
DEFPOINTS
  6
ByBlock
 62
     0
100
AcDbPoint
 10
6350.422346654649
 20
4635.669811580355
 30
0.0
  0
POINT
  5
AC0
330
AB6
100
AcDbEntity
  8
DEFPOINTS
  6
ByBlock
 62
     0
100
AcDbPoint
 10
6350.422346654649
 20
4535.669811580356
 30
0.0
  0
ENDBLK
  5
AC1
330
AB6
100
AcDbEntity
  8
0
100
AcDbBlockEnd
  0
BLOCK
  5
AD2
330
AD1
100
AcDbEntity
  8
0
100
AcDbBlockBegin
  2
*D29
 70
     1
 10
0.0
 20
0.0
 30
0.0
  3
*D29
  1

  0
LINE
  5
AD3
330
AD1
100
AcDbEntity
  8
0
  6
ByBlock
 62
     0
100
AcDbLine
 10
4945.793930557877
 20
4965.669811580355
 30
0.0
 11
4945.793930557877
 21
5045.669811580355
 31
0.0
  0
LINE
  5
AD4
330
AD1
100
AcDbEntity
  8
0
  6
ByBlock
 62
     0
100
AcDbLine
 10
5125.793930557876
 20
4965.669811580355
 30
0.0
 11
5125.793930557876
 21
5045.669811580355
 31
0.0
  0
LINE
  5
AD5
330
AD1
100
AcDbEntity
  8
0
  6
ByBlock
 62
     0
100
AcDbLine
 10
4965.793930557876
 20
5035.669811580356
 30
0.0
 11
5105.793930557877
 21
5035.669811580356
 31
0.0
  0
INSERT
  5
AD6
330
AD1
100
AcDbEntity
  8
0
  6
ByBlock
 62
     0
100
AcDbBlockReference
  2
_OPEN
 10
4945.793930557877
 20
5035.669811580356
 30
0.0
 41
20.0
 42
20.0
 43
20.0
 50
180.0
  0
INSERT
  5
AD7
330
AD1
100
AcDbEntity
  8
0
  6
ByBlock
 62
     0
100
AcDbBlockReference
  2
_OPEN
 10
5125.793930557876
 20
5035.669811580356
 30
0.0
 41
20.0
 42
20.0
 43
20.0
  0
MTEXT
  5
AD8
330
AD1
100
AcDbEntity
  8
0
  6
ByBlock
 62
     0
100
AcDbMText
 10
5035.793930557876
 20
5060.669811580356
 30
0.0
 40
25.0
 41
0.0
 71
     5
 72
     1
  1
\A1;180
 73
     1
 44
1.0
1001
ACAD
1000
MTEXTBEGIN
1070
    73
1070
     1
1070
    44
1040
1.0
1070
    74
1070
     0
1000
MTEXTEND
  0
POINT
  5
AD9
330
AD1
100
AcDbEntity
  8
DEFPOINTS
  6
ByBlock
 62
     0
100
AcDbPoint
 10
4945.793930557877
 20
4935.669811580356
 30
0.0
  0
POINT
  5
ADA
330
AD1
100
AcDbEntity
  8
DEFPOINTS
  6
ByBlock
 62
     0
100
AcDbPoint
 10
5125.793930557876
 20
4935.669811580354
 30
0.0
  0
POINT
  5
ADB
330
AD1
100
AcDbEntity
  8
DEFPOINTS
  6
ByBlock
 62
     0
100
AcDbPoint
 10
5125.793930557876
 20
5035.669811580356
 30
0.0
  0
ENDBLK
  5
ADC
330
AD1
100
AcDbEntity
  8
0
100
AcDbBlockEnd
  0
BLOCK
  5
ADE
330
ADD
100
AcDbEntity
  8
0
100
AcDbBlockBegin
  2
*D30
 70
     1
 10
0.0
 20
0.0
 30
0.0
  3
*D30
  1

  0
LINE
  5
ADF
330
ADD
100
AcDbEntity
  8
0
  6
ByBlock
 62
     0
100
AcDbLine
 10
4915.793930557876
 20
4935.669811580356
 30
0.0
 11
4835.793930557876
 21
4935.669811580356
 31
0.0
  0
LINE
  5
AE0
330
ADD
100
AcDbEntity
  8
0
  6
ByBlock
 62
     0
100
AcDbLine
 10
4915.793930557876
 20
4635.669811580355
 30
0.0
 11
4835.793930557876
 21
4635.669811580355
 31
0.0
  0
LINE
  5
AE1
330
ADD
100
AcDbEntity
  8
0
  6
ByBlock
 62
     0
100
AcDbLine
 10
4845.793930557877
 20
4915.669811580356
 30
0.0
 11
4845.793930557877
 21
4655.669811580355
 31
0.0
  0
INSERT
  5
AE2
330
ADD
100
AcDbEntity
  8
0
  6
ByBlock
 62
     0
100
AcDbBlockReference
  2
_OPEN
 10
4845.793930557877
 20
4935.669811580356
 30
0.0
 41
20.0
 42
20.0
 43
20.0
 50
90.0
  0
INSERT
  5
AE3
330
ADD
100
AcDbEntity
  8
0
  6
ByBlock
 62
     0
100
AcDbBlockReference
  2
_OPEN
 10
4845.793930557877
 20
4635.669811580355
 30
0.0
 41
20.0
 42
20.0
 43
20.0
 50
270.0
  0
MTEXT
  5
AE4
330
ADD
100
AcDbEntity
  8
0
  6
ByBlock
 62
     0
100
AcDbMText
 10
4820.793930557877
 20
4785.669811580356
 30
0.0
 40
25.0
 41
0.0
 71
     5
 72
     1
  1
\A1;300
 11
0.0000000000000001
 21
1.0
 31
0.0
 73
     1
 44
1.0
1001
ACAD
1000
MTEXTBEGIN
1070
    73
1070
     1
1070
    44
1040
1.0
1070
    74
1070
     0
1000
MTEXTEND
  0
POINT
  5
AE5
330
ADD
100
AcDbEntity
  8
DEFPOINTS
  6
ByBlock
 62
     0
100
AcDbPoint
 10
4945.793930557877
 20
4935.669811580356
 30
0.0
  0
POINT
  5
AE6
330
ADD
100
AcDbEntity
  8
DEFPOINTS
  6
ByBlock
 62
     0
100
AcDbPoint
 10
4945.793930557877
 20
4635.669811580355
 30
0.0
  0
POINT
  5
AE7
330
ADD
100
AcDbEntity
  8
DEFPOINTS
  6
ByBlock
 62
     0
100
AcDbPoint
 10
4845.793930557877
 20
4635.669811580355
 30
0.0
  0
ENDBLK
  5
AE8
330
ADD
100
AcDbEntity
  8
0
100
AcDbBlockEnd
  0
BLOCK
  5
AEA
330
AE9
100
AcDbEntity
  8
0
100
AcDbBlockBegin
  2
*D31
 70
     1
 10
0.0
 20
0.0
 30
0.0
  3
*D31
  1

  0
LINE
  5
AEB
330
AE9
100
AcDbEntity
  8
0
  6
ByBlock
 62
     0
100
AcDbLine
 10
4945.793930557877
 20
4605.669811580355
 30
0.0
 11
4945.793930557877
 21
4525.669811580356
 31
0.0
  0
LINE
  5
AEC
330
AE9
100
AcDbEntity
  8
0
  6
ByBlock
 62
     0
100
AcDbLine
 10
5155.793930557876
 20
4605.669811580355
 30
0.0
 11
5155.793930557876
 21
4525.669811580356
 31
0.0
  0
LINE
  5
AED
330
AE9
100
AcDbEntity
  8
0
  6
ByBlock
 62
     0
100
AcDbLine
 10
4965.793930557876
 20
4535.669811580356
 30
0.0
 11
5135.793930557876
 21
4535.669811580356
 31
0.0
  0
INSERT
  5
AEE
330
AE9
100
AcDbEntity
  8
0
  6
ByBlock
 62
     0
100
AcDbBlockReference
  2
_OPEN
 10
4945.793930557877
 20
4535.669811580356
 30
0.0
 41
20.0
 42
20.0
 43
20.0
 50
180.0
  0
INSERT
  5
AEF
330
AE9
100
AcDbEntity
  8
0
  6
ByBlock
 62
     0
100
AcDbBlockReference
  2
_OPEN
 10
5155.793930557876
 20
4535.669811580356
 30
0.0
 41
20.0
 42
20.0
 43
20.0
  0
MTEXT
  5
AF0
330
AE9
100
AcDbEntity
  8
0
  6
ByBlock
 62
     0
100
AcDbMText
 10
5050.793930557876
 20
4560.669811580356
 30
0.0
 40
25.0
 41
0.0
 71
     5
 72
     1
  1
\A1;210
 73
     1
 44
1.0
1001
ACAD
1000
MTEXTBEGIN
1070
    73
1070
     1
1070
    44
1040
1.0
1070
    74
1070
     0
1000
MTEXTEND
  0
POINT
  5
AF1
330
AE9
100
AcDbEntity
  8
DEFPOINTS
  6
ByBlock
 62
     0
100
AcDbPoint
 10
4945.793930557877
 20
4635.669811580355
 30
0.0
  0
POINT
  5
AF2
330
AE9
100
AcDbEntity
  8
DEFPOINTS
  6
ByBlock
 62
     0
100
AcDbPoint
 10
5155.793930557876
 20
4635.669811580355
 30
0.0
  0
POINT
  5
AF3
330
AE9
100
AcDbEntity
  8
DEFPOINTS
  6
ByBlock
 62
     0
100
AcDbPoint
 10
5155.793930557876
 20
4535.669811580356
 30
0.0
  0
ENDBLK
  5
AF4
330
AE9
100
AcDbEntity
  8
0
100
AcDbBlockEnd
  0
BLOCK
  5
B10
330
B0F
100
AcDbEntity
  8
0
100
AcDbBlockBegin
  2
*D32
 70
     1
 10
0.0
 20
0.0
 30
0.0
  3
*D32
  1

  0
LINE
  5
B11
330
B0F
100
AcDbEntity
  8
0
  6
ByBlock
 62
     0
100
AcDbLine
 10
4915.793930557876
 20
4235.669811580356
 30
0.0
 11
4835.793930557876
 21
4235.669811580356
 31
0.0
  0
LINE
  5
B12
330
B0F
100
AcDbEntity
  8
0
  6
ByBlock
 62
     0
100
AcDbLine
 10
4915.793930557876
 20
3935.669811580356
 30
0.0
 11
4835.793930557876
 21
3935.669811580356
 31
0.0
  0
LINE
  5
B13
330
B0F
100
AcDbEntity
  8
0
  6
ByBlock
 62
     0
100
AcDbLine
 10
4845.793930557877
 20
4215.669811580355
 30
0.0
 11
4845.793930557877
 21
3955.669811580356
 31
0.0
  0
INSERT
  5
B14
330
B0F
100
AcDbEntity
  8
0
  6
ByBlock
 62
     0
100
AcDbBlockReference
  2
_OPEN
 10
4845.793930557877
 20
4235.669811580356
 30
0.0
 41
20.0
 42
20.0
 43
20.0
 50
90.0
  0
INSERT
  5
B15
330
B0F
100
AcDbEntity
  8
0
  6
ByBlock
 62
     0
100
AcDbBlockReference
  2
_OPEN
 10
4845.793930557877
 20
3935.669811580356
 30
0.0
 41
20.0
 42
20.0
 43
20.0
 50
270.0
  0
MTEXT
  5
B16
330
B0F
100
AcDbEntity
  8
0
  6
ByBlock
 62
     0
100
AcDbMText
 10
4820.793930557877
 20
4085.669811580355
 30
0.0
 40
25.0
 41
0.0
 71
     5
 72
     1
  1
\A1;300
 11
0.0000000000000001
 21
1.0
 31
0.0
 73
     1
 44
1.0
1001
ACAD
1000
MTEXTBEGIN
1070
    73
1070
     1
1070
    44
1040
1.0
1070
    74
1070
     0
1000
MTEXTEND
  0
POINT
  5
B17
330
B0F
100
AcDbEntity
  8
DEFPOINTS
  6
ByBlock
 62
     0
100
AcDbPoint
 10
4945.793930557877
 20
4235.669811580356
 30
0.0
  0
POINT
  5
B18
330
B0F
100
AcDbEntity
  8
DEFPOINTS
  6
ByBlock
 62
     0
100
AcDbPoint
 10
4945.793930557877
 20
3935.669811580356
 30
0.0
  0
POINT
  5
B19
330
B0F
100
AcDbEntity
  8
DEFPOINTS
  6
ByBlock
 62
     0
100
AcDbPoint
 10
4845.793930557877
 20
3935.669811580356
 30
0.0
  0
ENDBLK
  5
B1A
330
B0F
100
AcDbEntity
  8
0
100
AcDbBlockEnd
  0
BLOCK
  5
B1C
330
B1B
100
AcDbEntity
  8
0
100
AcDbBlockBegin
  2
*D33
 70
     1
 10
0.0
 20
0.0
 30
0.0
  3
*D33
  1

  0
LINE
  5
B1D
330
B1B
100
AcDbEntity
  8
0
  6
ByBlock
 62
     0
100
AcDbLine
 10
4945.793930557877
 20
3905.669811580356
 30
0.0
 11
4945.793930557877
 21
3825.669811580356
 31
0.0
  0
LINE
  5
B1E
330
B1B
100
AcDbEntity
  8
0
  6
ByBlock
 62
     0
100
AcDbLine
 10
5155.793930557876
 20
3905.669811580356
 30
0.0
 11
5155.793930557876
 21
3825.669811580356
 31
0.0
  0
LINE
  5
B1F
330
B1B
100
AcDbEntity
  8
0
  6
ByBlock
 62
     0
100
AcDbLine
 10
4965.793930557876
 20
3835.669811580356
 30
0.0
 11
5135.793930557876
 21
3835.669811580356
 31
0.0
  0
INSERT
  5
B20
330
B1B
100
AcDbEntity
  8
0
  6
ByBlock
 62
     0
100
AcDbBlockReference
  2
_OPEN
 10
4945.793930557877
 20
3835.669811580356
 30
0.0
 41
20.0
 42
20.0
 43
20.0
 50
180.0
  0
INSERT
  5
B21
330
B1B
100
AcDbEntity
  8
0
  6
ByBlock
 62
     0
100
AcDbBlockReference
  2
_OPEN
 10
5155.793930557876
 20
3835.669811580356
 30
0.0
 41
20.0
 42
20.0
 43
20.0
  0
MTEXT
  5
B22
330
B1B
100
AcDbEntity
  8
0
  6
ByBlock
 62
     0
100
AcDbMText
 10
5050.793930557876
 20
3860.669811580356
 30
0.0
 40
25.0
 41
0.0
 71
     5
 72
     1
  1
\A1;210
 73
     1
 44
1.0
1001
ACAD
1000
MTEXTBEGIN
1070
    73
1070
     1
1070
    44
1040
1.0
1070
    74
1070
     0
1000
MTEXTEND
  0
POINT
  5
B23
330
B1B
100
AcDbEntity
  8
DEFPOINTS
  6
ByBlock
 62
     0
100
AcDbPoint
 10
4945.793930557877
 20
3935.669811580356
 30
0.0
  0
POINT
  5
B24
330
B1B
100
AcDbEntity
  8
DEFPOINTS
  6
ByBlock
 62
     0
100
AcDbPoint
 10
5155.793930557876
 20
3935.669811580356
 30
0.0
  0
POINT
  5
B25
330
B1B
100
AcDbEntity
  8
DEFPOINTS
  6
ByBlock
 62
     0
100
AcDbPoint
 10
5155.793930557876
 20
3835.669811580356
 30
0.0
  0
ENDBLK
  5
B26
330
B1B
100
AcDbEntity
  8
0
100
AcDbBlockEnd
  0
BLOCK
  5
B34
330
B33
100
AcDbEntity
  8
0
100
AcDbBlockBegin
  2
*D34
 70
     1
 10
0.0
 20
0.0
 30
0.0
  3
*D34
  1

  0
LINE
  5
B35
330
B33
100
AcDbEntity
  8
0
  6
ByBlock
 62
     0
100
AcDbLine
 10
4945.793930557877
 20
4265.669811580355
 30
0.0
 11
4945.793930557877
 21
4345.669811580355
 31
0.0
  0
LINE
  5
B36
330
B33
100
AcDbEntity
  8
0
  6
ByBlock
 62
     0
100
AcDbLine
 10
5125.793930557876
 20
4265.669811580354
 30
0.0
 11
5125.793930557876
 21
4345.669811580355
 31
0.0
  0
LINE
  5
B37
330
B33
100
AcDbEntity
  8
0
  6
ByBlock
 62
     0
100
AcDbLine
 10
4965.793930557876
 20
4335.669811580356
 30
0.0
 11
5105.793930557877
 21
4335.669811580356
 31
0.0
  0
INSERT
  5
B38
330
B33
100
AcDbEntity
  8
0
  6
ByBlock
 62
     0
100
AcDbBlockReference
  2
_OPEN
 10
4945.793930557877
 20
4335.669811580356
 30
0.0
 41
20.0
 42
20.0
 43
20.0
 50
180.0
  0
INSERT
  5
B39
330
B33
100
AcDbEntity
  8
0
  6
ByBlock
 62
     0
100
AcDbBlockReference
  2
_OPEN
 10
5125.793930557876
 20
4335.669811580356
 30
0.0
 41
20.0
 42
20.0
 43
20.0
  0
MTEXT
  5
B3A
330
B33
100
AcDbEntity
  8
0
  6
ByBlock
 62
     0
100
AcDbMText
 10
5035.793930557876
 20
4360.669811580356
 30
0.0
 40
25.0
 41
0.0
 71
     5
 72
     1
  1
\A1;180
 73
     1
 44
1.0
1001
ACAD
1000
MTEXTBEGIN
1070
    73
1070
     1
1070
    44
1040
1.0
1070
    74
1070
     0
1000
MTEXTEND
  0
POINT
  5
B3B
330
B33
100
AcDbEntity
  8
DEFPOINTS
  6
ByBlock
 62
     0
100
AcDbPoint
 10
4945.793930557877
 20
4235.669811580356
 30
0.0
  0
POINT
  5
B3C
330
B33
100
AcDbEntity
  8
DEFPOINTS
  6
ByBlock
 62
     0
100
AcDbPoint
 10
5125.793930557876
 20
4235.669811580354
 30
0.0
  0
POINT
  5
B3D
330
B33
100
AcDbEntity
  8
DEFPOINTS
  6
ByBlock
 62
     0
100
AcDbPoint
 10
5125.793930557876
 20
4335.669811580356
 30
0.0
  0
ENDBLK
  5
B3E
330
B33
100
AcDbEntity
  8
0
100
AcDbBlockEnd
  0
BLOCK
  5
B42
330
B41
100
AcDbEntity
  8
0
100
AcDbBlockBegin
  2
*D35
 70
     1
 10
0.0
 20
0.0
 30
0.0
  3
*D35
  1

  0
LINE
  5
B43
330
B41
100
AcDbEntity
  8
0
  6
ByBlock
 62
     0
100
AcDbLine
 10
5750.422346654652
 20
3905.669811580356
 30
0.0
 11
5750.422346654652
 21
3825.669811580356
 31
0.0
  0
LINE
  5
B44
330
B41
100
AcDbEntity
  8
0
  6
ByBlock
 62
     0
100
AcDbLine
 10
6750.422346654651
 20
3905.669811580359
 30
0.0
 11
6750.422346654651
 21
3825.669811580356
 31
0.0
  0
LINE
  5
B45
330
B41
100
AcDbEntity
  8
0
  6
ByBlock
 62
     0
100
AcDbLine
 10
5770.422346654651
 20
3835.669811580356
 30
0.0
 11
6730.422346654652
 21
3835.669811580356
 31
0.0
  0
INSERT
  5
B46
330
B41
100
AcDbEntity
  8
0
  6
ByBlock
 62
     0
100
AcDbBlockReference
  2
_OPEN
 10
5750.422346654652
 20
3835.669811580356
 30
0.0
 41
20.0
 42
20.0
 43
20.0
 50
180.0
  0
INSERT
  5
B47
330
B41
100
AcDbEntity
  8
0
  6
ByBlock
 62
     0
100
AcDbBlockReference
  2
_OPEN
 10
6750.422346654651
 20
3835.669811580356
 30
0.0
 41
20.0
 42
20.0
 43
20.0
  0
MTEXT
  5
B48
330
B41
100
AcDbEntity
  8
0
  6
ByBlock
 62
     0
100
AcDbMText
 10
6250.422346654652
 20
3860.669811580356
 30
0.0
 40
25.0
 41
0.0
 71
     5
 72
     1
  1
\A1;1000
 73
     1
 44
1.0
1001
ACAD
1000
MTEXTBEGIN
1070
    73
1070
     1
1070
    44
1040
1.0
1070
    74
1070
     0
1000
MTEXTEND
  0
POINT
  5
B49
330
B41
100
AcDbEntity
  8
DEFPOINTS
  6
ByBlock
 62
     0
100
AcDbPoint
 10
5750.422346654652
 20
3935.669811580356
 30
0.0
  0
POINT
  5
B4A
330
B41
100
AcDbEntity
  8
DEFPOINTS
  6
ByBlock
 62
     0
100
AcDbPoint
 10
6750.422346654651
 20
3935.669811580359
 30
0.0
  0
POINT
  5
B4B
330
B41
100
AcDbEntity
  8
DEFPOINTS
  6
ByBlock
 62
     0
100
AcDbPoint
 10
6750.422346654651
 20
3835.669811580356
 30
0.0
  0
ENDBLK
  5
B4C
330
B41
100
AcDbEntity
  8
0
100
AcDbBlockEnd
  0
BLOCK
  5
B4F
330
B4E
100
AcDbEntity
  8
0
100
AcDbBlockBegin
  2
*D36
 70
     1
 10
0.0
 20
0.0
 30
0.0
  3
*D36
  1

  0
LINE
  5
B50
330
B4E
100
AcDbEntity
  8
0
  6
ByBlock
 62
     0
100
AcDbLine
 10
5750.42234665465
 20
3205.669811580355
 30
0.0
 11
5750.42234665465
 21
3115.669811580356
 31
0.0
  0
LINE
  5
B51
330
B4E
100
AcDbEntity
  8
0
  6
ByBlock
 62
     0
100
AcDbLine
 10
7750.422346654652
 20
3205.669811580361
 30
0.0
 11
7750.422346654652
 21
3115.669811580356
 31
0.0
  0
LINE
  5
B52
330
B4E
100
AcDbEntity
  8
0
  6
ByBlock
 62
     0
100
AcDbLine
 10
5770.42234665465
 20
3125.669811580356
 30
0.0
 11
7730.422346654652
 21
3125.669811580356
 31
0.0
  0
INSERT
  5
B53
330
B4E
100
AcDbEntity
  8
0
  6
ByBlock
 62
     0
100
AcDbBlockReference
  2
_OPEN
 10
5750.42234665465
 20
3125.669811580356
 30
0.0
 41
20.0
 42
20.0
 43
20.0
 50
180.0
  0
INSERT
  5
B54
330
B4E
100
AcDbEntity
  8
0
  6
ByBlock
 62
     0
100
AcDbBlockReference
  2
_OPEN
 10
7750.422346654652
 20
3125.669811580356
 30
0.0
 41
20.0
 42
20.0
 43
20.0
  0
MTEXT
  5
B55
330
B4E
100
AcDbEntity
  8
0
  6
ByBlock
 62
     0
100
AcDbMText
 10
6750.422346654651
 20
3150.669811580355
 30
0.0
 40
25.0
 41
0.0
 71
     5
 72
     1
  1
\A1;2000
 73
     1
 44
1.0
1001
ACAD
1000
MTEXTBEGIN
1070
    73
1070
     1
1070
    44
1040
1.0
1070
    74
1070
     0
1000
MTEXTEND
  0
POINT
  5
B56
330
B4E
100
AcDbEntity
  8
DEFPOINTS
  6
ByBlock
 62
     0
100
AcDbPoint
 10
5750.42234665465
 20
3235.669811580355
 30
0.0
  0
POINT
  5
B57
330
B4E
100
AcDbEntity
  8
DEFPOINTS
  6
ByBlock
 62
     0
100
AcDbPoint
 10
7750.422346654652
 20
3235.669811580361
 30
0.0
  0
POINT
  5
B58
330
B4E
100
AcDbEntity
  8
DEFPOINTS
  6
ByBlock
 62
     0
100
AcDbPoint
 10
7750.422346654652
 20
3125.669811580356
 30
0.0
  0
ENDBLK
  5
B59
330
B4E
100
AcDbEntity
  8
0
100
AcDbBlockEnd
  0
BLOCK
  5
BAA
330
BA9
100
AcDbEntity
  8
0
100
AcDbBlockBegin
  2
_DOT
 70
     0
 10
0.0
 20
0.0
 30
0.0
  3
_DOT
  1

  0
LWPOLYLINE
  5
BAB
330
BA9
100
AcDbEntity
  8
0
  6
ByBlock
 62
     0
100
AcDbPolyline
 90
        2
 70
     1
 43
0.5
 10
-0.25
 20
0.0
 42
1.0
 10
0.25
 20
0.0
 42
1.0
  0
LINE
  5
BAF
330
BA9
100
AcDbEntity
  8
0
  6
ByBlock
 62
     0
100
AcDbLine
 10
-0.5
 20
0.0
 30
0.0
 11
-1.0
 21
0.0
 31
0.0
  0
ENDBLK
  5
BB0
330
BA9
100
AcDbEntity
  8
0
100
AcDbBlockEnd
  0
BLOCK
  5
BFA
330
BF9
100
AcDbEntity
  8
0
100
AcDbBlockBegin
  2
*D38
 70
     1
 10
0.0
 20
0.0
 30
0.0
  3
*D38
  1

  0
LINE
  5
BFB
330
BF9
100
AcDbEntity
  8
0
  6
ByBlock
 62
     0
100
AcDbLine
 10
5104.294749266117
 20
1380.669811580356
 30
0.0
 11
5024.471990698055
 21
1380.669811580356
 31
0.0
  0
LINE
  5
BFC
330
BF9
100
AcDbEntity
  8
0
  6
ByBlock
 62
     0
100
AcDbLine
 10
5104.294749266117
 20
1480.669811580355
 30
0.0
 11
5024.471990698055
 21
1480.669811580355
 31
0.0
  0
LINE
  5
BFD
330
BF9
100
AcDbEntity
  8
0
  6
ByBlock
 62
     0
100
AcDbLine
 10
5034.471990698055
 20
1400.669811580356
 30
0.0
 11
5034.471990698055
 21
1460.669811580356
 31
0.0
  0
INSERT
  5
BFE
330
BF9
100
AcDbEntity
  8
0
  6
ByBlock
 62
     0
100
AcDbBlockReference
  2
_OPEN
 10
5034.471990698055
 20
1380.669811580356
 30
0.0
 41
20.0
 42
20.0
 43
20.0
 50
270.0
  0
INSERT
  5
BFF
330
BF9
100
AcDbEntity
  8
0
  6
ByBlock
 62
     0
100
AcDbBlockReference
  2
_OPEN
 10
5034.471990698055
 20
1480.669811580355
 30
0.0
 41
20.0
 42
20.0
 43
20.0
 50
90.0
  0
MTEXT
  5
C00
330
BF9
100
AcDbEntity
  8
0
  6
ByBlock
 62
     0
100
AcDbMText
 10
5009.471990698054
 20
1430.669811580355
 30
0.0
 40
25.0
 41
0.0
 71
     5
 72
     1
  1
\A1;100
 11
0.0000000000000001
 21
1.0
 31
0.0
 73
     1
 44
1.0
1001
ACAD
1000
MTEXTBEGIN
1070
    73
1070
     1
1070
    44
1040
1.0
1070
    74
1070
     0
1000
MTEXTEND
  0
POINT
  5
C01
330
BF9
100
AcDbEntity
  8
DEFPOINTS
  6
ByBlock
 62
     0
100
AcDbPoint
 10
5134.294749266118
 20
1380.669811580356
 30
0.0
  0
POINT
  5
C02
330
BF9
100
AcDbEntity
  8
DEFPOINTS
  6
ByBlock
 62
     0
100
AcDbPoint
 10
5134.294749266118
 20
1480.669811580355
 30
0.0
  0
POINT
  5
C03
330
BF9
100
AcDbEntity
  8
DEFPOINTS
  6
ByBlock
 62
     0
100
AcDbPoint
 10
5034.471990698055
 20
1480.669811580355
 30
0.0
  0
ENDBLK
  5
C04
330
BF9
100
AcDbEntity
  8
0
100
AcDbBlockEnd
  0
BLOCK
  5
C07
330
C06
100
AcDbEntity
  8
0
100
AcDbBlockBegin
  2
*D39
 70
     1
 10
0.0
 20
0.0
 30
0.0
  3
*D39
  1

  0
LINE
  5
C08
330
C06
100
AcDbEntity
  8
0
  6
ByBlock
 62
     0
100
AcDbLine
 10
5104.294749266119
 20
1625.669811580355
 30
0.0
 11
5024.471990698055
 21
1625.669811580355
 31
0.0
  0
LINE
  5
C09
330
C06
100
AcDbEntity
  8
0
  6
ByBlock
 62
     0
100
AcDbLine
 10
5034.471990698055
 20
1500.669811580356
 30
0.0
 11
5034.471990698055
 21
1605.669811580355
 31
0.0
  0
INSERT
  5
C0A
330
C06
100
AcDbEntity
  8
0
  6
ByBlock
 62
     0
100
AcDbBlockReference
  2
_OPEN
 10
5034.471990698055
 20
1480.669811580355
 30
0.0
 41
20.0
 42
20.0
 43
20.0
 50
270.0
  0
INSERT
  5
C0B
330
C06
100
AcDbEntity
  8
0
  6
ByBlock
 62
     0
100
AcDbBlockReference
  2
_OPEN
 10
5034.471990698055
 20
1625.669811580355
 30
0.0
 41
20.0
 42
20.0
 43
20.0
 50
90.0
  0
MTEXT
  5
C0C
330
C06
100
AcDbEntity
  8
0
  6
ByBlock
 62
     0
100
AcDbMText
 10
5009.471990698054
 20
1553.169811580355
 30
0.0
 40
25.0
 41
0.0
 71
     5
 72
     1
  1
\A1;145
 11
0.0000000000000001
 21
1.0
 31
0.0
 73
     1
 44
1.0
1001
ACAD
1000
MTEXTBEGIN
1070
    73
1070
     1
1070
    44
1040
1.0
1070
    74
1070
     0
1000
MTEXTEND
  0
POINT
  5
C0D
330
C06
100
AcDbEntity
  8
DEFPOINTS
  6
ByBlock
 62
     0
100
AcDbPoint
 10
5134.294749266118
 20
1480.669811580355
 30
0.0
  0
POINT
  5
C0E
330
C06
100
AcDbEntity
  8
DEFPOINTS
  6
ByBlock
 62
     0
100
AcDbPoint
 10
5134.294749266119
 20
1625.669811580355
 30
0.0
  0
POINT
  5
C0F
330
C06
100
AcDbEntity
  8
DEFPOINTS
  6
ByBlock
 62
     0
100
AcDbPoint
 10
5034.471990698055
 20
1625.669811580355
 30
0.0
  0
ENDBLK
  5
C10
330
C06
100
AcDbEntity
  8
0
100
AcDbBlockEnd
  0
BLOCK
  5
C13
330
C12
100
AcDbEntity
  8
0
100
AcDbBlockBegin
  2
*D40
 70
     1
 10
0.0
 20
0.0
 30
0.0
  3
*D40
  1

  0
LINE
  5
C14
330
C12
100
AcDbEntity
  8
0
  6
ByBlock
 62
     0
100
AcDbLine
 10
5139.294749266118
 20
1635.669811580356
 30
0.0
 11
5024.471990698055
 21
1635.669811580356
 31
0.0
  0
LINE
  5
C15
330
C12
100
AcDbEntity
  8
0
  6
ByBlock
 62
     0
100
AcDbLine
 10
5034.471990698055
 20
1605.669811580355
 30
0.0
 11
5034.471990698055
 21
1585.669811580356
 31
0.0
  0
LINE
  5
C16
330
C12
100
AcDbEntity
  8
0
  6
ByBlock
 62
     0
100
AcDbLine
 10
5034.471990698055
 20
1655.669811580355
 30
0.0
 11
5034.471990698055
 21
1675.669811580355
 31
0.0
  0
LINE
  5
C17
330
C12
100
AcDbEntity
  8
0
  6
ByBlock
 62
     0
100
AcDbLine
 10
5034.471990698055
 20
1625.669811580355
 30
0.0
 11
5034.471990698055
 21
1635.669811580356
 31
0.0
  0
INSERT
  5
C18
330
C12
100
AcDbEntity
  8
0
  6
ByBlock
 62
     0
100
AcDbBlockReference
  2
_OPEN
 10
5034.471990698055
 20
1625.669811580355
 30
0.0
 41
20.0
 42
20.0
 43
20.0
 50
90.0
  0
INSERT
  5
C19
330
C12
100
AcDbEntity
  8
0
  6
ByBlock
 62
     0
100
AcDbBlockReference
  2
_OPEN
 10
5034.471990698055
 20
1635.669811580356
 30
0.0
 41
20.0
 42
20.0
 43
20.0
 50
270.0
  0
MTEXT
  5
C1A
330
C12
100
AcDbEntity
  8
0
  6
ByBlock
 62
     0
100
AcDbMText
 10
5009.471990698054
 20
1630.669811580355
 30
0.0
 40
25.0
 41
0.0
 71
     5
 72
     1
  1
\A1;10
 11
0.0000000000000001
 21
1.0
 31
0.0
 73
     1
 44
1.0
1001
ACAD
1000
MTEXTBEGIN
1070
    73
1070
     1
1070
    44
1040
1.0
1070
    74
1070
     0
1000
MTEXTEND
  0
POINT
  5
C1B
330
C12
100
AcDbEntity
  8
DEFPOINTS
  6
ByBlock
 62
     0
100
AcDbPoint
 10
5134.294749266119
 20
1625.669811580355
 30
0.0
  0
POINT
  5
C1C
330
C12
100
AcDbEntity
  8
DEFPOINTS
  6
ByBlock
 62
     0
100
AcDbPoint
 10
5169.294749266118
 20
1635.669811580356
 30
0.0
  0
POINT
  5
C1D
330
C12
100
AcDbEntity
  8
DEFPOINTS
  6
ByBlock
 62
     0
100
AcDbPoint
 10
5034.471990698055
 20
1635.669811580356
 30
0.0
  0
ENDBLK
  5
C1E
330
C12
100
AcDbEntity
  8
0
100
AcDbBlockEnd
  0
BLOCK
  5
C21
330
C20
100
AcDbEntity
  8
0
100
AcDbBlockBegin
  2
*D41
 70
     1
 10
0.0
 20
0.0
 30
0.0
  3
*D41
  1

  0
LINE
  5
C22
330
C20
100
AcDbEntity
  8
0
  6
ByBlock
 62
     0
100
AcDbLine
 10
5139.294749266118
 20
1835.669811580356
 30
0.0
 11
5024.471990698055
 21
1835.669811580356
 31
0.0
  0
LINE
  5
C23
330
C20
100
AcDbEntity
  8
0
  6
ByBlock
 62
     0
100
AcDbLine
 10
5034.471990698055
 20
1655.669811580355
 30
0.0
 11
5034.471990698055
 21
1815.669811580356
 31
0.0
  0
INSERT
  5
C24
330
C20
100
AcDbEntity
  8
0
  6
ByBlock
 62
     0
100
AcDbBlockReference
  2
_OPEN
 10
5034.471990698055
 20
1635.669811580356
 30
0.0
 41
20.0
 42
20.0
 43
20.0
 50
270.0
  0
INSERT
  5
C25
330
C20
100
AcDbEntity
  8
0
  6
ByBlock
 62
     0
100
AcDbBlockReference
  2
_OPEN
 10
5034.471990698055
 20
1835.669811580356
 30
0.0
 41
20.0
 42
20.0
 43
20.0
 50
90.0
  0
MTEXT
  5
C26
330
C20
100
AcDbEntity
  8
0
  6
ByBlock
 62
     0
100
AcDbMText
 10
5009.471990698054
 20
1735.669811580355
 30
0.0
 40
25.0
 41
0.0
 71
     5
 72
     1
  1
\A1;200
 11
0.0000000000000001
 21
1.0
 31
0.0
 73
     1
 44
1.0
1001
ACAD
1000
MTEXTBEGIN
1070
    73
1070
     1
1070
    44
1040
1.0
1070
    74
1070
     0
1000
MTEXTEND
  0
POINT
  5
C27
330
C20
100
AcDbEntity
  8
DEFPOINTS
  6
ByBlock
 62
     0
100
AcDbPoint
 10
5169.294749266118
 20
1635.669811580356
 30
0.0
  0
POINT
  5
C28
330
C20
100
AcDbEntity
  8
DEFPOINTS
  6
ByBlock
 62
     0
100
AcDbPoint
 10
5169.294749266118
 20
1835.669811580356
 30
0.0
  0
POINT
  5
C29
330
C20
100
AcDbEntity
  8
DEFPOINTS
  6
ByBlock
 62
     0
100
AcDbPoint
 10
5034.471990698055
 20
1835.669811580356
 30
0.0
  0
ENDBLK
  5
C2A
330
C20
100
AcDbEntity
  8
0
100
AcDbBlockEnd
  0
BLOCK
  5
C2D
330
C2C
100
AcDbEntity
  8
0
100
AcDbBlockBegin
  2
*D42
 70
     1
 10
0.0
 20
0.0
 30
0.0
  3
*D42
  1

  0
LINE
  5
C2E
330
C2C
100
AcDbEntity
  8
0
  6
ByBlock
 62
     0
100
AcDbLine
 10
5134.294749266119
 20
1350.669811580355
 30
0.0
 11
5134.294749266119
 21
1274.993961448896
 31
0.0
  0
LINE
  5
C2F
330
C2C
100
AcDbEntity
  8
0
  6
ByBlock
 62
     0
100
AcDbLine
 10
5834.294749266118
 20
1350.669811580354
 30
0.0
 11
5834.294749266118
 21
1274.993961448896
 31
0.0
  0
LINE
  5
C30
330
C2C
100
AcDbEntity
  8
0
  6
ByBlock
 62
     0
100
AcDbLine
 10
5154.29474926612
 20
1284.993961448896
 30
0.0
 11
5814.294749266117
 21
1284.993961448896
 31
0.0
  0
INSERT
  5
C31
330
C2C
100
AcDbEntity
  8
0
  6
ByBlock
 62
     0
100
AcDbBlockReference
  2
_OPEN
 10
5134.294749266119
 20
1284.993961448896
 30
0.0
 41
20.0
 42
20.0
 43
20.0
 50
180.0
  0
INSERT
  5
C32
330
C2C
100
AcDbEntity
  8
0
  6
ByBlock
 62
     0
100
AcDbBlockReference
  2
_OPEN
 10
5834.294749266118
 20
1284.993961448896
 30
0.0
 41
20.0
 42
20.0
 43
20.0
  0
MTEXT
  5
C33
330
C2C
100
AcDbEntity
  8
0
  6
ByBlock
 62
     0
100
AcDbMText
 10
5484.294749266119
 20
1309.993961448897
 30
0.0
 40
25.0
 41
0.0
 71
     5
 72
     1
  1
\A1;700
 73
     1
 44
1.0
1001
ACAD
1000
MTEXTBEGIN
1070
    73
1070
     1
1070
    44
1040
1.0
1070
    74
1070
     0
1000
MTEXTEND
  0
POINT
  5
C34
330
C2C
100
AcDbEntity
  8
DEFPOINTS
  6
ByBlock
 62
     0
100
AcDbPoint
 10
5134.294749266119
 20
1380.669811580355
 30
0.0
  0
POINT
  5
C35
330
C2C
100
AcDbEntity
  8
DEFPOINTS
  6
ByBlock
 62
     0
100
AcDbPoint
 10
5834.294749266118
 20
1380.669811580354
 30
0.0
  0
POINT
  5
C36
330
C2C
100
AcDbEntity
  8
DEFPOINTS
  6
ByBlock
 62
     0
100
AcDbPoint
 10
5834.294749266118
 20
1284.993961448896
 30
0.0
  0
ENDBLK
  5
C37
330
C2C
100
AcDbEntity
  8
0
100
AcDbBlockEnd
  0
BLOCK
  5
C41
330
C3A
100
AcDbEntity
  8
0
100
AcDbBlockBegin
  2
GURIISI
 70
     0
 10
0.0
 20
0.0
 30
0.0
  3
GURIISI
  1

  0
ELLIPSE
  5
C3B
330
C3A
100
AcDbEntity
  8
0
100
AcDbEllipse
 10
106.9717847756565
 20
51.80385637475501
 30
0.0
 11
-18.10800601554684
 21
-49.7513376390632
 31
0.0
210
0.0
220
0.0
230
1.0
 40
0.6370965814071999
 41
0.0
 42
6.283185307179586
  0
ELLIPSE
  5
C3C
330
C3A
100
AcDbEntity
  8
0
100
AcDbEllipse
 10
36.88841281398345
 20
51.80385637475501
 30
0.0
 11
-18.10800601554684
 21
-49.7513376390632
 31
0.0
210
0.0
220
0.0
230
1.0
 40
0.6370965814071999
 41
0.0
 42
6.283185307179586
  0
ELLIPSE
  5
C3D
330
C3A
100
AcDbEntity
  8
0
100
AcDbEllipse
 10
177.0551567373268
 20
51.80385637475501
 30
0.0
 11
-18.10800601554684
 21
-49.7513376390632
 31
0.0
210
0.0
220
0.0
230
1.0
 40
0.6370965814071999
 41
2.540389369560635
 42
7.922479761453955
  0
ELLIPSE
  5
C3E
330
C3A
100
AcDbEntity
  8
0
100
AcDbEllipse
 10
106.9717847756565
 20
148.803856374755
 30
0.0
 11
-18.10800601554684
 21
-49.7513376390632
 31
0.0
210
0.0
220
0.0
230
1.0
 40
0.6370965814071999
 41
0.0
 42
6.283185307179586
  0
ELLIPSE
  5
C3F
330
C3A
100
AcDbEntity
  8
0
100
AcDbEllipse
 10
36.88841281398345
 20
148.803856374755
 30
0.0
 11
-18.10800601554684
 21
-49.7513376390632
 31
0.0
210
0.0
220
0.0
230
1.0
 40
0.6370965814071999
 41
0.0
 42
6.283185307179586
  0
ELLIPSE
  5
C40
330
C3A
100
AcDbEntity
  8
0
100
AcDbEllipse
 10
177.0551567373268
 20
148.803856374755
 30
0.0
 11
-18.10800601554684
 21
-49.7513376390632
 31
0.0
210
0.0
220
0.0
230
1.0
 40
0.6370965814071999
 41
2.540389369560626
 42
7.92247976145397
  0
ENDBLK
  5
C42
330
C3A
100
AcDbEntity
  8
0
100
AcDbBlockEnd
  0
BLOCK
  5
CF3
330
CF2
100
AcDbEntity
  8
0
100
AcDbBlockBegin
  2
*D44
 70
     1
 10
0.0
 20
0.0
 30
0.0
  3
*D44
  1

  0
LINE
  5
CF4
330
CF2
100
AcDbEntity
  8
0
  6
ByBlock
 62
     0
100
AcDbLine
 10
5334.294749266119
 20
1715.669811580356
 30
0.0
 11
5334.294749266119
 21
1945.669811580356
 31
0.0
  0
LINE
  5
CF5
330
CF2
100
AcDbEntity
  8
0
  6
ByBlock
 62
     0
100
AcDbLine
 10
5834.294749266119
 20
1745.669811580356
 30
0.0
 11
5834.294749266119
 21
1945.669811580356
 31
0.0
  0
LINE
  5
CF6
330
CF2
100
AcDbEntity
  8
0
  6
ByBlock
 62
     0
100
AcDbLine
 10
5354.294749266119
 20
1935.669811580355
 30
0.0
 11
5814.294749266118
 21
1935.669811580355
 31
0.0
  0
INSERT
  5
CF7
330
CF2
100
AcDbEntity
  8
0
  6
ByBlock
 62
     0
100
AcDbBlockReference
  2
_OPEN
 10
5334.294749266119
 20
1935.669811580355
 30
0.0
 41
20.0
 42
20.0
 43
20.0
 50
180.0
  0
INSERT
  5
CF8
330
CF2
100
AcDbEntity
  8
0
  6
ByBlock
 62
     0
100
AcDbBlockReference
  2
_OPEN
 10
5834.294749266119
 20
1935.669811580355
 30
0.0
 41
20.0
 42
20.0
 43
20.0
  0
MTEXT
  5
CF9
330
CF2
100
AcDbEntity
  8
0
  6
ByBlock
 62
     0
100
AcDbMText
 10
5584.294749266119
 20
1960.669811580356
 30
0.0
 40
25.0
 41
0.0
 71
     5
 72
     1
  1
\A1;500
 73
     1
 44
1.0
1001
ACAD
1000
MTEXTBEGIN
1070
    73
1070
     1
1070
    44
1040
1.0
1070
    74
1070
     0
1000
MTEXTEND
  0
POINT
  5
CFA
330
CF2
100
AcDbEntity
  8
DEFPOINTS
  6
ByBlock
 62
     0
100
AcDbPoint
 10
5334.294749266119
 20
1685.669811580356
 30
0.0
  0
POINT
  5
CFB
330
CF2
100
AcDbEntity
  8
DEFPOINTS
  6
ByBlock
 62
     0
100
AcDbPoint
 10
5834.294749266119
 20
1715.669811580356
 30
0.0
  0
POINT
  5
CFC
330
CF2
100
AcDbEntity
  8
DEFPOINTS
  6
ByBlock
 62
     0
100
AcDbPoint
 10
5834.294749266119
 20
1935.669811580355
 30
0.0
  0
ENDBLK
  5
CFD
330
CF2
100
AcDbEntity
  8
0
100
AcDbBlockEnd
  0
ENDSEC
  0
SECTION
  2
ENTITIES
  0
MTEXT
  5
CA
330
67
100
AcDbEntity
  8
1-構造
  6
Continuous
 62
     7
100
AcDbMText
 10
34848.0
 20
72131.0
 30
0.0
 40
320.0
 41
0.0
 71
     7
 72
     5
  1

  7
DIM
 73
     1
 44
1.0
1001
ACAD
1000
MTEXTBEGIN
1070
    73
1070
     1
1070
    44
1040
1.0
1070
    74
1070
     0
1000
MTEXTEND
  0
LINE
  5
770
330
67
100
AcDbEntity
  8
DEFPOINTS
 48
10.0
100
AcDbLine
 10
0.0
 20
5940.0
 30
0.0
 11
0.0
 21
0.0
 31
0.0
  0
LINE
  5
772
330
67
100
AcDbEntity
  8
DEFPOINTS
 48
10.0
100
AcDbLine
 10
0.0
 20
0.0
 30
0.0
 11
8410.0
 21
0.0
 31
0.0
  0
LINE
  5
78C
330
67
100
AcDbEntity
  8
DEFPOINTS
 48
10.0
100
AcDbLine
 10
8410.0
 20
5940.0
 30
0.0
 11
8410.0
 21
0.0
 31
0.0
  0
LINE
  5
78D
330
67
100
AcDbEntity
  8
DEFPOINTS
 48
10.0
100
AcDbLine
 10
0.0
 20
5940.0
 30
0.0
 11
8410.0
 21
5940.0
 31
0.0
  0
LINE
  5
792
330
67
100
AcDbEntity
  8
DEFPOINTS
 48
10.0
100
AcDbLine
 10
8210.0
 20
5740.0
 30
0.0
 11
8210.0
 21
200.0
 31
0.0
  0
LINE
  5
793
330
67
100
AcDbEntity
  8
DEFPOINTS
 48
10.0
100
AcDbLine
 10
200.0
 20
200.0
 30
0.0
 11
8210.0
 21
200.0
 31
0.0
  0
LINE
  5
794
330
67
100
AcDbEntity
  8
DEFPOINTS
 48
10.0
100
AcDbLine
 10
200.0
 20
5740.0
 30
0.0
 11
200.0
 21
200.0
 31
0.0
  0
LINE
  5
795
330
67
100
AcDbEntity
  8
DEFPOINTS
 48
10.0
100
AcDbLine
 10
200.0
 20
5740.0
 30
0.0
 11
8210.0
 21
5740.0
 31
0.0
  0
LINE
  5
796
330
67
100
AcDbEntity
  8
1-構造
100
AcDbLine
 10
1069.294749266119
 20
4635.669811580355
 30
0.0
 11
1201.194998023877
 21
4635.669811580355
 31
0.0
  0
LINE
  5
797
330
67
100
AcDbEntity
  8
1-構造
100
AcDbLine
 10
1069.294749266119
 20
4635.669811580355
 30
0.0
 11
1069.294749266119
 21
4435.669811580356
 31
0.0
  0
LINE
  5
79A
330
67
100
AcDbEntity
  8
1-構造
100
AcDbLine
 10
1069.294749266119
 20
4435.669811580356
 30
0.0
 11
1239.294749266119
 21
4435.669811580356
 31
0.0
  0
LINE
  5
79B
330
67
100
AcDbEntity
  8
1-構造
100
AcDbLine
 10
1221.095741828077
 20
4617.659885960775
 30
0.0
 11
1239.294749266119
 21
4435.669811580356
 31
0.0
  0
ARC
  5
79C
330
67
100
AcDbEntity
  8
1-構造
100
AcDbCircle
 10
1201.194998023877
 20
4615.669811580356
 30
0.0
 40
20.0
100
AcDbArc
 50
5.710593137499633
 51
90.0
  0
ARC
  5
79E
330
67
100
AcDbEntity
  8
1-構造
100
AcDbCircle
 10
1201.194998023877
 20
4115.669811580356
 30
0.0
 40
20.0
100
AcDbArc
 50
5.710593137499633
 51
90.0
  0
LINE
  5
79F
330
67
100
AcDbEntity
  8
1-構造
100
AcDbLine
 10
1069.294749266119
 20
4135.669811580355
 30
0.0
 11
1069.294749266119
 21
3935.669811580356
 31
0.0
  0
LINE
  5
7A0
330
67
100
AcDbEntity
  8
1-構造
100
AcDbLine
 10
1069.294749266119
 20
3935.669811580356
 30
0.0
 11
1239.294749266119
 21
3935.669811580356
 31
0.0
  0
LINE
  5
7A1
330
67
100
AcDbEntity
  8
1-構造
100
AcDbLine
 10
1221.095741828077
 20
4117.659885960775
 30
0.0
 11
1239.294749266119
 21
3935.669811580356
 31
0.0
  0
LINE
  5
7A3
330
67
100
AcDbEntity
  8
1-構造
100
AcDbLine
 10
1069.294749266119
 20
4135.669811580355
 30
0.0
 11
1201.194998023877
 21
4135.669811580355
 31
0.0
  0
LINE
  5
7A4
330
67
100
AcDbEntity
  8
1-構造
100
AcDbLine
 10
1221.095741828077
 20
3617.659885960776
 30
0.0
 11
1239.294749266119
 21
3435.669811580356
 31
0.0
  0
LINE
  5
7A5
330
67
100
AcDbEntity
  8
1-構造
100
AcDbLine
 10
1069.294749266119
 20
3635.669811580356
 30
0.0
 11
1069.294749266119
 21
3435.669811580356
 31
0.0
  0
LINE
  5
7A6
330
67
100
AcDbEntity
  8
1-構造
100
AcDbLine
 10
1069.294749266119
 20
3435.669811580356
 30
0.0
 11
1239.294749266119
 21
3435.669811580356
 31
0.0
  0
LINE
  5
7A8
330
67
100
AcDbEntity
  8
1-構造
100
AcDbLine
 10
1069.294749266119
 20
3635.669811580356
 30
0.0
 11
1201.194998023877
 21
3635.669811580356
 31
0.0
  0
ARC
  5
7A9
330
67
100
AcDbEntity
  8
1-構造
100
AcDbCircle
 10
1201.194998023877
 20
3615.669811580356
 30
0.0
 40
20.0
100
AcDbArc
 50
5.710593137499633
 51
90.0
  0
LINE
  5
7B0
330
67
100
AcDbEntity
  8
1-構造
100
AcDbLine
 10
1069.294749266119
 20
2335.635056008459
 30
0.0
 11
1069.294749266119
 21
2085.635056008459
 31
0.0
  0
LINE
  5
7B3
330
67
100
AcDbEntity
  8
1-構造
100
AcDbLine
 10
1069.294749266119
 20
2335.635056008459
 30
0.0
 11
1222.145122402756
 21
2335.635056008459
 31
0.0
  0
LINE
  5
7B9
330
67
100
AcDbEntity
  8
1-構造
100
AcDbLine
 10
1069.294749266119
 20
2085.635056008459
 30
0.0
 11
1274.294749266118
 21
2085.635056008459
 31
0.0
  0
LINE
  5
7BA
330
67
100
AcDbEntity
  8
1-構造
100
AcDbLine
 10
1251.996238109056
 20
2308.62016757909
 30
0.0
 11
1274.294749266118
 21
2085.635056008459
 31
0.0
  0
ARC
  5
7BB
330
67
100
AcDbEntity
  8
1-構造
100
AcDbCircle
 10
1222.145122402756
 20
2305.635056008459
 30
0.0
 40
30.0
100
AcDbArc
 50
5.710593137499633
 51
90.0
  0
DIMENSION
  5
810
330
67
100
AcDbEntity
  8
6-寸法
100
AcDbDimension
  2
*D1
 10
969.2947492661188
 20
4435.669811580356
 30
0.0
 11
944.2947492661188
 21
4535.669811580356
 31
0.0
 12
0.0
 22
-200.0
 32
0.0
 70
    32
 71
     5
 42
-1.0
  3
STANDARD
100
AcDbAlignedDimension
 13
1069.294749266119
 23
4635.669811580355
 33
0.0
 14
1069.294749266119
 24
4435.669811580356
 34
0.0
 50
90.0
100
AcDbRotatedDimension
1001
ACAD
1000
DSTYLE
1002
{
1070
    40
1040
10.0
1070
   173
1070
     1
1070
    42
1040
3.0
1070
     7
1000
_OPEN
1070
     6
1000
_OPEN
1070
    41
1040
2.0
1002
}
  0
DIMENSION
  5
81D
330
67
100
AcDbEntity
  8
6-寸法
100
AcDbDimension
  2
*D2
 10
1219.294749266119
 20
4735.669811580356
 30
0.0
 11
1144.294749266119
 21
4760.669811580355
 31
0.0
 12
0.0
 22
-200.0
 32
0.0
 70
    32
 71
     5
 42
-1.0
  3
STANDARD
100
AcDbAlignedDimension
 13
1069.294749266119
 23
4635.669811580355
 33
0.0
 14
1219.294749266119
 24
4635.669811580355
 34
0.0
100
AcDbRotatedDimension
1001
ACAD
1000
DSTYLE
1002
{
1070
    40
1040
10.0
1070
   173
1070
     1
1070
    42
1040
3.0
1070
     7
1000
_OPEN
1070
     6
1000
_OPEN
1070
    41
1040
2.0
1002
}
  0
DIMENSION
  5
82A
330
67
100
AcDbEntity
  8
6-寸法
100
AcDbDimension
  2
*D3
 10
1239.294749266119
 20
4335.669811580356
 30
0.0
 11
1154.294749266119
 21
4360.669811580356
 31
0.0
 12
0.0
 22
-200.0
 32
0.0
 70
    32
 71
     5
 42
-1.0
  3
STANDARD
100
AcDbAlignedDimension
 13
1069.294749266119
 23
4435.669811580356
 33
0.0
 14
1239.294749266119
 24
4435.669811580356
 34
0.0
100
AcDbRotatedDimension
1001
ACAD
1000
DSTYLE
1002
{
1070
    40
1040
10.0
1070
   173
1070
     1
1070
    42
1040
3.0
1070
     7
1000
_OPEN
1070
     6
1000
_OPEN
1070
    41
1040
2.0
1002
}
  0
MTEXT
  5
854
330
67
100
AcDbEntity
  8
0
  6
ByBlock
 62
     0
100
AcDbMText
 10
1161.291203557659
 20
4602.340324543762
 30
0.0
 40
25.0
 41
0.0
 71
     5
 72
     1
  1
\A1;R20
 11
0.6641864907109964
 21
0.7475669237981384
 31
0.0
 73
     1
 44
1.0
1001
ACAD
1000
MTEXTBEGIN
1070
    73
1070
     1
1070
    44
1040
1.0
1070
    74
1070
     0
1000
MTEXTEND
  0
LINE
  5
855
330
67
100
AcDbEntity
  8
0
  6
ByBlock
 62
     0
100
AcDbLine
 10
1144.918171740093
 20
4552.328122921417
 30
0.0
 11
1214.478727838096
 21
4630.621150056319
 31
0.0
  0
POINT
  5
858
330
67
100
AcDbEntity
  8
DEFPOINTS
  6
ByBlock
 62
     0
100
AcDbPoint
 10
1201.194998023876
 20
4615.669811580356
 30
0.0
  0
INSERT
  5
85D
330
67
100
AcDbEntity
  8
0
  6
ByBlock
 62
     0
100
AcDbBlockReference
  2
_OPEN
 10
1214.478727838099
 20
4630.62115005632
 30
0.0
 41
-20.0
 42
20.0
 43
20.0
 50
228.3800545900512
  0
DIMENSION
  5
85F
330
67
100
AcDbEntity
  8
6-寸法
100
AcDbDimension
  2
*D6
 10
1239.294749266119
 20
3835.669811580356
 30
0.0
 11
1154.294749266119
 21
3860.669811580356
 31
0.0
 12
0.0
 22
-750.0
 32
0.0
 70
    32
 71
     5
 42
-1.0
  3
STANDARD
100
AcDbAlignedDimension
 13
1069.294749266119
 23
3935.669811580356
 33
0.0
 14
1239.294749266119
 24
3935.669811580356
 34
0.0
100
AcDbRotatedDimension
1001
ACAD
1000
DSTYLE
1002
{
1070
    40
1040
10.0
1070
   173
1070
     1
1070
    42
1040
3.0
1070
     7
1000
_OPEN
1070
     6
1000
_OPEN
1070
    41
1040
2.0
1002
}
  0
DIMENSION
  5
860
330
67
100
AcDbEntity
  8
6-寸法
100
AcDbDimension
  2
*D4
 10
969.2947492661188
 20
3935.669811580356
 30
0.0
 11
944.2947492661188
 21
4035.669811580356
 31
0.0
 12
0.0
 22
-750.0
 32
0.0
 70
    32
 71
     5
 42
-1.0
  3
STANDARD
100
AcDbAlignedDimension
 13
1069.294749266119
 23
4135.669811580355
 33
0.0
 14
1069.294749266119
 24
3935.669811580356
 34
0.0
 50
90.0
100
AcDbRotatedDimension
1001
ACAD
1000
DSTYLE
1002
{
1070
    40
1040
10.0
1070
   173
1070
     1
1070
    42
1040
3.0
1070
     7
1000
_OPEN
1070
     6
1000
_OPEN
1070
    41
1040
2.0
1002
}
  0
MTEXT
  5
861
330
67
100
AcDbEntity
  8
0
  6
ByBlock
 62
     0
100
AcDbMText
 10
1161.291203557659
 20
4102.340324543762
 30
0.0
 40
25.0
 41
0.0
 71
     5
 72
     1
  1
\A1;R20
 11
0.6641864907109964
 21
0.7475669237981384
 31
0.0
 73
     1
 44
1.0
1001
ACAD
1000
MTEXTBEGIN
1070
    73
1070
     1
1070
    44
1040
1.0
1070
    74
1070
     0
1000
MTEXTEND
  0
LINE
  5
862
330
67
100
AcDbEntity
  8
0
  6
ByBlock
 62
     0
100
AcDbLine
 10
1144.918171740093
 20
4052.328122921417
 30
0.0
 11
1214.478727838096
 21
4130.621150056319
 31
0.0
  0
INSERT
  5
863
330
67
100
AcDbEntity
  8
0
  6
ByBlock
 62
     0
100
AcDbBlockReference
  2
_OPEN
 10
1214.478727838099
 20
4130.62115005632
 30
0.0
 41
-20.0
 42
20.0
 43
20.0
 50
228.3800545900512
  0
DIMENSION
  5
864
330
67
100
AcDbEntity
  8
6-寸法
100
AcDbDimension
  2
*D5
 10
1219.294749266119
 20
4235.669811580356
 30
0.0
 11
1144.294749266119
 21
4260.669811580355
 31
0.0
 12
0.0
 22
-750.0
 32
0.0
 70
    32
 71
     5
 42
-1.0
  3
STANDARD
100
AcDbAlignedDimension
 13
1069.294749266119
 23
4135.669811580355
 33
0.0
 14
1219.294749266119
 24
4135.669811580355
 34
0.0
100
AcDbRotatedDimension
1001
ACAD
1000
DSTYLE
1002
{
1070
    40
1040
10.0
1070
   173
1070
     1
1070
    42
1040
3.0
1070
     7
1000
_OPEN
1070
     6
1000
_OPEN
1070
    41
1040
2.0
1002
}
  0
DIMENSION
  5
889
330
67
100
AcDbEntity
  8
6-寸法
100
AcDbDimension
  2
*D7
 10
1239.294749266119
 20
3335.669811580356
 30
0.0
 11
1154.294749266119
 21
3360.669811580355
 31
0.0
 12
0.0
 22
-800.0
 32
0.0
 70
    32
 71
     5
 42
-1.0
  3
STANDARD
100
AcDbAlignedDimension
 13
1069.294749266119
 23
3435.669811580356
 33
0.0
 14
1239.294749266119
 24
3435.669811580356
 34
0.0
100
AcDbRotatedDimension
1001
ACAD
1000
DSTYLE
1002
{
1070
    40
1040
10.0
1070
   173
1070
     1
1070
    42
1040
3.0
1070
     7
1000
_OPEN
1070
     6
1000
_OPEN
1070
    41
1040
2.0
1002
}
  0
DIMENSION
  5
88A
330
67
100
AcDbEntity
  8
6-寸法
100
AcDbDimension
  2
*D8
 10
969.2947492661188
 20
3435.669811580356
 30
0.0
 11
944.2947492661188
 21
3535.669811580356
 31
0.0
 12
0.0
 22
-800.0
 32
0.0
 70
    32
 71
     5
 42
-1.0
  3
STANDARD
100
AcDbAlignedDimension
 13
1069.294749266119
 23
3635.669811580356
 33
0.0
 14
1069.294749266119
 24
3435.669811580356
 34
0.0
 50
90.0
100
AcDbRotatedDimension
1001
ACAD
1000
DSTYLE
1002
{
1070
    40
1040
10.0
1070
   173
1070
     1
1070
    42
1040
3.0
1070
     7
1000
_OPEN
1070
     6
1000
_OPEN
1070
    41
1040
2.0
1002
}
  0
LINE
  5
88B
330
67
100
AcDbEntity
  8
0
  6
ByBlock
 62
     0
100
AcDbLine
 10
1144.918171740093
 20
3552.328122921417
 30
0.0
 11
1214.478727838096
 21
3630.621150056319
 31
0.0
  0
MTEXT
  5
88C
330
67
100
AcDbEntity
  8
0
  6
ByBlock
 62
     0
100
AcDbMText
 10
1161.291203557659
 20
3602.340324543762
 30
0.0
 40
25.0
 41
0.0
 71
     5
 72
     1
  1
\A1;R20
 11
0.6641864907109964
 21
0.7475669237981384
 31
0.0
 73
     1
 44
1.0
1001
ACAD
1000
MTEXTBEGIN
1070
    73
1070
     1
1070
    44
1040
1.0
1070
    74
1070
     0
1000
MTEXTEND
  0
INSERT
  5
88D
330
67
100
AcDbEntity
  8
0
  6
ByBlock
 62
     0
100
AcDbBlockReference
  2
_OPEN
 10
1214.478727838099
 20
3630.621150056321
 30
0.0
 41
-20.0
 42
20.0
 43
20.0
 50
228.3800545900512
  0
DIMENSION
  5
88E
330
67
100
AcDbEntity
  8
6-寸法
100
AcDbDimension
  2
*D9
 10
1219.294749266119
 20
3735.669811580356
 30
0.0
 11
1144.294749266119
 21
3760.669811580356
 31
0.0
 12
0.0
 22
-800.0
 32
0.0
 70
    32
 71
     5
 42
-1.0
  3
STANDARD
100
AcDbAlignedDimension
 13
1069.294749266119
 23
3635.669811580356
 33
0.0
 14
1219.294749266119
 24
3635.669811580356
 34
0.0
100
AcDbRotatedDimension
1001
ACAD
1000
DSTYLE
1002
{
1070
    40
1040
10.0
1070
   173
1070
     1
1070
    42
1040
3.0
1070
     7
1000
_OPEN
1070
     6
1000
_OPEN
1070
    41
1040
2.0
1002
}
  0
DIMENSION
  5
8C2
330
67
100
AcDbEntity
  8
6-寸法
100
AcDbDimension
  2
*D10
 10
969.2947492661188
 20
2085.635056008459
 30
0.0
 11
944.2947492661188
 21
2210.635056008459
 31
0.0
 12
0.0
 22
-900.0347555718958
 32
0.0
 70
    32
 71
     5
 42
-1.0
  3
STANDARD
100
AcDbAlignedDimension
 13
1069.294749266119
 23
2335.635056008459
 33
0.0
 14
1069.294749266119
 24
2085.635056008459
 34
0.0
 50
90.0
100
AcDbRotatedDimension
1001
ACAD
1000
DSTYLE
1002
{
1070
    40
1040
10.0
1070
   173
1070
     1
1070
    42
1040
3.0
1070
     7
1000
_OPEN
1070
     6
1000
_OPEN
1070
    41
1040
2.0
1002
}
  0
DIMENSION
  5
8CF
330
67
100
AcDbEntity
  8
6-寸法
100
AcDbDimension
  2
*D11
 10
1274.294749266118
 20
1985.635056008459
 30
0.0
 11
1171.794749266118
 21
2010.63505600846
 31
0.0
 12
0.0
 22
-900.0347555718958
 32
0.0
 70
    32
 71
     5
 42
-1.0
  3
STANDARD
100
AcDbAlignedDimension
 13
1069.294749266119
 23
2085.635056008459
 33
0.0
 14
1274.294749266118
 24
2085.635056008459
 34
0.0
100
AcDbRotatedDimension
1001
ACAD
1000
DSTYLE
1002
{
1070
    40
1040
10.0
1070
   173
1070
     1
1070
    42
1040
3.0
1070
     7
1000
_OPEN
1070
     6
1000
_OPEN
1070
    41
1040
2.0
1002
}
  0
DIMENSION
  5
8DC
330
67
100
AcDbEntity
  8
6-寸法
100
AcDbDimension
  2
*D12
 10
1249.294749266119
 20
2435.63505600846
 30
0.0
 11
1159.294749266118
 21
2460.635056008459
 31
0.0
 12
0.0
 22
-900.0347555718958
 32
0.0
 70
    32
 71
     5
 42
-1.0
  3
STANDARD
100
AcDbAlignedDimension
 13
1069.294749266119
 23
2335.635056008459
 33
0.0
 14
1249.294749266119
 24
2335.635056008459
 34
0.0
100
AcDbRotatedDimension
1001
ACAD
1000
DSTYLE
1002
{
1070
    40
1040
10.0
1070
   173
1070
     1
1070
    42
1040
3.0
1070
     7
1000
_OPEN
1070
     6
1000
_OPEN
1070
    41
1040
2.0
1002
}
  0
LINE
  5
8E5
330
67
100
AcDbEntity
  8
1-構造
100
AcDbLine
 10
1873.923165362892
 20
4635.669811580355
 30
0.0
 11
1873.923165362892
 21
4435.669811580356
 31
0.0
  0
LINE
  5
8E7
330
67
100
AcDbEntity
  8
1-構造
100
AcDbLine
 10
1873.923165362892
 20
3635.669811580356
 30
0.0
 11
1873.923165362892
 21
3435.669811580356
 31
0.0
  0
LINE
  5
8E8
330
67
100
AcDbEntity
  8
1-構造
100
AcDbLine
 10
1873.923165362892
 20
4135.669811580355
 30
0.0
 11
1873.923165362892
 21
3935.669811580356
 31
0.0
  0
LINE
  5
8E9
330
67
100
AcDbEntity
  8
1-構造
100
AcDbLine
 10
2473.923165362892
 20
4635.669811580355
 30
0.0
 11
2473.923165362892
 21
4435.669811580356
 31
0.0
  0
LINE
  5
8EA
330
67
100
AcDbEntity
  8
1-構造
100
AcDbLine
 10
2873.923165362893
 20
4135.669811580354
 30
0.0
 11
2873.923165362893
 21
3935.669811580354
 31
0.0
  0
LINE
  5
8EB
330
67
100
AcDbEntity
  8
1-構造
100
AcDbLine
 10
3873.923165362892
 20
3635.669811580356
 30
0.0
 11
3873.923165362892
 21
3435.669811580356
 31
0.0
  0
LINE
  5
8EC
330
67
100
AcDbEntity
  8
1-構造
100
AcDbLine
 10
1873.923165362892
 20
4635.669811580355
 30
0.0
 11
2473.923165362892
 21
4635.669811580355
 31
0.0
  0
LINE
  5
8EF
330
67
100
AcDbEntity
  8
1-構造
100
AcDbLine
 10
1873.923165362892
 20
4435.669811580356
 30
0.0
 11
2473.923165362892
 21
4435.669811580356
 31
0.0
  0
LINE
  5
8F1
330
67
100
AcDbEntity
  8
1-構造
100
AcDbLine
 10
1873.923165362892
 20
4135.669811580355
 30
0.0
 11
2873.923165362893
 21
4135.669811580355
 31
0.0
  0
LINE
  5
8F2
330
67
100
AcDbEntity
  8
1-構造
100
AcDbLine
 10
1873.923165362892
 20
3935.669811580356
 30
0.0
 11
2873.923165362893
 21
3935.669811580356
 31
0.0
  0
LINE
  5
8F3
330
67
100
AcDbEntity
  8
1-構造
100
AcDbLine
 10
1873.923165362892
 20
3635.669811580356
 30
0.0
 11
3873.923165362891
 21
3635.669811580356
 31
0.0
  0
LINE
  5
8F4
330
67
100
AcDbEntity
  8
1-構造
100
AcDbLine
 10
1873.923165362892
 20
3435.669811580356
 30
0.0
 11
3873.923165362891
 21
3435.669811580356
 31
0.0
  0
DIMENSION
  5
914
330
67
100
AcDbEntity
  8
6-寸法
100
AcDbDimension
  2
*D13
 10
2473.923165362892
 20
4335.669811580356
 30
0.0
 11
2173.923165362892
 21
4360.669811580356
 31
0.0
 12
0.0
 22
-300.0
 32
0.0
 70
    32
 71
     5
 42
-1.0
  3
STANDARD
100
AcDbAlignedDimension
 13
1873.923165362892
 23
4435.669811580356
 33
0.0
 14
2473.923165362892
 24
4435.669811580356
 34
0.0
100
AcDbRotatedDimension
1001
ACAD
1000
DSTYLE
1002
{
1070
    40
1040
10.0
1070
   173
1070
     1
1070
    42
1040
3.0
1070
     7
1000
_OPEN
1070
     6
1000
_OPEN
1070
    41
1040
2.0
1002
}
  0
DIMENSION
  5
921
330
67
100
AcDbEntity
  8
6-寸法
100
AcDbDimension
  2
*D14
 10
2873.923165362893
 20
3835.669811580356
 30
0.0
 11
2373.923165362892
 21
3860.669811580356
 31
0.0
 12
0.0
 22
-300.0
 32
0.0
 70
    32
 71
     5
 42
-1.0
  3
STANDARD
100
AcDbAlignedDimension
 13
1873.923165362892
 23
3935.669811580356
 33
0.0
 14
2873.923165362893
 24
3935.669811580354
 34
0.0
100
AcDbRotatedDimension
1001
ACAD
1000
DSTYLE
1002
{
1070
    40
1040
10.0
1070
   173
1070
     1
1070
    42
1040
3.0
1070
     7
1000
_OPEN
1070
     6
1000
_OPEN
1070
    41
1040
2.0
1002
}
  0
DIMENSION
  5
92E
330
67
100
AcDbEntity
  8
6-寸法
100
AcDbDimension
  2
*D15
 10
3873.923165362892
 20
3335.669811580356
 30
0.0
 11
2873.923165362893
 21
3360.669811580355
 31
0.0
 12
0.0
 22
-300.0
 32
0.0
 70
    32
 71
     5
 42
-1.0
  3
STANDARD
100
AcDbAlignedDimension
 13
1873.923165362892
 23
3435.669811580356
 33
0.0
 14
3873.923165362892
 24
3435.669811580356
 34
0.0
100
AcDbRotatedDimension
1001
ACAD
1000
DSTYLE
1002
{
1070
    40
1040
10.0
1070
   173
1070
     1
1070
    42
1040
3.0
1070
     7
1000
_OPEN
1070
     6
1000
_OPEN
1070
    41
1040
2.0
1002
}
  0
DIMENSION
  5
95C
330
67
100
AcDbEntity
  8
6-寸法
100
AcDbDimension
  2
*D17
 10
1274.294749266118
 20
1385.63505600846
 30
0.0
 11
1171.794749266118
 21
1410.63505600846
 31
0.0
 12
0.0
 22
-1500.034755571896
 32
0.0
 70
    32
 71
     5
 42
-1.0
  3
STANDARD
100
AcDbAlignedDimension
 13
1069.294749266119
 23
1485.63505600846
 33
0.0
 14
1274.294749266118
 24
1485.63505600846
 34
0.0
100
AcDbRotatedDimension
1001
ACAD
1000
DSTYLE
1002
{
1070
    40
1040
10.0
1070
   173
1070
     1
1070
    42
1040
3.0
1070
     7
1000
_OPEN
1070
     6
1000
_OPEN
1070
    41
1040
2.0
1002
}
  0
DIMENSION
  5
95D
330
67
100
AcDbEntity
  8
6-寸法
100
AcDbDimension
  2
*D18
 10
1249.294749266119
 20
1835.635056008459
 30
0.0
 11
1159.294749266118
 21
1860.635056008459
 31
0.0
 12
0.0
 22
-1500.034755571896
 32
0.0
 70
    32
 71
     5
 42
-1.0
  3
STANDARD
100
AcDbAlignedDimension
 13
1069.294749266119
 23
1735.635056008459
 33
0.0
 14
1249.294749266119
 24
1735.635056008459
 34
0.0
100
AcDbRotatedDimension
1001
ACAD
1000
DSTYLE
1002
{
1070
    40
1040
10.0
1070
   173
1070
     1
1070
    42
1040
3.0
1070
     7
1000
_OPEN
1070
     6
1000
_OPEN
1070
    41
1040
2.0
1002
}
  0
ARC
  5
95E
330
67
100
AcDbEntity
  8
1-構造
100
AcDbCircle
 10
1222.145122402756
 20
1705.635056008459
 30
0.0
 40
30.0
100
AcDbArc
 50
5.710593137499633
 51
90.0
  0
LINE
  5
95F
330
67
100
AcDbEntity
  8
1-構造
100
AcDbLine
 10
1069.294749266119
 20
1485.63505600846
 30
0.0
 11
1274.294749266118
 21
1485.63505600846
 31
0.0
  0
DIMENSION
  5
960
330
67
100
AcDbEntity
  8
6-寸法
100
AcDbDimension
  2
*D16
 10
969.2947492661188
 20
1485.63505600846
 30
0.0
 11
944.2947492661188
 21
1610.635056008459
 31
0.0
 12
0.0
 22
-1500.034755571896
 32
0.0
 70
    32
 71
     5
 42
-1.0
  3
STANDARD
100
AcDbAlignedDimension
 13
1069.294749266119
 23
1735.635056008459
 33
0.0
 14
1069.294749266119
 24
1485.63505600846
 34
0.0
 50
90.0
100
AcDbRotatedDimension
1001
ACAD
1000
DSTYLE
1002
{
1070
    40
1040
10.0
1070
   173
1070
     1
1070
    42
1040
3.0
1070
     7
1000
_OPEN
1070
     6
1000
_OPEN
1070
    41
1040
2.0
1002
}
  0
LINE
  5
961
330
67
100
AcDbEntity
  8
1-構造
100
AcDbLine
 10
1069.294749266119
 20
1735.635056008459
 30
0.0
 11
1069.294749266119
 21
1485.63505600846
 31
0.0
  0
LINE
  5
963
330
67
100
AcDbEntity
  8
1-構造
100
AcDbLine
 10
1069.294749266119
 20
1735.635056008459
 30
0.0
 11
1222.145122402756
 21
1735.635056008458
 31
0.0
  0
LINE
  5
964
330
67
100
AcDbEntity
  8
1-構造
100
AcDbLine
 10
1251.996238109056
 20
1708.620167579089
 30
0.0
 11
1274.294749266118
 21
1485.63505600846
 31
0.0
  0
LINE
  5
9B6
330
67
100
AcDbEntity
  8
1-構造
100
AcDbLine
 10
1251.996238109056
 20
1108.620167579089
 30
0.0
 11
1274.294749266118
 21
885.6350560084598
 31
0.0
  0
LINE
  5
9B7
330
67
100
AcDbEntity
  8
1-構造
100
AcDbLine
 10
1069.294749266119
 20
1135.63505600846
 30
0.0
 11
1069.294749266119
 21
885.6350560084598
 31
0.0
  0
DIMENSION
  5
9B8
330
67
100
AcDbEntity
  8
6-寸法
100
AcDbDimension
  2
*D21
 10
969.2947492661188
 20
885.6350560084598
 30
0.0
 11
944.2947492661188
 21
1010.63505600846
 31
0.0
 12
0.0
 22
-1500.034755571896
 32
0.0
 70
    32
 71
     5
 42
-1.0
  3
STANDARD
100
AcDbAlignedDimension
 13
1069.294749266119
 23
1135.63505600846
 33
0.0
 14
1069.294749266119
 24
885.6350560084598
 34
0.0
 50
90.0
100
AcDbRotatedDimension
1001
ACAD
1000
DSTYLE
1002
{
1070
    40
1040
10.0
1070
   173
1070
     1
1070
    42
1040
3.0
1070
     7
1000
_OPEN
1070
     6
1000
_OPEN
1070
    41
1040
2.0
1002
}
  0
LINE
  5
9B9
330
67
100
AcDbEntity
  8
1-構造
100
AcDbLine
 10
1069.294749266119
 20
885.6350560084598
 30
0.0
 11
1274.294749266118
 21
885.6350560084598
 31
0.0
  0
DIMENSION
  5
9BA
330
67
100
AcDbEntity
  8
6-寸法
100
AcDbDimension
  2
*D19
 10
1274.294749266118
 20
785.6350560084597
 30
0.0
 11
1171.794749266118
 21
810.6350560084598
 31
0.0
 12
0.0
 22
-1500.034755571896
 32
0.0
 70
    32
 71
     5
 42
-1.0
  3
STANDARD
100
AcDbAlignedDimension
 13
1069.294749266119
 23
885.6350560084598
 33
0.0
 14
1274.294749266118
 24
885.6350560084598
 34
0.0
100
AcDbRotatedDimension
1001
ACAD
1000
DSTYLE
1002
{
1070
    40
1040
10.0
1070
   173
1070
     1
1070
    42
1040
3.0
1070
     7
1000
_OPEN
1070
     6
1000
_OPEN
1070
    41
1040
2.0
1002
}
  0
ARC
  5
9BB
330
67
100
AcDbEntity
  8
1-構造
100
AcDbCircle
 10
1222.145122402756
 20
1105.635056008459
 30
0.0
 40
30.0
100
AcDbArc
 50
5.710593137499633
 51
90.0
  0
DIMENSION
  5
9BC
330
67
100
AcDbEntity
  8
6-寸法
100
AcDbDimension
  2
*D20
 10
1249.294749266119
 20
1235.635056008459
 30
0.0
 11
1159.294749266118
 21
1260.635056008459
 31
0.0
 12
0.0
 22
-1500.034755571896
 32
0.0
 70
    32
 71
     5
 42
-1.0
  3
STANDARD
100
AcDbAlignedDimension
 13
1069.294749266119
 23
1135.63505600846
 33
0.0
 14
1249.294749266119
 24
1135.635056008459
 34
0.0
100
AcDbRotatedDimension
1001
ACAD
1000
DSTYLE
1002
{
1070
    40
1040
10.0
1070
   173
1070
     1
1070
    42
1040
3.0
1070
     7
1000
_OPEN
1070
     6
1000
_OPEN
1070
    41
1040
2.0
1002
}
  0
LINE
  5
9BD
330
67
100
AcDbEntity
  8
1-構造
100
AcDbLine
 10
1069.294749266119
 20
1135.63505600846
 30
0.0
 11
1222.145122402756
 21
1135.635056008458
 31
0.0
  0
LINE
  5
9EB
330
67
100
AcDbEntity
  8
1-構造
100
AcDbLine
 10
1873.923165362892
 20
2335.635056008452
 30
0.0
 11
1873.923165362892
 21
2085.635056008459
 31
0.0
  0
LINE
  5
9ED
330
67
100
AcDbEntity
  8
1-構造
100
AcDbLine
 10
1873.923165362892
 20
1735.635056008452
 30
0.0
 11
1873.923165362892
 21
1485.63505600846
 31
0.0
  0
LINE
  5
9EE
330
67
100
AcDbEntity
  8
1-構造
100
AcDbLine
 10
1873.923165362892
 20
1135.635056008452
 30
0.0
 11
1873.923165362892
 21
885.6350560084598
 31
0.0
  0
LINE
  5
9EF
330
67
100
AcDbEntity
  8
1-構造
100
AcDbLine
 10
2473.923165362892
 20
2335.635056008452
 30
0.0
 11
2473.923165362892
 21
2085.635056008459
 31
0.0
  0
LINE
  5
9F0
330
67
100
AcDbEntity
  8
1-構造
100
AcDbLine
 10
2873.923165362893
 20
1735.635056008453
 30
0.0
 11
2873.923165362893
 21
1485.635056008461
 31
0.0
  0
LINE
  5
9F1
330
67
100
AcDbEntity
  8
1-構造
100
AcDbLine
 10
3873.923165362892
 20
1135.635056008454
 30
0.0
 11
3873.923165362893
 21
885.6350560084615
 31
0.0
  0
LINE
  5
9F2
330
67
100
AcDbEntity
  8
1-構造
100
AcDbLine
 10
1873.923165362892
 20
2335.635056008452
 30
0.0
 11
2473.923165362892
 21
2335.635056008452
 31
0.0
  0
LINE
  5
9F3
330
67
100
AcDbEntity
  8
1-構造
100
AcDbLine
 10
1873.923165362892
 20
2085.635056008459
 30
0.0
 11
2473.923165362892
 21
2085.635056008459
 31
0.0
  0
LINE
  5
9F4
330
67
100
AcDbEntity
  8
1-構造
100
AcDbLine
 10
1873.923165362892
 20
1735.635056008452
 30
0.0
 11
2873.923165362893
 21
1735.635056008453
 31
0.0
  0
LINE
  5
9F5
330
67
100
AcDbEntity
  8
1-構造
100
AcDbLine
 10
1873.923165362892
 20
1485.63505600846
 30
0.0
 11
2873.923165362893
 21
1485.63505600846
 31
0.0
  0
LINE
  5
9F6
330
67
100
AcDbEntity
  8
1-構造
100
AcDbLine
 10
1873.923165362892
 20
1135.635056008452
 30
0.0
 11
3873.923165362892
 21
1135.635056008454
 31
0.0
  0
LINE
  5
9F7
330
67
100
AcDbEntity
  8
1-構造
100
AcDbLine
 10
1873.923165362892
 20
885.6350560084598
 30
0.0
 11
3873.923165362892
 21
885.6350560084615
 31
0.0
  0
DIMENSION
  5
A11
330
67
100
AcDbEntity
  8
6-寸法
100
AcDbDimension
  2
*D22
 10
2473.923165362892
 20
1985.635056008459
 30
0.0
 11
2173.923165362892
 21
2010.63505600846
 31
0.0
 12
0.0
 22
-900.0347555718958
 32
0.0
 70
    32
 71
     5
 42
-1.0
  3
STANDARD
100
AcDbAlignedDimension
 13
1873.923165362892
 23
2085.635056008459
 33
0.0
 14
2473.923165362892
 24
2085.635056008459
 34
0.0
100
AcDbRotatedDimension
1001
ACAD
1000
DSTYLE
1002
{
1070
    40
1040
10.0
1070
   173
1070
     1
1070
    42
1040
3.0
1070
     7
1000
_OPEN
1070
     6
1000
_OPEN
1070
    41
1040
2.0
1002
}
  0
DIMENSION
  5
A1E
330
67
100
AcDbEntity
  8
6-寸法
100
AcDbDimension
  2
*D23
 10
2873.923165362893
 20
1375.63505600846
 30
0.0
 11
2373.923165362892
 21
1400.63505600846
 31
0.0
 12
0.0
 22
-900.0347555718958
 32
0.0
 70
    32
 71
     5
 42
-1.0
  3
STANDARD
100
AcDbAlignedDimension
 13
1873.923165362892
 23
1485.63505600846
 33
0.0
 14
2873.923165362893
 24
1485.63505600846
 34
0.0
100
AcDbRotatedDimension
1001
ACAD
1000
DSTYLE
1002
{
1070
    40
1040
10.0
1070
   173
1070
     1
1070
    42
1040
3.0
1070
     7
1000
_OPEN
1070
     6
1000
_OPEN
1070
    41
1040
2.0
1002
}
  0
DIMENSION
  5
A2B
330
67
100
AcDbEntity
  8
6-寸法
100
AcDbDimension
  2
*D24
 10
3873.923165362892
 20
785.6350560084597
 30
0.0
 11
2873.923165362893
 21
810.6350560084598
 31
0.0
 12
0.0
 22
-900.0347555718958
 32
0.0
 70
    32
 71
     5
 42
-1.0
  3
STANDARD
100
AcDbAlignedDimension
 13
1873.923165362892
 23
885.6350560084598
 33
0.0
 14
3873.923165362892
 24
885.6350560084615
 34
0.0
100
AcDbRotatedDimension
1001
ACAD
1000
DSTYLE
1002
{
1070
    40
1040
10.0
1070
   173
1070
     1
1070
    42
1040
3.0
1070
     7
1000
_OPEN
1070
     6
1000
_OPEN
1070
    41
1040
2.0
1002
}
  0
DIMENSION
  5
A2F
330
67
100
AcDbEntity
  8
6-寸法
100
AcDbDimension
  2
*D25
 10
5049.793930557877
 20
4735.669811580356
 30
0.0
 11
4959.793930557877
 21
4760.669811580355
 31
0.0
 12
3800.499181291758
 22
1400.0
 32
0.0
 70
    32
 71
     5
 42
-1.0
  3
STANDARD
100
AcDbAlignedDimension
 13
4869.793930557876
 23
4635.669811580355
 33
0.0
 14
5049.793930557877
 24
4635.669811580354
 34
0.0
100
AcDbRotatedDimension
1001
ACAD
1000
DSTYLE
1002
{
1070
    40
1040
10.0
1070
   173
1070
     1
1070
    42
1040
3.0
1070
     7
1000
_OPEN
1070
     6
1000
_OPEN
1070
    41
1040
2.0
1002
}
  0
LINE
  5
A34
330
67
100
AcDbEntity
  8
1-構造
100
AcDbLine
 10
4869.793930557876
 20
4635.669811580355
 30
0.0
 11
4869.793930557876
 21
4335.669811580356
 31
0.0
  0
LINE
  5
A35
330
67
100
AcDbEntity
  8
1-構造
100
AcDbLine
 10
4869.793930557876
 20
4635.669811580355
 30
0.0
 11
5022.644303694515
 21
4635.669811580353
 31
0.0
  0
LINE
  5
A3A
330
67
100
AcDbEntity
  8
1-構造
100
AcDbLine
 10
5674.42234665465
 20
4635.669811580348
 30
0.0
 11
6274.42234665465
 21
4635.669811580348
 31
0.0
  0
LINE
  5
A3B
330
67
100
AcDbEntity
  8
1-構造
100
AcDbLine
 10
5674.42234665465
 20
4635.669811580348
 30
0.0
 11
5674.422346654651
 21
4335.669811580356
 31
0.0
  0
LINE
  5
A3C
330
67
100
AcDbEntity
  8
1-構造
100
AcDbLine
 10
6274.42234665465
 20
4635.669811580348
 30
0.0
 11
6274.422346654651
 21
4335.669811580356
 31
0.0
  0
LINE
  5
A79
330
67
100
AcDbEntity
  8
1-構造
100
AcDbLine
 10
4869.793930557876
 20
4335.669811580356
 30
0.0
 11
5079.793930557876
 21
4335.669811580356
 31
0.0
  0
LINE
  5
A7C
330
67
100
AcDbEntity
  8
1-構造
100
AcDbLine
 10
5052.495419400813
 20
4608.654923150982
 30
0.0
 11
5079.793930557876
 21
4335.669811580356
 31
0.0
  0
ARC
  5
A7D
330
67
100
AcDbEntity
  8
1-構造
100
AcDbCircle
 10
5022.644303694514
 20
4605.669811580352
 30
0.0
 40
30.0
100
AcDbArc
 50
5.710593137499531
 51
89.99999999999912
  0
DIMENSION
  5
A97
330
67
100
AcDbEntity
  8
6-寸法
100
AcDbDimension
  2
*D26
 10
4769.793930557876
 20
4335.669811580356
 30
0.0
 11
4744.793930557876
 21
4485.669811580356
 31
0.0
 12
-76.0
 22
-300.0
 32
0.0
 70
    32
 71
     5
 42
-1.0
  3
STANDARD
100
AcDbAlignedDimension
 13
4869.793930557876
 23
4635.669811580355
 33
0.0
 14
4869.793930557876
 24
4335.669811580356
 34
0.0
 50
90.0
100
AcDbRotatedDimension
1001
ACAD
1000
DSTYLE
1002
{
1070
    40
1040
10.0
1070
   173
1070
     1
1070
    42
1040
3.0
1070
     7
1000
_OPEN
1070
     6
1000
_OPEN
1070
    41
1040
2.0
1002
}
  0
DIMENSION
  5
AA6
330
67
100
AcDbEntity
  8
6-寸法
100
AcDbDimension
  2
*D27
 10
5079.793930557876
 20
4235.669811580356
 30
0.0
 11
4974.793930557876
 21
4260.669811580355
 31
0.0
 12
-76.0
 22
-300.0
 32
0.0
 70
    32
 71
     5
 42
-1.0
  3
STANDARD
100
AcDbAlignedDimension
 13
4869.793930557876
 23
4335.669811580356
 33
0.0
 14
5079.793930557876
 24
4335.669811580356
 34
0.0
100
AcDbRotatedDimension
1001
ACAD
1000
DSTYLE
1002
{
1070
    40
1040
10.0
1070
   173
1070
     1
1070
    42
1040
3.0
1070
     7
1000
_OPEN
1070
     6
1000
_OPEN
1070
    41
1040
2.0
1002
}
  0
LINE
  5
AA8
330
67
100
AcDbEntity
  8
1-構造
100
AcDbLine
 10
5674.42234665465
 20
4335.669811580355
 30
0.0
 11
6274.42234665465
 21
4335.669811580356
 31
0.0
  0
DIMENSION
  5
AC2
330
67
100
AcDbEntity
  8
6-寸法
100
AcDbDimension
  2
*D28
 10
6274.42234665465
 20
4235.669811580356
 30
0.0
 11
5974.42234665465
 21
4260.669811580355
 31
0.0
 12
-76.0
 22
-300.0
 32
0.0
 70
    32
 71
     5
 42
-1.0
  3
STANDARD
100
AcDbAlignedDimension
 13
5674.42234665465
 23
4335.669811580355
 33
0.0
 14
6274.42234665465
 24
4335.669811580356
 34
0.0
100
AcDbRotatedDimension
1001
ACAD
1000
DSTYLE
1002
{
1070
    40
1040
10.0
1070
   173
1070
     1
1070
    42
1040
3.0
1070
     7
1000
_OPEN
1070
     6
1000
_OPEN
1070
    41
1040
2.0
1002
}
  0
LINE
  5
AC4
330
67
100
AcDbEntity
  8
1-構造
100
AcDbLine
 10
5674.42234665465
 20
3935.669811580348
 30
0.0
 11
5674.422346654651
 21
3635.669811580356
 31
0.0
  0
DIMENSION
  5
AC5
330
67
100
AcDbEntity
  8
6-寸法
100
AcDbDimension
  2
*D30
 10
4769.793930557876
 20
3635.669811580356
 30
0.0
 11
4744.793930557876
 21
3785.669811580356
 31
0.0
 12
-76.0
 22
-1000.0
 32
0.0
 70
    32
 71
     5
 42
-1.0
  3
STANDARD
100
AcDbAlignedDimension
 13
4869.793930557876
 23
3935.669811580356
 33
0.0
 14
4869.793930557876
 24
3635.669811580356
 34
0.0
 50
90.0
100
AcDbRotatedDimension
1001
ACAD
1000
DSTYLE
1002
{
1070
    40
1040
10.0
1070
   173
1070
     1
1070
    42
1040
3.0
1070
     7
1000
_OPEN
1070
     6
1000
_OPEN
1070
    41
1040
2.0
1002
}
  0
LINE
  5
AC6
330
67
100
AcDbEntity
  8
1-構造
100
AcDbLine
 10
5052.495419400813
 20
3908.654923150983
 30
0.0
 11
5079.793930557876
 21
3635.669811580356
 31
0.0
  0
LINE
  5
AC7
330
67
100
AcDbEntity
  8
1-構造
100
AcDbLine
 10
4869.793930557876
 20
3935.669811580356
 30
0.0
 11
4869.793930557876
 21
3635.669811580356
 31
0.0
  0
DIMENSION
  5
AC8
330
67
100
AcDbEntity
  8
6-寸法
100
AcDbDimension
  2
*D31
 10
5079.793930557876
 20
3535.669811580356
 30
0.0
 11
4974.793930557876
 21
3560.669811580356
 31
0.0
 12
-76.0
 22
-1000.0
 32
0.0
 70
    32
 71
     5
 42
-1.0
  3
STANDARD
100
AcDbAlignedDimension
 13
4869.793930557876
 23
3635.669811580356
 33
0.0
 14
5079.793930557876
 24
3635.669811580356
 34
0.0
100
AcDbRotatedDimension
1001
ACAD
1000
DSTYLE
1002
{
1070
    40
1040
10.0
1070
   173
1070
     1
1070
    42
1040
3.0
1070
     7
1000
_OPEN
1070
     6
1000
_OPEN
1070
    41
1040
2.0
1002
}
  0
LINE
  5
AC9
330
67
100
AcDbEntity
  8
1-構造
100
AcDbLine
 10
4869.793930557876
 20
3635.669811580356
 30
0.0
 11
5079.793930557876
 21
3635.669811580356
 31
0.0
  0
LINE
  5
ACB
330
67
100
AcDbEntity
  8
1-構造
100
AcDbLine
 10
5674.42234665465
 20
3635.669811580355
 30
0.0
 11
6674.422346654651
 21
3635.669811580356
 31
0.0
  0
DIMENSION
  5
ACC
330
67
100
AcDbEntity
  8
6-寸法
100
AcDbDimension
  2
*D29
 10
5049.793930557877
 20
4035.669811580356
 30
0.0
 11
4959.793930557877
 21
4060.669811580356
 31
0.0
 12
-76.0
 22
-1000.0
 32
0.0
 70
    32
 71
     5
 42
-1.0
  3
STANDARD
100
AcDbAlignedDimension
 13
4869.793930557876
 23
3935.669811580356
 33
0.0
 14
5049.793930557877
 24
3935.669811580355
 34
0.0
100
AcDbRotatedDimension
1001
ACAD
1000
DSTYLE
1002
{
1070
    40
1040
10.0
1070
   173
1070
     1
1070
    42
1040
3.0
1070
     7
1000
_OPEN
1070
     6
1000
_OPEN
1070
    41
1040
2.0
1002
}
  0
LINE
  5
ACD
330
67
100
AcDbEntity
  8
1-構造
100
AcDbLine
 10
4869.793930557876
 20
3935.669811580356
 30
0.0
 11
5022.644303694515
 21
3935.669811580353
 31
0.0
  0
ARC
  5
ACF
330
67
100
AcDbEntity
  8
1-構造
100
AcDbCircle
 10
5022.644303694514
 20
3905.669811580353
 30
0.0
 40
30.0
100
AcDbArc
 50
5.710593137499531
 51
89.99999999999912
  0
LINE
  5
AD0
330
67
100
AcDbEntity
  8
1-構造
100
AcDbLine
 10
5674.42234665465
 20
3935.669811580348
 30
0.0
 11
6674.42234665465
 21
3935.669811580348
 31
0.0
  0
DIMENSION
  5
B01
330
67
100
AcDbEntity
  8
6-寸法
100
AcDbDimension
  2
*D32
 10
4769.793930557876
 20
2935.669811580356
 30
0.0
 11
4744.793930557876
 21
3085.669811580356
 31
0.0
 12
-76.0
 22
-1000.0
 32
0.0
 70
    32
 71
     5
 42
-1.0
  3
STANDARD
100
AcDbAlignedDimension
 13
4869.793930557876
 23
3235.669811580355
 33
0.0
 14
4869.793930557876
 24
2935.669811580356
 34
0.0
 50
90.0
100
AcDbRotatedDimension
1001
ACAD
1000
DSTYLE
1002
{
1070
    40
1040
10.0
1070
   173
1070
     1
1070
    42
1040
3.0
1070
     7
1000
_OPEN
1070
     6
1000
_OPEN
1070
    41
1040
2.0
1002
}
  0
DIMENSION
  5
B02
330
67
100
AcDbEntity
  8
6-寸法
100
AcDbDimension
  2
*D34
 10
5049.793930557877
 20
3335.669811580356
 30
0.0
 11
4959.793930557877
 21
3360.669811580355
 31
0.0
 12
-76.0
 22
-1000.0
 32
0.0
 70
    32
 71
     5
 42
-1.0
  3
STANDARD
100
AcDbAlignedDimension
 13
4869.793930557876
 23
3235.669811580355
 33
0.0
 14
5049.793930557877
 24
3235.669811580355
 34
0.0
100
AcDbRotatedDimension
1001
ACAD
1000
DSTYLE
1002
{
1070
    40
1040
10.0
1070
   173
1070
     1
1070
    42
1040
3.0
1070
     7
1000
_OPEN
1070
     6
1000
_OPEN
1070
    41
1040
2.0
1002
}
  0
LINE
  5
B03
330
67
100
AcDbEntity
  8
1-構造
100
AcDbLine
 10
4869.793930557876
 20
3235.669811580355
 30
0.0
 11
4869.793930557876
 21
2935.669811580356
 31
0.0
  0
LINE
  5
B04
330
67
100
AcDbEntity
  8
1-構造
100
AcDbLine
 10
5052.495419400813
 20
3208.654923150983
 30
0.0
 11
5079.793930557876
 21
2935.669811580356
 31
0.0
  0
LINE
  5
B05
330
67
100
AcDbEntity
  8
1-構造
100
AcDbLine
 10
4869.793930557876
 20
2935.669811580356
 30
0.0
 11
5079.793930557876
 21
2935.669811580356
 31
0.0
  0
DIMENSION
  5
B06
330
67
100
AcDbEntity
  8
6-寸法
100
AcDbDimension
  2
*D33
 10
5079.793930557876
 20
2835.669811580356
 30
0.0
 11
4974.793930557876
 21
2860.669811580356
 31
0.0
 12
-76.0
 22
-1000.0
 32
0.0
 70
    32
 71
     5
 42
-1.0
  3
STANDARD
100
AcDbAlignedDimension
 13
4869.793930557876
 23
2935.669811580356
 33
0.0
 14
5079.793930557876
 24
2935.669811580356
 34
0.0
100
AcDbRotatedDimension
1001
ACAD
1000
DSTYLE
1002
{
1070
    40
1040
10.0
1070
   173
1070
     1
1070
    42
1040
3.0
1070
     7
1000
_OPEN
1070
     6
1000
_OPEN
1070
    41
1040
2.0
1002
}
  0
LINE
  5
B07
330
67
100
AcDbEntity
  8
1-構造
100
AcDbLine
 10
4869.793930557876
 20
3235.669811580355
 30
0.0
 11
5022.644303694515
 21
3235.669811580353
 31
0.0
  0
ARC
  5
B09
330
67
100
AcDbEntity
  8
1-構造
100
AcDbCircle
 10
5022.644303694514
 20
3205.669811580353
 30
0.0
 40
30.0
100
AcDbArc
 50
5.710593137499531
 51
89.99999999999912
  0
LINE
  5
B0A
330
67
100
AcDbEntity
  8
1-構造
100
AcDbLine
 10
5674.42234665465
 20
3235.669811580348
 30
0.0
 11
7674.422346654648
 21
3235.669811580348
 31
0.0
  0
LINE
  5
B0B
330
67
100
AcDbEntity
  8
1-構造
100
AcDbLine
 10
5674.42234665465
 20
2935.669811580355
 30
0.0
 11
7674.422346654651
 21
2935.669811580359
 31
0.0
  0
LINE
  5
B0D
330
67
100
AcDbEntity
  8
1-構造
100
AcDbLine
 10
5674.42234665465
 20
3235.669811580348
 30
0.0
 11
5674.422346654651
 21
2935.669811580356
 31
0.0
  0
LINE
  5
B3F
330
67
100
AcDbEntity
  8
1-構造
100
AcDbLine
 10
6674.42234665465
 20
3935.669811580351
 30
0.0
 11
6674.422346654651
 21
3635.669811580359
 31
0.0
  0
LINE
  5
B40
330
67
100
AcDbEntity
  8
1-構造
100
AcDbLine
 10
7674.42234665465
 20
3235.669811580355
 30
0.0
 11
7674.422346654651
 21
2935.669811580362
 31
0.0
  0
DIMENSION
  5
B4D
330
67
100
AcDbEntity
  8
6-寸法
100
AcDbDimension
  2
*D35
 10
6674.422346654651
 20
3535.669811580356
 30
0.0
 11
6174.422346654651
 21
3560.669811580356
 31
0.0
 12
-76.0
 22
-300.0
 32
0.0
 70
    32
 71
     5
 42
-1.0
  3
STANDARD
100
AcDbAlignedDimension
 13
5674.422346654651
 23
3635.669811580356
 33
0.0
 14
6674.422346654651
 24
3635.669811580359
 34
0.0
100
AcDbRotatedDimension
1001
ACAD
1000
DSTYLE
1002
{
1070
    40
1040
10.0
1070
   173
1070
     1
1070
    42
1040
3.0
1070
     7
1000
_OPEN
1070
     6
1000
_OPEN
1070
    41
1040
2.0
1002
}
  0
DIMENSION
  5
B5A
330
67
100
AcDbEntity
  8
6-寸法
100
AcDbDimension
  2
*D36
 10
7674.422346654651
 20
2825.669811580356
 30
0.0
 11
6674.422346654651
 21
2850.669811580356
 31
0.0
 12
-76.0
 22
-300.0
 32
0.0
 70
    32
 71
     5
 42
-1.0
  3
STANDARD
100
AcDbAlignedDimension
 13
5674.42234665465
 23
2935.669811580355
 33
0.0
 14
7674.422346654651
 24
2935.669811580361
 34
0.0
100
AcDbRotatedDimension
1001
ACAD
1000
DSTYLE
1002
{
1070
    40
1040
10.0
1070
   173
1070
     1
1070
    42
1040
3.0
1070
     7
1000
_OPEN
1070
     6
1000
_OPEN
1070
    41
1040
2.0
1002
}
  0
MTEXT
  5
B68
330
67
100
AcDbEntity
  8
0
  6
ByBlock
 62
     0
100
AcDbMText
 10
4982.740509228297
 20
4602.340324543758
 30
0.0
 40
25.0
 41
0.0
 71
     5
 72
     1
  1
\A1;R30
 11
0.6641864907109964
 21
0.7475669237981384
 31
0.0
 73
     1
 44
1.0
1001
ACAD
1000
MTEXTBEGIN
1070
    73
1070
     1
1070
    44
1040
1.0
1070
    74
1070
     0
1000
MTEXTEND
  0
LINE
  5
B69
330
67
100
AcDbEntity
  8
0
  6
ByBlock
 62
     0
100
AcDbLine
 10
4966.367477410731
 20
4552.328122921413
 30
0.0
 11
5037.110188384584
 21
4631.951709916158
 31
0.0
  0
INSERT
  5
B6A
330
67
100
AcDbEntity
  8
0
  6
ByBlock
 62
     0
100
AcDbBlockReference
  2
_OPEN
 10
5037.110188384586
 20
4631.95170991616
 30
0.0
 41
-20.0
 42
20.0
 43
20.0
 50
228.3800545900512
  0
LINE
  5
B6B
330
67
100
AcDbEntity
  8
0
  6
ByBlock
 62
     0
100
AcDbLine
 10
1165.868296118972
 20
1652.293367349519
 30
0.0
 11
1236.611007092825
 21
1731.916954344265
 31
0.0
  0
MTEXT
  5
B6C
330
67
100
AcDbEntity
  8
0
  6
ByBlock
 62
     0
100
AcDbMText
 10
1182.241327936538
 20
1702.305568971864
 30
0.0
 40
25.0
 41
0.0
 71
     5
 72
     1
  1
\A1;R30
 11
0.6641864907109964
 21
0.7475669237981384
 31
0.0
 73
     1
 44
1.0
1001
ACAD
1000
MTEXTBEGIN
1070
    73
1070
     1
1070
    44
1040
1.0
1070
    74
1070
     0
1000
MTEXTEND
  0
INSERT
  5
B6D
330
67
100
AcDbEntity
  8
0
  6
ByBlock
 62
     0
100
AcDbBlockReference
  2
_OPEN
 10
1236.611007092827
 20
1731.916954344267
 30
0.0
 41
-20.0
 42
20.0
 43
20.0
 50
228.3800545900512
  0
MTEXT
  5
B6E
330
67
100
AcDbEntity
  8
0
  6
ByBlock
 62
     0
100
AcDbMText
 10
1182.241327936533
 20
1102.305568971864
 30
0.0
 40
25.0
 41
0.0
 71
     5
 72
     1
  1
\A1;R30
 11
0.6641864907109964
 21
0.7475669237981384
 31
0.0
 73
     1
 44
1.0
1001
ACAD
1000
MTEXTBEGIN
1070
    73
1070
     1
1070
    44
1040
1.0
1070
    74
1070
     0
1000
MTEXTEND
  0
LINE
  5
B6F
330
67
100
AcDbEntity
  8
0
  6
ByBlock
 62
     0
100
AcDbLine
 10
1165.868296118967
 20
1052.293367349519
 30
0.0
 11
1236.61100709282
 21
1131.916954344265
 31
0.0
  0
INSERT
  5
B70
330
67
100
AcDbEntity
  8
0
  6
ByBlock
 62
     0
100
AcDbBlockReference
  2
_OPEN
 10
1236.611007092822
 20
1131.916954344267
 30
0.0
 41
-20.0
 42
20.0
 43
20.0
 50
228.3800545900512
  0
MTEXT
  5
B71
330
67
100
AcDbEntity
  8
0
  6
ByBlock
 62
     0
100
AcDbMText
 10
4982.740509228297
 20
3902.340324543759
 30
0.0
 40
25.0
 41
0.0
 71
     5
 72
     1
  1
\A1;R30
 11
0.6641864907109964
 21
0.7475669237981384
 31
0.0
 73
     1
 44
1.0
1001
ACAD
1000
MTEXTBEGIN
1070
    73
1070
     1
1070
    44
1040
1.0
1070
    74
1070
     0
1000
MTEXTEND
  0
LINE
  5
B72
330
67
100
AcDbEntity
  8
0
  6
ByBlock
 62
     0
100
AcDbLine
 10
4966.367477410731
 20
3852.328122921413
 30
0.0
 11
5037.110188384584
 21
3931.951709916159
 31
0.0
  0
INSERT
  5
B73
330
67
100
AcDbEntity
  8
0
  6
ByBlock
 62
     0
100
AcDbBlockReference
  2
_OPEN
 10
5037.110188384586
 20
3931.95170991616
 30
0.0
 41
-20.0
 42
20.0
 43
20.0
 50
228.3800545900512
  0
LINE
  5
B74
330
67
100
AcDbEntity
  8
0
  6
ByBlock
 62
     0
100
AcDbLine
 10
4966.367477410731
 20
3152.328122921414
 30
0.0
 11
5037.110188384584
 21
3231.951709916159
 31
0.0
  0
MTEXT
  5
B75
330
67
100
AcDbEntity
  8
0
  6
ByBlock
 62
     0
100
AcDbMText
 10
4982.740509228297
 20
3202.340324543758
 30
0.0
 40
25.0
 41
0.0
 71
     5
 72
     1
  1
\A1;R30
 11
0.6641864907109964
 21
0.7475669237981384
 31
0.0
 73
     1
 44
1.0
1001
ACAD
1000
MTEXTBEGIN
1070
    73
1070
     1
1070
    44
1040
1.0
1070
    74
1070
     0
1000
MTEXTEND
  0
INSERT
  5
B76
330
67
100
AcDbEntity
  8
0
  6
ByBlock
 62
     0
100
AcDbBlockReference
  2
_OPEN
 10
5037.110188384586
 20
3231.95170991616
 30
0.0
 41
-20.0
 42
20.0
 43
20.0
 50
228.3800545900512
  0
MTEXT
  5
B78
330
67
100
AcDbEntity
  8
0
  6
ByBlock
 62
     0
100
AcDbMText
 10
1182.241327936538
 20
2302.305568971865
 30
0.0
 40
25.0
 41
0.0
 71
     5
 72
     1
  1
\A1;R30
 11
0.6641864907109964
 21
0.7475669237981384
 31
0.0
 73
     1
 44
1.0
1001
ACAD
1000
MTEXTBEGIN
1070
    73
1070
     1
1070
    44
1040
1.0
1070
    74
1070
     0
1000
MTEXTEND
  0
LINE
  5
B79
330
67
100
AcDbEntity
  8
0
  6
ByBlock
 62
     0
100
AcDbLine
 10
1165.868296118972
 20
2252.29336734952
 30
0.0
 11
1236.611007092825
 21
2331.916954344265
 31
0.0
  0
INSERT
  5
B7A
330
67
100
AcDbEntity
  8
0
  6
ByBlock
 62
     0
100
AcDbBlockReference
  2
_OPEN
 10
1236.611007092827
 20
2331.916954344267
 30
0.0
 41
-20.0
 42
20.0
 43
20.0
 50
228.3800545900512
  0
LINE
  5
B7D
330
67
100
AcDbEntity
  8
7-文字
100
AcDbLine
 10
3477.081218274112
 20
5348.968403460996
 30
0.0
 11
4932.918781725889
 21
5348.968403460997
 31
0.0
  0
LINE
  5
B95
330
67
100
AcDbEntity
  8
7-文字
100
AcDbLine
 10
2033.265785808308
 20
4960.741238246864
 30
0.0
 11
762.6058873311503
 21
4960.741238246864
 31
0.0
  0
LINE
  5
B96
330
67
100
AcDbEntity
  8
7-文字
100
AcDbLine
 10
5833.265785808308
 20
4960.741238246864
 30
0.0
 11
4572.823667455139
 21
4960.741238246864
 31
0.0
  0
LINE
  5
B98
330
67
100
AcDbEntity
  8
7-文字
100
AcDbLine
 10
2032.453603067191
 20
2660.741238246864
 30
0.0
 11
762.6058873311503
 21
2660.741238246864
 31
0.0
  0
LINE
  5
B9F
330
67
100
AcDbEntity
  8
1-構造
100
AcDbLine
 10
5169.294749266118
 20
1835.669811580356
 30
0.0
 11
5169.294749266118
 21
1635.669811580355
 31
0.0
  0
LINE
  5
BA0
102
{ACAD_REACTORS
330
DCA
102
}
330
67
100
AcDbEntity
  8
1-構造
100
AcDbLine
 10
5321.095741828076
 20
1817.659885960775
 30
0.0
 11
5339.294749266119
 21
1635.669811580355
 31
0.0
  0
LINE
  5
BA2
330
67
100
AcDbEntity
  8
1-構造
100
AcDbLine
 10
5169.294749266118
 20
1635.669811580356
 30
0.0
 11
5339.294749266118
 21
1635.669811580356
 31
0.0
  0
LINE
  5
BA3
330
67
100
AcDbEntity
  8
1-構造
100
AcDbLine
 10
5169.294749266118
 20
1835.669811580356
 30
0.0
 11
5301.194998023876
 21
1835.669811580356
 31
0.0
  0
ARC
  5
BA5
330
67
100
AcDbEntity
  8
1-構造
100
AcDbCircle
 10
5301.194998023876
 20
1815.669811580356
 30
0.0
 40
20.0
100
AcDbArc
 50
5.710593137499633
 51
90.0
  0
POINT
  5
BA6
330
67
100
AcDbEntity
  8
DEFPOINTS
  6
ByBlock
 62
     0
100
AcDbPoint
 10
5314.478727838095
 20
1830.621150056319
 30
0.0
  0
LINE
  5
BD6
330
67
100
AcDbEntity
  8
7-文字
100
AcDbLine
 10
4562.098206198505
 20
2370.030060824698
 30
0.0
 11
6255.296175741652
 21
2370.030060824698
 31
0.0
  0
LINE
  5
BED
102
{ACAD_REACTORS
330
DCA
102
}
330
67
100
AcDbEntity
  8
細線
100
AcDbLine
 10
5134.294749266119
 20
1625.669811580355
 30
0.0
 11
5340.294749266117
 21
1625.669811580355
 31
0.0
  0
LINE
  5
BEE
330
67
100
AcDbEntity
  8
細線
100
AcDbLine
 10
5169.294749266118
 20
1635.669811580355
 30
0.0
 11
5169.294749266118
 21
1625.669811580355
 31
0.0
  0
LINE
  5
BEF
102
{ACAD_REACTORS
330
DCA
102
}
330
67
100
AcDbEntity
  8
細線
100
AcDbLine
 10
5339.294749266118
 20
1635.669811580355
 30
0.0
 11
5340.294749266117
 21
1625.669811580355
 31
0.0
  0
LINE
  5
BF0
102
{ACAD_REACTORS
330
DCA
102
}
330
67
100
AcDbEntity
  8
細線
100
AcDbLine
 10
5134.294749266119
 20
1480.669811580355
 30
0.0
 11
5834.294749266118
 21
1480.669811580354
 31
0.0
  0
LINE
  5
BF5
102
{ACAD_REACTORS
330
DCA
102
}
330
67
100
AcDbEntity
  8
細線
100
AcDbLine
 10
5334.294749266119
 20
1685.669811580356
 30
0.0
 11
5834.294749266119
 21
1715.669811580356
 31
0.0
  0
LINE
  5
BF6
102
{ACAD_REACTORS
330
DCA
102
}
330
67
100
AcDbEntity
  8
細線
100
AcDbLine
 10
5834.294749266119
 20
1715.669811580356
 30
0.0
 11
5834.294749266119
 21
1380.669811580354
 31
0.0
  0
LINE
  5
BF7
102
{ACAD_REACTORS
330
DCA
102
}
330
67
100
AcDbEntity
  8
細線
100
AcDbLine
 10
5134.294749266119
 20
1625.669811580355
 30
0.0
 11
5134.294749266118
 21
1380.669811580356
 31
0.0
  0
LINE
  5
BF8
330
67
100
AcDbEntity
  8
細線
100
AcDbLine
 10
5134.294749266119
 20
1380.669811580355
 30
0.0
 11
5834.294749266118
 21
1380.669811580354
 31
0.0
  0
DIMENSION
  5
C05
330
67
100
AcDbEntity
  8
6-寸法
100
AcDbDimension
  2
*D38
 10
5034.471990698055
 20
1480.669811580355
 30
0.0
 11
5009.471990698054
 21
1430.669811580355
 31
0.0
 70
    32
 71
     5
 42
-1.0
  3
STANDARD
100
AcDbAlignedDimension
 13
5134.294749266118
 23
1380.669811580356
 33
0.0
 14
5134.294749266118
 24
1480.669811580355
 34
0.0
 50
90.0
100
AcDbRotatedDimension
1001
ACAD
1000
DSTYLE
1002
{
1070
    40
1040
10.0
1070
   173
1070
     1
1070
    42
1040
3.0
1070
     7
1000
_OPEN
1070
     6
1000
_OPEN
1070
     5
1000

1070
    41
1040
2.0
1002
}
  0
DIMENSION
  5
C11
330
67
100
AcDbEntity
  8
6-寸法
100
AcDbDimension
  2
*D39
 10
5034.471990698055
 20
1625.669811580355
 30
0.0
 11
5009.471990698054
 21
1553.169811580355
 31
0.0
 70
    32
 71
     5
 42
-1.0
  3
STANDARD
100
AcDbAlignedDimension
 13
5134.294749266118
 23
1480.669811580355
 33
0.0
 14
5134.294749266119
 24
1625.669811580355
 34
0.0
 50
90.0
100
AcDbRotatedDimension
1001
ACAD
1000
DSTYLE
1002
{
1070
    75
1070
     1
1070
    40
1040
10.0
1070
   173
1070
     1
1070
    42
1040
3.0
1070
     7
1000
_OPEN
1070
     6
1000
_OPEN
1070
     5
1000

1070
    41
1040
2.0
1002
}
  0
DIMENSION
  5
C1F
330
67
100
AcDbEntity
  8
6-寸法
100
AcDbDimension
  2
*D40
 10
5034.471990698055
 20
1635.669811580356
 30
0.0
 11
5009.471990698054
 21
1630.669811580355
 31
0.0
 70
    32
 71
     5
 42
-1.0
  3
STANDARD
100
AcDbAlignedDimension
 13
5134.294749266119
 23
1625.669811580355
 33
0.0
 14
5169.294749266118
 24
1635.669811580356
 34
0.0
 50
90.0
100
AcDbRotatedDimension
1001
ACAD
1000
DSTYLE
1002
{
1070
    75
1070
     1
1070
    40
1040
10.0
1070
   173
1070
     1
1070
    42
1040
3.0
1070
     7
1000
_OPEN
1070
     6
1000
_OPEN
1070
     5
1000

1070
    41
1040
2.0
1002
}
  0
DIMENSION
  5
C2B
330
67
100
AcDbEntity
  8
6-寸法
100
AcDbDimension
  2
*D41
 10
5034.471990698055
 20
1835.669811580356
 30
0.0
 11
5009.471990698054
 21
1735.669811580355
 31
0.0
 70
    32
 71
     5
 42
-1.0
  3
STANDARD
100
AcDbAlignedDimension
 13
5169.294749266118
 23
1635.669811580356
 33
0.0
 14
5169.294749266118
 24
1835.669811580356
 34
0.0
 50
90.0
100
AcDbRotatedDimension
1001
ACAD
1000
DSTYLE
1002
{
1070
    75
1070
     1
1070
    40
1040
10.0
1070
   173
1070
     1
1070
    42
1040
3.0
1070
     7
1000
_OPEN
1070
     6
1000
_OPEN
1070
     5
1000

1070
    41
1040
2.0
1002
}
  0
DIMENSION
  5
C38
330
67
100
AcDbEntity
  8
6-寸法
100
AcDbDimension
  2
*D42
 10
5834.294749266118
 20
1284.993961448896
 30
0.0
 11
5484.294749266119
 21
1309.993961448897
 31
0.0
 70
    32
 71
     5
 42
-1.0
  3
STANDARD
100
AcDbAlignedDimension
 13
5134.294749266119
 23
1380.669811580355
 33
0.0
 14
5834.294749266118
 24
1380.669811580354
 34
0.0
100
AcDbRotatedDimension
1001
ACAD
1000
DSTYLE
1002
{
1070
    40
1040
10.0
1070
   173
1070
     1
1070
    42
1040
3.0
1070
     7
1000
_OPEN
1070
     6
1000
_OPEN
1070
     5
1000

1070
    41
1040
2.0
1002
}
  0
INSERT
  5
C43
330
67
100
AcDbEntity
  8
0
100
AcDbBlockReference
  2
GURIISI
 10
5134.294749266119
 20
1380.669811580355
 30
0.0
 41
0.5
 42
0.5
 43
0.5
  0
INSERT
  5
C46
330
67
100
AcDbEntity
  8
0
100
AcDbBlockReference
  2
GURIISI
 10
5834.294749266119
 20
1480.669811580354
 30
0.0
 41
0.5
 42
0.5
 43
0.5
 50
180.0
  0
MTEXT
  5
CB6
102
{ACAD_REACTORS
330
CB7
102
}
330
67
100
AcDbEntity
  8
7-文字
100
AcDbMText
 10
5903.601062592142
 20
1432.894812284333
 30
0.0
 40
25.0
 41
0.0
 71
     4
 72
     1
  1
砕　石（Ｃ－４０）
 73
     1
 44
1.0
1001
ACAD
1000
MTEXTBEGIN
1070
    73
1070
     1
1070
    44
1040
1.0
1070
    74
1070
     0
1000
MTEXTEND
  0
LEADER
  5
CB7
330
67
100
AcDbEntity
  8
7-文字
100
AcDbLeader
  3
STANDARD
 73
     0
 74
     0
 75
     1
 40
25.00000000000001
 41
265.2380952380954
 76
     3
 10
5744.826941573418
 20
1456.03015511271
 30
0.0
 10
5873.601062592141
 20
1410.394812284333
 30
0.0
 10
5893.601062592142
 20
1410.394812284333
 30
0.0
340
CB6
1001
ACAD
1000
DSTYLE
1002
{
1070
   341
1005
199
1070
    40
1040
10.0
1070
    41
1040
2.0
1070
    42
1040
3.0
1070
    45
1040
1.0
1070
    77
1070
     3
1070
   147
1040
1.0
1070
   172
1070
     0
1070
   173
1070
     1
1070
   174
1070
     0
1070
   343
1005
199
1070
   344
1005
199
1002
}
  0
LEADER
  5
CBA
330
67
100
AcDbEntity
  8
7-文字
100
AcDbLeader
  3
STANDARD
 73
     0
 74
     0
 75
     1
 40
25.00000000000001
 41
180.0
 76
     3
 10
5286.109369336973
 20
1631.734791965562
 30
0.0
 10
5473.047087154347
 20
1772.430910132052
 30
0.0
 10
5493.047087154348
 20
1772.430910132052
 30
0.0
340
CBB
213
0.0
223
-4.052984143190769
233
0.0
1001
ACAD
1000
DSTYLE
1002
{
1070
   341
1005
199
1070
    40
1040
10.0
1070
    41
1040
2.0
1070
    42
1040
3.0
1070
    45
1040
1.0
1070
    77
1070
     3
1070
   147
1040
1.0
1070
   172
1070
     0
1070
   173
1070
     1
1070
   174
1070
     0
1070
   343
1005
199
1070
   344
1005
199
1002
}
  0
MTEXT
  5
CBB
102
{ACAD_REACTORS
330
CBA
102
}
330
67
100
AcDbEntity
  8
7-文字
100
AcDbMText
 10
5503.047087154348
 20
1798.983894275243
 30
0.0
 40
25.0
 41
0.0
 71
     4
 72
     1
  1
\A1;据付モルタル
 73
     1
 44
1.0
1001
ACAD
1000
MTEXTBEGIN
1070
    73
1070
     1
1070
    44
1040
1.0
1070
    74
1070
     0
1000
MTEXTEND
  0
DIMENSION
  5
CFE
330
67
100
AcDbEntity
  8
6-寸法
100
AcDbDimension
  2
*D44
 10
5834.294749266119
 20
1935.669811580355
 30
0.0
 11
5584.294749266119
 21
1960.669811580356
 31
0.0
 70
    32
 71
     5
 42
-1.0
  3
STANDARD
100
AcDbAlignedDimension
 13
5334.294749266119
 23
1685.669811580356
 33
0.0
 14
5834.294749266119
 24
1715.669811580356
 34
0.0
100
AcDbRotatedDimension
1001
ACAD
1000
DSTYLE
1002
{
1070
    40
1040
10.0
1070
   173
1070
     1
1070
    42
1040
3.0
1070
     7
1000
_OPEN
1070
     6
1000
_OPEN
1070
     5
1000

1070
    41
1040
2.0
1002
}
  0
HATCH
  5
DCA
330
67
100
AcDbEntity
  8
0
100
AcDbHatch
 10
0.0
 20
0.0
 30
0.0
210
0.0
220
0.0
230
1.0
  2
AR-CONC
 70
     0
 71
     1
 91
        1
 92
        7
 72
     0
 73
     1
 93
        7
 10
5340.294749266115
 20
1625.669811580355
 10
5134.294749266119
 20
1625.669811580355
 10
5134.294749266119
 20
1480.669811580355
 10
5834.294749266119
 20
1480.669811580354
 10
5834.294749266119
 20
1715.669811580356
 10
5334.294749266119
 20
1685.669811580356
 10
5339.294749266119
 20
1635.669811580356
 97
        7
330
BF5
330
BA0
330
BEF
330
BED
330
BF7
330
BF0
330
BF6
 75
     0
 76
     1
 52
0.0
 41
20.0
 77
     0
 78
    13
 53
50.0
 43
1189.147689836032
 44
4889.750143086112
 45
143.4520365201507
 46
-12.55042699651902
 79
     2
 49
15.0
 49
-165.0
 53
355.0
 43
1189.147689836032
 44
4889.750143086112
 45
-27.7502667226
 46
150.4384267400024
 79
     2
 49
12.0
 49
-132.0
 53
100.4514
 43
1201.102025836032
 44
4888.704275086112
 45
115.7018763428043
 46
137.8879084121907
 79
     2
 49
12.748038
 49
-140.2284224
 53
46.1842
 43
1189.147689836032
 44
4929.750143086113
 45
213.4482097251289
 46
-33.10380286580361
 79
     2
 49
22.5
 49
-247.5
 53
96.6356
 43
1206.935038836032
 44
4926.991481686112
 45
186.9325411097406
 46
194.8235741800883
 79
     2
 49
19.1220576
 49
-210.3426
 53
351.1842000000001
 43
1189.147689836032
 44
4929.750143086113
 45
186.9323890267254
 46
194.8237201850649
 79
     2
 49
18.0
 49
-198.0
 53
21.0
 43
1209.147689836032
 44
4919.750143086112
 45
119.3814104236923
 46
-80.52377813306776
 79
     2
 49
15.0
 49
-165.0
 53
326.0
 43
1209.147689836032
 44
4919.750143086112
 45
48.66306638431634
 46
145.0300090093706
 79
     2
 49
12.0
 49
-132.0
 53
71.45140000000001
 43
1219.096136436032
 44
4913.039821886112
 45
168.0445257162979
 46
64.50609934199047
 79
     2
 49
12.748038
 49
-140.2284224
 53
37.5
 43
1189.147689836032
 44
4889.750143086112
 45
2.431971063458133
 46
66.57877076626229
 79
     6
 49
0.0
 49
-130.4
 49
0.0
 49
-134.0
 49
0.0
 49
-132.5
 53
7.499999999999999
 43
1189.147689836032
 44
4889.750143086112
 45
52.61390748842972
 46
78.88234237647205
 79
     6
 49
0.0
 49
-76.39999999999999
 49
0.0
 49
-127.4
 49
0.0
 49
-50.5
 53
327.5
 43
1144.547689836032
 44
4889.750143086112
 45
106.7644872344818
 46
-4.510974346875959
 79
     6
 49
0.0
 49
-50.0
 49
0.0
 49
-156.0
 49
0.0
 49
-207.0
 53
317.5
 43
1124.547689836033
 44
4889.750143086112
 45
116.6372338684772
 46
20.02099646646353
 79
     6
 49
0.0
 49
-65.0
 49
0.0
 49
-103.6
 49
0.0
 49
-147.0
 47
1.519171703519936
 98
        1
 10
5422.46816324161
 20
1599.97240834761
  0
TEXT
  5
E04
330
67
100
AcDbEntity
  8
6-寸法
100
AcDbText
 10
777.634480175258
 20
4989.618171541422
 30
0.0
 40
80.0
  1
片側歩車道境界ブロックＡ
  7
STANDARD2
100
AcDbText
  0
TEXT
  5
E06
330
67
100
AcDbEntity
  8
6-寸法
100
AcDbText
 10
3495.866959329246
 20
5366.80277718349
 30
0.0
 40
100.0
  1
片側歩車道境界ブロック
  7
STANDARD2
100
AcDbText
  0
TEXT
  5
E07
330
67
100
AcDbEntity
  8
6-寸法
100
AcDbText
 10
4577.634480175258
 20
4989.618171541422
 30
0.0
 40
80.0
  1
片側歩車道境界ブロックＣ
  7
STANDARD2
100
AcDbText
  0
TEXT
  5
E08
330
67
100
AcDbEntity
  8
6-寸法
100
AcDbText
 10
4730.177347063605
 20
2259.618171541424
 30
0.0
 40
80.0
  1
<例：歩車道境界ブロックＡ>
  7
STANDARD2
100
AcDbText
  0
TEXT
  5
E09
330
67
100
AcDbEntity
  8
6-寸法
100
AcDbText
 10
4577.634480175258
 20
2389.618171541424
 30
0.0
 40
80.0
  1
片側歩車道境界ブロック敷設参考図
  7
STANDARD2
100
AcDbText
  0
TEXT
  5
E0B
330
67
100
AcDbEntity
  8
6-寸法
100
AcDbText
 10
777.634480175258
 20
2689.618171541424
 30
0.0
 40
80.0
  1
片側歩車道境界ブロックＢ
  7
STANDARD2
100
AcDbText
  0
TEXT
  5
E0D
330
67
100
AcDbEntity
  8
6-寸法
100
AcDbText
 10
5888.868198058184
 20
1495.218780823018
 30
0.0
 40
25.0
  1
コンクリート
100
AcDbText
  0
INSERT
  5
E0E
330
67
100
AcDbEntity
  8
7-文字
100
AcDbBlockReference
  2
_OPEN
 10
5686.722715756801
 20
1544.646416882195
 30
0.0
 41
20.0
 42
20.0
 43
20.0
 50
160.7675591188831
1001
ACAD
1000
DSTYLE
1002
{
1070
   341
1005
199
1070
    40
1040
10.0
1070
    41
1040
2.0
1070
    42
1040
3.0
1070
    45
1040
1.0
1070
    77
1070
     3
1070
   147
1040
1.0
1070
   172
1070
     0
1070
   173
1070
     1
1070
   174
1070
     0
1070
   343
1005
199
1070
   344
1005
199
1002
}
  0
LWPOLYLINE
  5
E0F
330
67
100
AcDbEntity
  8
7-文字
100
AcDbPolyline
 90
        3
 70
     0
 43
0.0
 10
5705.606516047101
 20
1538.058390880721
 10
5872.319974707931
 20
1479.896761146832
 10
6090.44050659856
 20
1479.896761146832
1001
ACAD
1000
DSTYLE
1002
{
1070
   341
1005
199
1070
    40
1040
10.0
1070
    41
1040
2.0
1070
    42
1040
3.0
1070
    45
1040
1.0
1070
    77
1070
     3
1070
   147
1040
1.0
1070
   172
1070
     0
1070
   173
1070
     1
1070
   174
1070
     0
1070
   343
1005
199
1070
   344
1005
199
1002
}
  0
ENDSEC
  0
SECTION
  2
OBJECTS
  0
DICTIONARY
  5
5B
330
0
100
AcDbDictionary
281
     1
  3
ACAD_COLOR
350
DDD
  3
ACAD_GROUP
350
5C
  3
ACAD_LAYOUT
350
DDE
  3
ACAD_MATERIAL
350
DDC
  3
ACAD_MLINESTYLE
350
5D
  3
ACAD_PLOTSETTINGS
350
DDF
  3
ACAD_PLOTSTYLENAME
350
DDA
  3
ACDBHEADERROUNDTRIPXREC
350
E4D
  3
ACDBVARIABLEDICTIONARY
350
C47
  3
CONTENTDICTIONARY
350
B8B
  0
DICTIONARY
  5
DDD
102
{ACAD_REACTORS
330
5B
102
}
330
5B
100
AcDbDictionary
281
     1
  0
DICTIONARY
  5
5C
102
{ACAD_REACTORS
330
5B
102
}
330
5B
100
AcDbDictionary
281
     1
  0
DICTIONARY
  5
DDE
102
{ACAD_REACTORS
330
5B
102
}
330
5B
100
AcDbDictionary
281
     1
  3
Model
350
DE0
  3
レイアウト1
350
DE1
  0
DICTIONARY
  5
DDC
102
{ACAD_REACTORS
330
5B
102
}
330
5B
100
AcDbDictionary
281
     1
  0
DICTIONARY
  5
5D
102
{ACAD_REACTORS
330
5B
102
}
330
5B
100
AcDbDictionary
281
     1
  3
STANDARD
350
6A
  0
DICTIONARY
  5
DDF
102
{ACAD_REACTORS
330
5B
102
}
330
5B
100
AcDbDictionary
281
     1
  0
ACDBDICTIONARYWDFLT
  5
DDA
102
{ACAD_REACTORS
330
5B
102
}
330
5B
100
AcDbDictionary
281
     1
  3
Normal
350
DDB
100
AcDbDictionaryWithDefault
340
DDB
  0
DICTIONARY
  5
E4D
102
{ACAD_REACTORS
330
5B
102
}
330
5B
100
AcDbDictionary
281
     1
  3
COLORDICT
350
E4F
  3
MATERIALDICT
350
E4E
  0
DICTIONARY
  5
C47
102
{ACAD_REACTORS
330
5B
102
}
330
5B
100
AcDbDictionary
281
     1
  3
DIMASSOC
350
E36
  3
PROJECTNAME
350
E37
  3
SORTENTS
350
C48
  0
DICTIONARY
  5
B8B
102
{ACAD_REACTORS
330
5B
102
}
330
5B
100
AcDbDictionary
281
     1
  0
LAYOUT
  5
DE0
102
{ACAD_XDICTIONARY
360
E50
102
}
102
{ACAD_REACTORS
330
DDE
102
}
330
DDE
100
AcDbPlotSettings
  1

  2
EPSON LP-S5000
  4

  6

 40
0.0
 41
0.0
 42
0.0
 43
0.0
 44
0.0
 45
0.0
 46
0.0
 47
0.0
 48
0.0
 49
0.0
140
0.0
141
0.0
142
1.0
143
1.0
 70
  1712
 72
     0
 73
     0
 74
     0
  7

 75
     0
147
1.0
148
0.0
149
0.0
100
AcDbLayout
  1
Model
 70
     1
 71
     0
 10
0.0
 20
0.0
 11
12.0
 21
9.0
 12
0.0
 22
0.0
 32
0.0
 14
0.0
 24
0.0
 34
0.0
 15
0.0
 25
0.0
 35
0.0
146
0.0
 13
0.0
 23
0.0
 33
0.0
 16
1.0
 26
0.0
 36
0.0
 17
0.0
 27
1.0
 37
0.0
 76
     0
330
67
  0
LAYOUT
  5
DE1
102
{ACAD_XDICTIONARY
360
E52
102
}
102
{ACAD_REACTORS
330
DDE
102
}
330
DDE
100
AcDbPlotSettings
  1

  2
EPSON LP-S5000
  4

  6

 40
0.0
 41
0.0
 42
0.0
 43
0.0
 44
0.0
 45
0.0
 46
0.0
 47
0.0
 48
0.0
 49
0.0
140
0.0
141
0.0
142
1.0
143
1.0
 70
   688
 72
     0
 73
     0
 74
     5
  7

 75
    16
147
1.0
148
0.0
149
0.0
100
AcDbLayout
  1
レイアウト1
 70
     0
 71
     1
 10
0.0
 20
0.0
 11
12.0
 21
9.0
 12
0.0
 22
0.0
 32
0.0
 14
1.000000000000000E+20
 24
1.000000000000000E+20
 34
1.000000000000000E+20
 15
-1.000000000000000E+20
 25
-1.000000000000000E+20
 35
-1.000000000000000E+20
146
0.0
 13
0.0
 23
0.0
 33
0.0
 16
1.0
 26
0.0
 36
0.0
 17
0.0
 27
1.0
 37
0.0
 76
     0
330
64
  0
MLINESTYLE
  5
6A
102
{ACAD_REACTORS
330
5D
102
}
330
5D
100
AcDbMlineStyle
  2
STANDARD
 70
     0
  3

 62
     0
 51
90.0
 52
90.0
 71
     2
 49
0.5
 62
   256
  6
BYLAYER
 49
-0.5
 62
   256
  6
BYLAYER
  0
ACDBPLACEHOLDER
  5
DDB
102
{ACAD_REACTORS
330
DDA
102
}
330
DDA
  0
XRECORD
  5
E4F
102
{ACAD_REACTORS
330
E4D
102
}
330
E4D
100
AcDbXrecord
280
     1
340
DDD
  0
XRECORD
  5
E4E
102
{ACAD_REACTORS
330
E4D
102
}
330
E4D
100
AcDbXrecord
280
     1
340
DDC
  0
DICTIONARYVAR
  5
E36
102
{ACAD_REACTORS
330
C47
102
}
330
C47
100
DictionaryVariables
280
     0
  1
1
  0
DICTIONARYVAR
  5
E37
102
{ACAD_REACTORS
330
C47
102
}
330
C47
100
DictionaryVariables
280
     0
  1

  0
DICTIONARYVAR
  5
C48
102
{ACAD_REACTORS
330
C47
102
}
330
C47
100
DictionaryVariables
280
     0
  1
96
  0
DICTIONARY
  5
E50
330
DE0
100
AcDbDictionary
280
     1
281
     1
  3
ACAD_XREC_ROUNDTRIP
360
E51
  0
DICTIONARY
  5
E52
330
DE1
100
AcDbDictionary
280
     1
281
     1
  3
ACAD_XREC_ROUNDTRIP
360
E53
  0
XRECORD
  5
E51
102
{ACAD_REACTORS
330
E50
102
}
330
E50
100
AcDbXrecord
280
     1
102
SHADEPLOT
 70
     0
102
SHADEPLOTRESLEVEL
 70
     2
102
SHADEPLOTCUSTOMDPI
 70
   300
  0
XRECORD
  5
E53
102
{ACAD_REACTORS
330
E52
102
}
330
E52
100
AcDbXrecord
280
     1
102
SHADEPLOT
 70
     0
102
SHADEPLOTRESLEVEL
 70
     2
102
SHADEPLOTCUSTOMDPI
 70
   300
  0
ENDSEC
  0
EOF
